osu file format v14

[General]
AudioFilename: audio.mp3
AudioLeadIn: 0
PreviewTime: 68120
Countdown: 0
SampleSet: Soft
StackLeniency: 0.3
Mode: 0
LetterboxInBreaks: 0
WidescreenStoryboard: 1

[Editor]
Bookmarks: 3,11297,22591,45179,56473,79061,101650,112944,135532
DistanceSpacing: 0.1
BeatDivisor: 4
GridSize: 32
TimelineZoom: 2.659999

[Metadata]
Title:Gav-Gav
TitleUnicode:Гав-Гав
Artist:Slava KPSS feat. Lida
ArtistUnicode:Слава КПСС feat. Lida
Creator:piroshki
Version:Astrolis' Insane
Source:
Tags:russian electronic pop trance rave e4pi4mak daycore astrolis B2007 aishiteiru- ангельское angelskoye true соня мармеладова гнойный воровская лапа валентин дядька бутер бродский антихайп antihype
BeatmapID:3905550
BeatmapSetID:1832981

[Difficulty]
HPDrainRate:5.5
CircleSize:4
OverallDifficulty:8
ApproachRate:9
SliderMultiplier:1.8
SliderTickRate:1

[Events]
//Background and Video events
0,0,"92254611_p000.jpg",0,0
//Break Periods
2,101850,106697
//Storyboard Layer 0 (Background)
//Storyboard Layer 1 (Fail)
//Storyboard Layer 2 (Pass)
//Storyboard Layer 3 (Foreground)
//Storyboard Layer 4 (Overlay)
//Storyboard Sound Samples

[TimingPoints]
3,352.941176470588,4,2,1,60,1,0
11297,-76.9230769230769,4,2,1,90,0,0
11561,-76.9230769230769,4,2,1,5,0,0
11650,-76.9230769230769,4,2,1,90,0,0
13855,-76.9230769230769,4,2,1,5,0,0
13944,-76.9230769230769,4,2,1,90,0,0
14385,-76.9230769230769,4,2,1,5,0,0
14474,-76.9230769230769,4,2,1,90,0,0
17208,-76.9230769230769,4,2,1,5,0,0
17297,-76.9230769230769,4,2,1,90,0,0
19502,-76.9230769230769,4,2,1,5,0,0
19591,-76.9230769230769,4,2,1,90,0,0
20208,-76.9230769230769,4,2,1,5,0,0
20297,-76.9230769230769,4,2,1,90,0,0
21091,-76.9230769230769,4,2,1,5,0,0
21180,-76.9230769230769,4,2,1,90,0,0
21444,-76.9230769230769,4,2,1,5,0,0
21533,-76.9230769230769,4,2,1,90,0,0
21973,-76.9230769230769,4,2,1,5,0,0
22062,-76.9230769230769,4,2,1,90,0,0
22326,-76.9230769230769,4,2,1,5,0,0
22415,-76.9230769230769,4,2,1,90,0,0
22591,-117.647058823529,4,2,1,78,0,0
24267,-117.647058823529,4,2,1,5,0,0
24355,-117.647058823529,4,2,1,78,0,0
25326,-117.647058823529,4,2,1,5,0,0
25414,-117.647058823529,4,2,1,78,0,0
28150,-117.647058823529,4,2,1,5,0,0
28238,-117.647058823529,4,2,1,78,0,0
28502,-117.647058823529,4,2,1,5,0,0
28590,-117.647058823529,4,2,1,78,0,0
30620,-117.647058823529,4,2,1,5,0,0
30708,-117.647058823529,4,2,1,78,0,0
33797,-117.647058823529,4,2,1,5,0,0
33885,-100,4,2,1,78,0,0
34150,-100,4,2,1,5,0,0
34238,-100,4,2,1,78,0,0
36973,-100,4,2,1,5,0,0
37061,-100,4,2,1,78,0,0
38385,-100,4,2,1,5,0,0
38473,-100,4,2,1,78,0,0
39444,-100,4,2,1,5,0,0
39532,-100,4,2,1,78,0,0
41738,-100,4,2,1,5,0,0
41826,-100,4,2,1,78,0,0
42091,-100,4,2,1,5,0,0
42179,-100,4,2,1,78,0,0
45179,-100,4,2,1,60,0,0
51179,-166.666666666667,4,2,1,60,0,0
56473,-76.9230769230769,4,2,1,90,0,1
56738,-76.9230769230769,4,2,1,5,0,1
56826,-76.9230769230769,4,2,1,90,0,1
59032,-76.9230769230769,4,2,1,5,0,1
59120,-76.9230769230769,4,2,1,90,0,1
59561,-76.9230769230769,4,2,1,5,0,1
59649,-76.9230769230769,4,2,1,90,0,1
62385,-76.9230769230769,4,2,1,5,0,1
62473,-76.9230769230769,4,2,1,90,0,1
64767,-76.9230769230769,4,2,1,5,0,1
64855,-76.9230769230769,4,2,1,90,0,1
65208,-76.9230769230769,4,2,1,5,0,1
65296,-76.9230769230769,4,2,1,90,0,1
65385,-76.9230769230769,4,2,1,5,0,1
65473,-76.9230769230769,4,2,1,90,0,1
66267,-76.9230769230769,4,2,1,5,0,1
66355,-76.9230769230769,4,2,1,90,0,1
66620,-76.9230769230769,4,2,1,5,0,1
66708,-76.9230769230769,4,2,1,90,0,1
67150,-76.9230769230769,4,2,1,5,0,1
67238,-76.9230769230769,4,2,1,90,0,1
67502,-76.9230769230769,4,2,1,5,0,1
67590,-76.9230769230769,4,2,1,90,0,1
68032,-76.9230769230769,4,2,1,5,0,1
68120,-76.9230769230769,4,2,1,90,0,1
70414,-76.9230769230769,4,2,1,5,0,1
70502,-76.9230769230769,4,2,1,90,0,1
70855,-76.9230769230769,4,2,1,5,0,1
70943,-76.9230769230769,4,2,1,90,0,1
73238,-76.9230769230769,4,2,1,5,0,1
73326,-76.9230769230769,4,2,1,90,0,1
73679,-76.9230769230769,4,2,1,5,0,1
73767,-76.9230769230769,4,2,1,90,0,1
75973,-76.9230769230769,4,2,1,5,0,1
76061,-76.9230769230769,4,2,1,90,0,1
76502,-76.9230769230769,4,2,1,5,0,1
76590,-76.9230769230769,4,2,1,90,0,1
76679,-76.9230769230769,4,2,1,5,0,1
76767,-76.9230769230769,4,2,1,90,0,1
77561,-76.9230769230769,4,2,1,5,0,1
77649,-76.9230769230769,4,2,1,90,0,1
77914,-76.9230769230769,4,2,1,5,0,1
78002,-76.9230769230769,4,2,1,90,0,1
78444,-76.9230769230769,4,2,1,5,0,1
78532,-76.9230769230769,4,2,1,90,0,1
78973,-76.9230769230769,4,2,1,5,0,1
79061,-117.647058823529,4,2,1,78,0,0
81444,-117.647058823529,4,2,1,5,0,0
81532,-117.647058823529,4,2,1,78,0,0
83561,-117.647058823529,4,2,1,5,0,0
83649,-117.647058823529,4,2,1,78,0,0
84620,-117.647058823529,4,2,1,5,0,0
84708,-117.647058823529,4,2,1,78,0,0
87091,-117.647058823529,4,2,1,5,0,0
87179,-117.647058823529,4,2,1,78,0,0
89826,-117.647058823529,4,2,1,5,0,0
89914,-117.647058823529,4,2,1,78,0,0
90267,-117.647058823529,4,2,1,5,0,0
90355,-100,4,2,1,78,0,0
91326,-100,4,2,1,5,0,0
91414,-100,4,2,1,78,0,0
93091,-100,4,2,1,5,0,0
93179,-100,4,2,1,78,0,0
98297,-100,4,2,1,5,0,0
98385,-100,4,2,1,78,0,0
101650,-100,4,2,1,60,0,0
107297,-153.846153846154,4,2,1,60,0,0
112855,-153.846153846154,4,2,1,5,0,0
112944,-76.9230769230769,4,2,1,90,0,1
113208,-76.9230769230769,4,2,1,5,0,1
113297,-76.9230769230769,4,2,1,90,0,1
115502,-76.9230769230769,4,2,1,5,0,1
115591,-76.9230769230769,4,2,1,90,0,1
116032,-76.9230769230769,4,2,1,5,0,1
116121,-76.9230769230769,4,2,1,90,0,1
118326,-76.9230769230769,4,2,1,5,0,1
118415,-76.9230769230769,4,2,1,90,0,1
121150,-76.9230769230769,4,2,1,5,0,1
121239,-76.9230769230769,4,2,1,90,0,1
121679,-76.9230769230769,4,2,1,5,0,1
121768,-76.9230769230769,4,2,1,90,0,1
121855,-76.9230769230769,4,2,1,5,0,1
121944,-76.9230769230769,4,2,1,90,0,1
122738,-76.9230769230769,4,2,1,5,0,1
122827,-76.9230769230769,4,2,1,90,0,1
123091,-76.9230769230769,4,2,1,5,0,1
123180,-76.9230769230769,4,2,1,90,0,1
123620,-76.9230769230769,4,2,1,5,0,1
123709,-76.9230769230769,4,2,1,90,0,1
124150,-76.9230769230769,4,2,1,5,0,1
124239,-76.9230769230769,4,2,1,90,0,1
124502,-76.9230769230769,4,2,1,5,0,1
124591,-76.9230769230769,4,2,1,90,0,1
125208,-76.9230769230769,4,2,1,5,0,1
125297,-76.9230769230769,4,2,1,90,0,1
126797,-76.9230769230769,4,2,1,5,0,1
126886,-76.9230769230769,4,2,1,90,0,1
127326,-76.9230769230769,4,2,1,5,0,1
127415,-76.9230769230769,4,2,1,90,0,1
129620,-76.9230769230769,4,2,1,5,0,1
129709,-76.9230769230769,4,2,1,90,0,1
130150,-76.9230769230769,4,2,1,5,0,1
130239,-76.9230769230769,4,2,1,90,0,1
132532,-76.9230769230769,4,2,1,5,0,1
132621,-76.9230769230769,4,2,1,90,0,1
132973,-76.9230769230769,4,2,1,5,0,1
133062,-76.9230769230769,4,2,1,90,0,1
133150,-76.9230769230769,4,2,1,5,0,1
133239,-76.9230769230769,4,2,1,90,0,1
134032,-76.9230769230769,4,2,1,5,0,1
134121,-76.9230769230769,4,2,1,90,0,1
134385,-76.9230769230769,4,2,1,5,0,1
134474,-76.9230769230769,4,2,1,90,0,1
134914,-76.9230769230769,4,2,1,5,0,1
135003,-76.9230769230769,4,2,1,90,0,1
135532,-76.9230769230769,4,2,1,45,0,0

[Colours]
Combo1 : 241,185,129
Combo2 : 149,218,255
Combo3 : 221,155,247
Combo4 : 255,125,125

[HitObjects]
60,20,10767,5,0,3:2:0:0:
224,117,11120,1,0,3:2:0:0:
224,117,11297,6,0,P|179:111|23:98,1,175.499991966248,4|0,2:1|2:0,2:0:0:0:
44,111,11650,2,0,P|13:131|15:208,1,116.999994644165,10|2,3:2|2:0,2:0:0:0:
133,90,12002,1,10,3:2:0:0:
95,220,12179,1,2,2:0:0:0:
159,167,12355,1,10,3:2:0:0:
252,312,12532,6,0,P|225:353|153:363,1,116.999994644165,2|0,2:0|2:0,2:0:0:0:
166,177,12885,2,0,P|172:236|178:293,1,116.999994644165,2|8,2:0|3:2,2:0:0:0:
5,373,13238,2,0,P|22:282|26:235,1,116.999994644165,2|10,2:0|3:2,2:0:0:0:
165,95,13591,2,0,B|283:112|197:156|354:174,1,175.499991966248,2|0,2:0|2:0,2:0:0:0:
327,163,13944,1,2,2:0:0:0:
504,265,14120,6,0,P|472:325|373:298,1,175.499991966248,6|0,2:0|2:0,2:0:0:0:
377,294,14473,2,0,P|364:259|411:196,1,116.999994644165,10|2,3:2|2:0,2:0:0:0:
461,353,14826,1,10,3:2:0:0:
503,184,15002,1,2,2:0:0:0:
509,274,15179,1,10,3:2:0:0:
341,99,15355,6,0,P|362:36|511:48,1,233.999989288331,2|2,2:0|2:0,2:0:0:0:
443,132,15885,1,8,3:2:0:0:
325,17,16061,2,0,B|269:-3|269:-3|211:56,1,116.999994644165,2|10,2:0|3:2,2:0:0:0:
357,184,16414,2,0,B|316:225|316:225|260:205,1,116.999994644165,2|10,2:0|3:2,2:0:0:0:
169,131,16767,5,2,2:0:0:0:
169,131,16855,1,0,2:0:0:0:
169,131,16944,2,0,P|280:112|388:98,1,175.499991966248,6|0,2:0|2:0,2:0:0:0:
353,108,17297,2,0,P|404:91|411:33,1,116.999994644165,10|2,3:2|2:0,2:0:0:0:
231,17,17650,1,10,3:2:0:0:
247,105,17826,1,2,2:0:0:0:
264,193,18002,1,10,3:2:0:0:
175,368,18179,6,0,P|121:355|101:294,1,116.999994644165,2|0,2:0|2:0,2:0:0:0:
293,267,18532,2,0,P|228:288|168:287,1,116.999994644165,2|8,2:0|3:2,2:0:0:0:
16,373,18885,2,0,P|2:289|-16:232,1,116.999994644165,2|10,2:0|3:2,2:0:0:0:
86,79,19238,2,0,P|151:139|118:208,1,175.499991966248,2|0,2:0|2:0,2:0:0:0:
110,204,19591,5,2,2:0:0:0:
99,198,19679,1,0,2:0:0:0:
92,193,19767,2,0,P|139:175|266:130,1,175.499991966248,6|0,2:0|2:0,2:0:0:0:
273,131,20120,6,0,P|290:145|295:194,1,58.4999973220826,10|0,3:2|2:0,2:0:0:0:
219,200,20297,1,2,2:0:0:0:
246,17,20473,1,10,3:2:0:0:
324,61,20650,1,2,2:0:0:0:
407,100,20826,1,10,3:2:0:0:
169,54,21002,6,0,P|134:65|108:74,1,58.4999973220826,2|0,2:0|2:0,2:0:0:0:
20,102,21179,1,10,3:2:0:0:
265,135,21355,6,0,P|230:124|204:115,1,58.4999973220826,2|0,2:0|2:0,2:0:0:0:
116,87,21532,1,10,3:2:0:0:
137,164,21708,1,2,2:0:0:0:
293,208,21885,6,0,P|327:187|344:149,1,58.4999973220826,10|0,3:2|2:0,2:0:0:0:
320,83,22061,1,2,2:0:0:0:
307,334,22238,6,0,P|273:313|256:275,1,58.4999973220826,10|0,3:2|2:0,2:0:0:0:
280,209,22414,1,2,2:0:0:0:
455,384,22591,6,0,P|464:336|475:282,1,76.5000014591217,6|2,2:0|2:0,2:0:0:0:
345,172,22944,2,0,P|352:209|359:247,1,76.5000014591217,10|2,3:2|2:0,2:0:0:0:
453,205,23297,1,10,3:2:0:0:
453,205,23473,1,2,2:0:0:0:
383,329,23650,2,0,P|348:360|302:353,1,76.5000014591217,10|2,3:2|2:0,2:0:0:0:
149,279,24002,6,0,P|229:293|280:299,1,114.750002188683,10|2,3:2|2:0,2:0:0:0:
272,293,24355,2,0,P|288:257|266:216,1,76.5000014591217,8|2,3:2|2:0,2:0:0:0:
205,380,24708,1,10,3:2:0:0:
205,380,24885,1,2,2:0:0:0:
115,345,25061,2,0,P|54:352|-6:358,1,114.750002188683,10|0,3:2|2:0,2:0:0:0:
6,348,25414,6,0,P|13:298|12:245,1,76.5000014591217,6|2,2:0|2:0,2:0:0:0:
63,209,25679,1,2,2:0:0:0:
64,200,25767,2,0,P|109:183|151:215,1,76.5000014591217,10|2,3:2|2:0,2:0:0:0:
6,142,26120,1,10,3:2:0:0:
6,142,26297,1,2,2:0:0:0:
111,273,26473,2,0,P|158:265|206:258,1,76.5000014591217,10|2,3:2|2:0,2:0:0:0:
155,13,26914,5,2,2:0:0:0:
157,21,27002,1,2,2:0:0:0:
194,133,27179,1,8,3:2:0:0:
251,67,27355,1,2,2:0:0:0:
344,172,27532,2,0,P|308:175|276:149,1,76.5000014591217,10|2,3:2|2:0,2:0:0:0:
349,21,27885,2,0,P|313:18|243:65,1,114.750002188683,10|0,3:2|2:0,2:0:0:0:
251,67,28238,6,0,P|318:86|391:103,1,114.750002188683,6|0,3:2|2:0,2:0:0:0:
373,97,28591,2,0,P|418:93|445:64,1,76.5000014591217,10|2,3:2|2:0,2:0:0:0:
487,0,28944,1,10,3:2:0:0:
510,140,29120,1,2,2:0:0:0:
351,182,29297,2,0,P|388:188|426:195,1,76.5000014591217,10|2,3:2|2:0,2:0:0:0:
263,378,29826,5,2,2:0:0:0:
263,378,30002,2,0,P|215:369|163:359,1,76.5000014591217,8|2,3:2|2:0,2:0:0:0:
144,201,30355,2,0,P|199:204|233:278,1,114.750002188683,10|2,3:2|2:0,2:0:0:0:
233,263,30708,2,0,P|286:275|409:300,1,153.000002918243,10|6,3:2|3:2,2:0:0:0:
509,383,31238,5,2,2:0:0:0:
475,305,31414,1,10,3:2:0:0:
363,375,31591,1,2,2:0:0:0:
310,257,31767,2,0,P|304:219|301:180,2,76.5000014591217,10|2|10,3:2|2:0|3:2,2:0:0:0:
214,380,32297,1,2,2:0:0:0:
85,288,32473,6,0,P|134:297|151:334,1,76.5000014591217,10|2,3:2|2:0,2:0:0:0:
32,224,32826,2,0,P|41:175|78:158,1,76.5000014591217,10|2,3:2|2:0,2:0:0:0:
181,191,33179,1,10,3:2:0:0:
132,122,33355,1,2,2:0:0:0:
26,235,33532,2,0,P|36:292|44:349,1,114.750002188683,10|0,3:2|2:0,2:0:0:0:
52,364,33885,6,0,B|130:346|106:383|198:369,1,135,6|0,3:2|2:0,2:0:0:0:
199,374,34238,2,0,P|228:379|244:317,1,90,10|2,3:2|2:0,2:0:0:0:
351,264,34591,2,0,P|401:271|456:277,1,90,10|2,3:2|2:0,2:0:0:0:
454,189,34855,1,0,2:0:0:0:
457,178,34944,2,0,P|412:172|367:166,1,90,10|2,3:2|2:0,2:0:0:0:
255,19,35297,6,0,P|222:49|234:105,1,90,10|2,3:2|2:0,2:0:0:0:
389,75,35650,1,8,3:2:0:0:
389,75,35738,1,0,2:0:0:0:
389,75,35826,2,0,P|336:74|281:81,1,90,2|10,2:0|3:2,2:0:0:0:
178,23,36179,1,2,2:0:0:0:
102,74,36355,2,0,P|57:70|12:62,1,90,10|2,3:2|2:0,2:0:0:0:
151,226,36708,6,0,P|191:204|195:122,1,135,6|2,3:2|2:0,2:0:0:0:
187,120,37061,2,0,P|191:150|243:188,1,90,10|2,3:2|2:0,2:0:0:0:
339,157,37414,1,10,3:2:0:0:
398,300,37591,1,2,2:0:0:0:
398,300,37679,1,2,2:0:0:0:
398,300,37767,2,0,P|352:287|237:273,1,135,10|0,3:2|2:0,2:0:0:0:
262,266,38120,5,10,3:2:0:0:
349,366,38297,2,0,P|378:377|411:375,1,45,2|0,2:0|2:0,2:0:0:0:
470,335,38473,1,8,3:2:0:0:
409,187,38650,1,2,2:0:0:0:
473,237,38826,1,10,3:2:0:0:
509,100,39002,1,2,2:0:0:0:
450,44,39179,2,0,P|416:47|286:62,1,135,10|0,3:2|2:0,2:0:0:0:
306,53,39532,6,0,B|276:90|276:90|301:133,1,90,6|0,3:2|2:0,2:0:0:0:
383,100,39797,1,0,2:0:0:0:
383,93,39885,1,10,3:2:0:0:
482,244,40061,1,2,2:0:0:0:
422,310,40238,2,0,P|386:314|331:317,1,90,10|2,3:2|2:0,2:0:0:0:
172,208,40591,2,0,P|216:209|261:215,1,90,10|2,3:2|2:0,2:0:0:0:
406,192,40944,5,10,3:2:0:0:
371,0,41120,1,2,2:0:0:0:
315,58,41297,1,8,3:2:0:0:
370,120,41473,1,2,2:0:0:0:
433,57,41650,6,0,P|447:44|467:7,1,45,10|0,3:2|2:0,2:0:0:0:
494,115,41826,1,2,2:0:0:0:
246,111,42002,6,0,P|264:121|284:158,1,45,10|0,3:2|2:0,2:0:0:0:
311,50,42178,1,2,2:0:0:0:
196,12,42355,6,0,P|209:80|224:196,1,180,6|10,3:2|3:2,2:0:0:0:
237,277,42885,1,2,2:0:0:0:
301,368,43061,2,0,P|301:302|259:276,1,90,10|2,3:2|2:0,2:0:0:0:
210,383,43414,2,0,P|187:345|196:302,1,90,10|2,3:2|2:0,2:0:0:0:
108,211,43944,5,2,2:0:0:0:
108,211,44297,5,2,2:0:0:0:
108,211,44650,5,2,2:0:0:0:
85,131,44826,1,10,3:2:0:0:
85,131,45002,1,2,2:0:0:0:
59,51,45179,1,0,3:2:0:0:
256,192,45267,12,2,50473,2:0:0:0:
506,47,50826,5,0,3:2:0:0:
506,47,51002,1,2,2:0:0:0:
459,112,51179,2,0,P|417:103|391:98,1,53.9999983520508,10|2,3:2|2:0,2:0:0:0:
324,48,51532,2,0,P|314:27|325:-3,2,53.9999983520508,2|2|2,2:0|2:0|2:0,2:0:0:0:
405,20,52061,1,2,2:0:0:0:
234,163,52238,6,0,P|293:139|344:119,1,107.999996704102,2|2,2:0|3:2,2:0:0:0:
306,192,52767,2,0,P|351:206|380:217,1,53.9999983520508,0|10,2:0|3:2,2:0:0:0:
416,269,53120,2,0,P|441:260|467:252,1,53.9999983520508,0|2,2:0|2:0,2:0:0:0:
501,178,53473,1,2,2:0:0:0:
335,301,53650,5,2,2:0:0:0:
335,301,53738,1,2,2:0:0:0:
335,301,53826,1,2,2:0:0:0:
335,301,53914,1,2,2:0:0:0:
335,301,54002,2,0,L|295:308,3,26.9999991760254,2|2|2|2,2:0|2:0|2:0|2:0,2:0:0:0:
232,368,54355,6,0,L|207:365,16,13.4999995880127,2|0|0|0|0|0|0|0|0|0|0|0|0|0|0|0|2,2:0|2:0|2:0|2:0|2:0|2:0|2:0|2:0|2:0|2:0|2:0|2:0|2:0|2:0|2:0|2:0|2:0,2:0:0:0:
368,384,55238,5,2,2:0:0:0:
368,384,55591,5,2,2:0:0:0:
368,384,55944,5,2,2:0:0:0:
460,384,56120,1,2,2:0:0:0:
411,300,56297,1,2,2:0:0:0:
71,373,56473,6,0,P|125:362|268:343,1,175.499991966248,4|0,2:1|2:0,2:0:0:0:
252,354,56826,2,0,P|280:345|276:270,1,116.999994644165,10|2,3:2|2:0,2:0:0:0:
166,382,57179,1,10,3:2:0:0:
80,231,57355,1,2,2:0:0:0:
155,281,57532,1,10,3:2:0:0:
320,91,57708,6,0,P|260:103|188:132,1,116.999994644165,2|0,2:0|2:0,2:0:0:0:
324,12,58061,2,0,P|384:31|403:87,1,116.999994644165,2|8,2:0|3:2,2:0:0:0:
154,178,58414,2,0,P|125:122|151:69,1,116.999994644165,2|10,2:0|3:2,2:0:0:0:
398,162,58767,2,0,B|460:170|518:204|518:204|495:163,1,175.499991966248,2|0,2:0|2:0,2:0:0:0:
487,157,59120,1,2,2:0:0:0:
317,377,59297,6,0,P|390:363|510:356,1,175.499991966248,6|0,2:0|2:0,2:0:0:0:
494,365,59650,2,0,B|515:308|515:308|477:251,1,116.999994644165,10|2,3:2|2:0,2:0:0:0:
258,233,60002,1,10,3:2:0:0:
418,322,60179,1,2,2:0:0:0:
352,229,60355,1,10,3:2:0:0:
219,367,60532,6,0,B|171:319|102:348|114:373|47:406|-2:362,1,233.999989288331,2|2,2:0|2:0,2:0:0:0:
116,316,61061,1,8,3:2:0:0:
75,200,61238,2,0,P|28:211|2:273,1,116.999994644165,2|10,2:0|3:2,2:0:0:0:
166,170,61591,2,0,P|179:123|139:70,1,116.999994644165,2|10,2:0|3:2,2:0:0:0:
149,249,61944,5,2,2:0:0:0:
149,249,62032,1,2,2:0:0:0:
149,249,62120,2,0,P|123:176|49:93,1,175.499991966248,6|0,2:0|2:0,2:0:0:0:
53,106,62473,2,0,P|4:94|10:23,1,116.999994644165,10|2,3:2|2:0,2:0:0:0:
304,55,62826,1,10,3:2:0:0:
232,106,63002,1,2,2:0:0:0:
166,170,63179,1,10,3:2:0:0:
306,41,63355,6,0,P|371:53|426:62,1,116.999994644165,2|0,2:0|2:0,2:0:0:0:
474,234,63708,2,0,B|503:182|503:182|474:126,1,116.999994644165,2|8,2:0|3:2,2:0:0:0:
234,2,64061,2,0,B|205:54|205:54|234:110,1,116.999994644165,2|10,2:0|3:2,2:0:0:0:
370,226,64414,2,0,B|387:298|302:316|241:244|338:129,1,233.999989288331,2|2,2:0|2:0,2:0:0:0:
327,146,64855,5,2,2:0:0:0:
337,139,64944,2,0,P|274:141|124:158,1,175.499991966248,6|0,2:0|2:0,2:0:0:0:
154,156,65297,6,0,P|120:175|118:198,1,58.4999973220826,10|0,3:2|2:0,2:0:0:0:
190,234,65473,1,2,2:0:0:0:
57,115,65650,1,10,3:2:0:0:
11,193,65826,1,2,2:0:0:0:
56,269,66002,1,10,3:2:0:0:
1,4,66179,6,0,P|23:28|64:35,1,58.4999973220826,2|0,2:0|2:0,2:0:0:0:
57,115,66355,1,10,3:2:0:0:
159,182,66532,6,0,P|135:160|128:119,1,58.4999973220826,2|0,2:0|2:0,2:0:0:0:
49,126,66708,1,8,3:2:0:0:
123,57,66885,1,2,2:0:0:0:
282,84,67061,6,0,P|324:67|359:59,1,58.4999973220826,10|0,3:2|2:0,2:0:0:0:
426,83,67238,1,2,2:0:0:0:
428,239,67414,6,0,P|411:197|403:162,1,58.4999973220826,10|0,3:2|2:0,2:0:0:0:
427,95,67591,1,2,2:0:0:0:
222,280,67767,6,0,P|219:310|335:364,1,175.499991966248,4|0,2:1|2:0,2:0:0:0:
337,371,68120,2,0,P|313:313|301:247,1,116.999994644165,10|2,3:2|2:0,2:0:0:0:
153,100,68473,1,10,3:2:0:0:
153,243,68650,1,2,2:0:0:0:
243,173,68826,1,10,3:2:0:0:
17,260,69002,6,0,P|59:219|42:160,1,116.999994644165,2|0,2:0|2:0,2:0:0:0:
189,3,69355,2,0,P|133:21|76:33,1,116.999994644165,2|8,2:0|3:2,2:0:0:0:
268,83,69708,2,0,P|325:94|380:113,1,116.999994644165,2|10,2:0|3:2,2:0:0:0:
512,188,70061,2,0,P|460:143|356:243,1,233.999989288331,2|2,2:0|2:0,2:0:0:0:
355,246,70502,1,2,2:0:0:0:
359,262,70591,6,0,P|411:244|446:118,1,175.499991966248,6|0,2:0|2:0,2:0:0:0:
456,129,70944,2,0,P|444:71|387:35,1,116.999994644165,10|2,3:2|2:0,2:0:0:0:
193,87,71297,1,10,3:2:0:0:
380,113,71473,1,2,2:0:0:0:
284,172,71650,1,10,3:2:0:0:
0,135,71826,6,0,B|88:161|88:161|108:220|108:220|202:248,1,233.999989288331,2|2,2:0|2:0,2:0:0:0:
97,80,72355,1,8,3:2:0:0:
23,231,72532,2,0,P|34:291|37:351,1,116.999994644165,2|10,2:0|3:2,2:0:0:0:
231,153,72885,2,0,P|204:333|200:391,1,233.999989288331,2|2,2:0|2:0,2:0:0:0:
195,375,73326,1,2,2:0:0:0:
188,368,73414,6,0,B|217:321|276:338|268:354|314:373|357:331,1,175.499991966248,6|0,2:0|2:0,2:0:0:0:
359,349,73767,2,0,P|398:343|467:380,1,116.999994644165,10|2,3:2|2:0,2:0:0:0:
431,167,74120,1,10,3:2:0:0:
512,304,74297,1,2,2:0:0:0:
304,275,74473,1,10,3:2:0:0:
391,92,74650,6,0,P|442:74|497:110,1,116.999994644165,2|0,2:0|2:0,2:0:0:0:
413,269,75002,2,0,P|424:215|435:149,1,116.999994644165,2|8,2:0|3:2,2:0:0:0:
284,0,75355,2,0,P|293:57|305:115,1,116.999994644165,2|10,2:0|3:2,2:0:0:0:
153,260,75708,2,0,B|145:233|123:206|123:206|148:59,1,175.499991966248,2|0,2:0|2:0,2:0:0:0:
145,83,76061,1,2,2:0:0:0:
229,305,76238,6,0,P|164:295|18:284,1,175.499991966248,6|0,2:0|2:0,2:0:0:0:
42,289,76591,6,0,B|26:265|26:265|43:239,1,58.4999973220826,10|0,3:2|2:0,2:0:0:0:
118,328,76767,1,2,2:0:0:0:
390,253,76944,1,10,3:2:0:0:
311,277,77120,1,2,2:0:0:0:
339,360,77297,1,10,3:2:0:0:
271,180,77473,6,0,P|298:179|325:208,1,58.4999973220826,2|0,2:0|2:0,2:0:0:0:
311,287,77650,1,10,3:2:0:0:
427,250,77826,6,0,P|428:277|399:304,1,58.4999973220826,2|0,2:0|2:0,2:0:0:0:
319,289,78003,1,8,3:2:0:0:
239,268,78179,1,2,2:0:0:0:
372,104,78355,6,0,P|413:109|468:114,1,58.4999973220826,10|0,3:2|2:0,2:0:0:0:
511,135,78532,1,2,2:0:0:0:
260,29,78708,6,0,P|301:24|451:16,1,175.499991966248,10|0,3:2|2:0,2:0:0:0:
445,20,79061,6,0,P|477:34|521:24,1,76.5000014591217,6|2,2:0|2:0,2:0:0:0:
511,135,79414,2,0,P|474:127|439:141,1,76.5000014591217,10|2,3:2|2:0,2:0:0:0:
338,205,79767,2,0,P|291:192|243:181,1,76.5000014591217,10|2,3:2|2:0,2:0:0:0:
181,105,80120,1,10,3:2:0:0:
264,94,80297,1,2,2:0:0:0:
182,185,80473,6,0,P|140:190|112:212,1,76.5000014591217,10|2,3:2|2:0,2:0:0:0:
47,149,80826,2,0,P|20:182|16:217,1,76.5000014591217,8|2,3:2|2:0,2:0:0:0:
73,290,81179,1,10,3:2:0:0:
73,290,81355,6,0,P|53:293|17:304,1,38.2500007295609,2|0,2:0|2:0,2:0:0:0:
152,293,81532,1,10,3:2:0:0:
178,367,81708,1,2,2:0:0:0:
307,237,81885,6,0,P|277:269|223:266,1,76.5000014591217,6|2,2:0|2:0,2:0:0:0:
375,378,82238,2,0,P|367:323|361:278,2,76.5000014591217,10|2|10,3:2|2:0|3:2,2:0:0:0:
292,352,82767,1,2,2:0:0:0:
393,228,82944,1,10,3:2:0:0:
451,304,83120,1,2,2:0:0:0:
497,154,83297,6,0,B|430:169|472:210|395:234,1,114.750002188683,10|0,3:2|2:0,2:0:0:0:
393,228,83650,2,0,P|352:198|362:157,1,76.5000014591217,8|2,3:2|2:0,2:0:0:0:
439,73,84002,2,0,P|426:121|422:167,1,76.5000014591217,10|2,3:2|2:0,2:0:0:0:
246,273,84355,2,0,P|228:204|213:142,1,114.750002188683,10|0,3:2|2:0,2:0:0:0:
219,151,84708,6,0,P|177:125|130:205,1,153.000002918243,6|10,3:2|3:2,2:0:0:0:
165,272,85238,1,2,2:0:0:0:
0,236,85414,2,0,P|32:234|77:285,1,76.5000014591217,10|2,3:2|2:0,2:0:0:0:
51,152,85767,1,10,3:2:0:0:
51,152,85944,1,2,2:0:0:0:
8,43,86120,6,0,P|51:38|86:28,1,76.5000014591217,10|2,3:2|2:0,2:0:0:0:
193,76,86473,2,0,P|236:81|271:91,1,76.5000014591217,8|2,3:2|2:0,2:0:0:0:
432,24,86826,2,0,P|384:7|357:66,1,114.750002188683,10|0,3:2|2:0,2:0:0:0:
360,66,87179,1,10,3:2:0:0:
276,1,87355,1,2,2:0:0:0:
333,144,87532,6,0,P|389:145|425:122,1,76.5000014591217,6|2,3:2|2:0,2:0:0:0:
508,34,87885,1,10,3:2:0:0:
360,66,88061,1,2,2:0:0:0:
509,136,88238,2,0,P|505:175|504:232,1,76.5000014591217,10|2,3:2|2:0,2:0:0:0:
495,318,88591,1,10,3:2:0:0:
495,318,88767,1,2,2:0:0:0:
309,265,88944,6,0,P|336:221|387:221,1,76.5000014591217,10|2,3:2|2:0,2:0:0:0:
413,285,89297,1,8,3:2:0:0:
354,353,89473,1,2,2:0:0:0:
226,277,89650,2,0,P|236:212|239:187,1,76.5000014591217,10|2,3:2|2:0,2:0:0:0:
277,117,89914,1,0,2:0:0:0:
283,111,90002,2,0,P|268:57|206:36,1,114.750002188683,10|0,3:2|2:0,2:0:0:0:
210,42,90355,6,0,P|153:47|90:56,1,90,6|2,3:2|2:0,2:0:0:0:
29,37,90620,1,0,2:0:0:0:
20,28,90708,2,0,P|-4:56|11:113,1,90,10|2,3:2|2:0,2:0:0:0:
89,140,91061,2,0,P|91:176|183:206,1,135,10|0,3:2|2:0,2:0:0:0:
174,203,91414,2,0,P|127:207|76:235,1,90,10|2,3:2|2:0,2:0:0:0:
92,381,91767,6,0,P|126:343|118:296,1,90,10|2,3:2|2:0,2:0:0:0:
10,214,92120,2,0,P|41:246|41:290,1,90,8|2,3:2|2:0,2:0:0:0:
165,371,92473,2,0,P|225:364|270:357,1,90,10|2,3:2|2:0,2:0:0:0:
330,384,92738,1,0,2:0:0:0:
342,381,92826,2,0,P|349:351|287:272,1,135,10|0,3:2|2:0,2:0:0:0:
290,281,93179,6,0,P|299:223|300:163,2,90,6|2|10,3:2|2:0|3:2,2:0:0:0:
208,175,93708,1,2,2:0:0:0:
265,108,93885,2,0,P|318:105|364:101,1,90,10|2,3:2|2:0,2:0:0:0:
430,133,94150,1,0,2:0:0:0:
431,145,94238,2,0,P|468:179|463:225,1,90,10|0,3:2|2:0,2:0:0:0:
373,228,94591,6,0,P|397:109|412:10,1,180,10|8,3:2|3:2,2:0:0:0:
495,10,95120,1,2,2:0:0:0:
495,10,95208,1,0,2:0:0:0:
495,10,95297,2,0,P|501:55|509:108,1,90,10|2,3:2|2:0,2:0:0:0:
406,51,95650,1,10,3:2:0:0:
311,19,95826,1,0,2:0:0:0:
243,80,96002,6,0,P|269:102|275:160,1,90,6|2,3:2|2:0,2:0:0:0:
306,240,96355,2,0,P|273:251|220:227,1,90,10|2,3:2|2:0,2:0:0:0:
141,217,96708,2,0,P|147:183|194:149,1,90,10|2,3:2|2:0,2:0:0:0:
243,80,96973,1,0,2:0:0:0:
241,71,97061,2,0,P|196:61|141:47,1,90,10|2,3:2|2:0,2:0:0:0:
0,27,97414,5,10,3:2:0:0:
79,108,97591,1,2,2:0:0:0:
4,36,97767,1,8,3:2:0:0:
10,182,97944,1,2,2:0:0:0:
10,182,98032,1,2,2:0:0:0:
10,182,98120,2,0,P|55:194|81:233,1,90,10|2,3:2|2:0,2:0:0:0:
12,363,98385,1,0,2:0:0:0:
1,358,98473,2,0,P|10:314|8:269,1,90,10|2,3:2|2:0,2:0:0:0:
215,262,98826,6,0,P|232:211|281:195,1,90,6|2,3:2|2:0,2:0:0:0:
197,373,99179,2,0,P|149:363|83:354,1,90,10|2,3:2|2:0,2:0:0:0:
298,277,99532,1,10,3:2:0:0:
298,277,99708,1,0,2:0:0:0:
320,373,99885,1,10,3:2:0:0:
376,211,100061,5,2,2:0:0:0:
376,211,100414,5,2,2:0:0:0:
376,211,100767,5,2,2:0:0:0:
376,211,101120,5,0,2:0:0:0:
465,181,101297,1,10,3:2:0:0:
468,271,101473,1,0,2:0:0:0:
387,303,101650,1,0,3:2:0:0:
236,67,107297,6,0,P|232:37|223:0,2,58.4999973220826,8|0|10,3:2|2:0|3:2,2:0:0:0:
238,152,107826,1,2,2:0:0:0:
250,239,108002,6,0,P|246:269|237:306,2,58.4999973220826,2|2|2,2:0|2:0|2:0,2:0:0:0:
252,154,108531,1,2,2:0:0:0:
265,68,108708,6,0,P|261:38|252:1,2,58.4999973220826,2|0|2,2:0|2:0|3:2,2:0:0:0:
267,153,109237,1,0,2:0:0:0:
281,238,109414,6,0,P|277:268|268:305,2,58.4999973220826,10|0|2,3:2|2:0|2:0,2:0:0:0:
283,153,109943,1,2,2:0:0:0:
133,95,110120,5,2,2:0:0:0:
106,87,110208,1,2,2:0:0:0:
78,89,110296,1,2,2:0:0:0:
53,101,110384,1,2,2:0:0:0:
34,121,110472,1,2,2:0:0:0:
23,147,110561,1,2,2:0:0:0:
22,174,110649,1,2,2:0:0:0:
31,201,110737,1,2,2:0:0:0:
47,225,110826,6,0,L|68:222,16,14.6249993305207,2|0|0|0|0|0|0|0|0|0|0|0|0|0|0|0|2,2:0|2:0|2:0|2:0|2:0|2:0|2:0|2:0|2:0|2:0|2:0|2:0|2:0|2:0|2:0|2:0|2:0,2:0:0:0:
149,202,111708,5,0,2:0:0:0:
149,202,111885,2,0,B|159:219|159:219|187:237|187:237|202:278|202:278|258:258|258:258|261:261|261:261|287:209|287:209|262:154|262:154|247:174|247:174|251:203,1,321.749985271455,2|0,2:0|2:0,2:0:0:0:
258,203,112944,6,0,P|337:177|449:155,1,175.499991966248,4|0,2:1|2:0,2:0:0:0:
441,158,113297,2,0,P|478:182|465:259,1,116.999994644165,10|2,3:2|2:0,2:0:0:0:
337,133,113650,1,10,3:2:0:0:
388,232,113826,1,2,2:0:0:0:
434,53,114002,1,10,3:2:0:0:
300,17,114179,6,0,P|256:38|190:52,1,116.999994644165,2|0,2:0|2:0,2:0:0:0:
13,0,114532,2,0,P|-17:38|18:102,1,116.999994644165,2|8,2:0|3:2,2:0:0:0:
119,247,114885,2,0,P|149:208|113:144,1,116.999994644165,2|10,2:0|3:2,2:0:0:0:
306,346,115238,2,0,B|246:294|185:325|185:325|209:380,1,175.499991966248,2|0,2:0|2:0,2:0:0:0:
208,380,115591,1,2,2:0:0:0:
314,207,115767,6,0,P|372:204|513:181,1,175.499991966248,6|0,2:0|2:0,2:0:0:0:
495,176,116120,2,0,B|521:230|521:230|489:282,1,116.999994644165,10|2,3:2|2:0,2:0:0:0:
334,101,116473,1,10,3:2:0:0:
232,127,116650,1,2,2:0:0:0:
133,159,116826,1,10,3:2:0:0:
330,88,117002,6,0,B|362:44|424:64|409:84|458:133|527:114|542:21|483:18,1,233.999989288331,2|2,2:0|2:0,2:0:0:0:
424,122,117532,1,8,3:2:0:0:
224,17,117708,2,0,P|236:63|248:142,1,116.999994644165,2|10,2:0|3:2,2:0:0:0:
26,250,118061,2,0,P|38:204|59:50,1,175.499991966248,2|0,2:0|2:0,2:0:0:0:
55,68,118414,5,2,2:0:0:0:
56,61,118502,1,2,2:0:0:0:
58,53,118591,2,0,B|28:56|4:76|4:76|68:58|138:56,1,175.499991966248,6|0,2:0|2:0,2:0:0:0:
130,62,118944,2,0,P|159:117|118:164,1,116.999994644165,10|2,3:2|2:0,2:0:0:0:
175,355,119297,1,10,3:2:0:0:
26,250,119473,1,2,2:0:0:0:
137,268,119650,1,10,3:2:0:0:
49,384,119826,6,0,P|106:371|187:361,1,116.999994644165,2|0,2:0|2:0,2:0:0:0:
321,232,120179,2,0,P|263:223|238:158,1,116.999994644165,2|8,2:0|3:2,2:0:0:0:
472,332,120532,2,0,P|415:332|381:377,1,116.999994644165,2|10,2:0|3:2,2:0:0:0:
512,170,120885,2,0,B|464:243|363:190|426:116|461:134,1,175.499991966248,2|0,2:0|2:0,2:0:0:0:
450,122,121238,1,2,2:0:0:0:
329,236,121414,6,0,P|313:187|293:32,1,175.499991966248,6|0,2:0|2:0,2:0:0:0:
291,53,121767,6,0,P|259:39|224:58,1,58.4999973220826,10|0,3:2|2:0,2:0:0:0:
332,134,121944,1,2,2:0:0:0:
454,6,122120,1,10,3:2:0:0:
388,64,122297,1,2,2:0:0:0:
450,122,122473,1,10,3:2:0:0:
332,134,122650,6,0,P|300:149|262:144,1,58.4999973220826,2|0,2:0|2:0,2:0:0:0:
202,111,122826,1,10,3:2:0:0:
172,230,123002,6,0,P|157:198|162:160,1,58.4999973220826,2|0,2:0|2:0,2:0:0:0:
195,100,123178,1,8,3:2:0:0:
265,50,123355,1,2,2:0:0:0:
103,105,123532,6,0,P|74:97|39:53,1,58.4999973220826,10|0,3:2|2:0,2:0:0:0:
109,25,123708,1,2,2:0:0:0:
72,262,123885,6,0,P|98:247|198:350,1,175.499991966248,10|0,3:2|2:0,2:0:0:0:
199,328,124238,6,0,P|276:345|308:237,1,175.499991966248,4|0,2:1|2:0,2:0:0:0:
319,261,124591,2,0,P|327:225|269:168,1,116.999994644165,10|2,3:2|2:0,2:0:0:0:
185,233,124944,1,10,3:2:0:0:
283,362,125120,2,0,P|324:351|359:348,1,58.4999973220826,2|0,2:0|2:0,2:0:0:0:
232,304,125297,1,10,3:2:0:0:
53,383,125473,6,0,P|-4:336|14:288,1,116.999994644165,2|0,2:0|2:0,2:0:0:0:
212,119,125826,2,0,P|188:204|182:261,1,116.999994644165,2|8,2:0|3:2,2:0:0:0:
1,26,126179,2,0,P|18:81|28:139,1,116.999994644165,2|10,2:0|3:2,2:0:0:0:
306,19,126532,2,0,B|200:-2|240:67|131:44,1,175.499991966248,2|0,2:0|2:0,2:0:0:0:
134,34,126885,1,2,2:0:0:0:
291,101,127061,6,0,P|362:109|473:131,1,175.499991966248,6|0,2:0|2:0,2:0:0:0:
473,138,127414,2,0,P|510:98|483:40,1,116.999994644165,10|2,3:2|2:0,2:0:0:0:
372,161,127767,1,10,3:2:0:0:
306,19,127944,1,2,2:0:0:0:
395,73,128120,1,10,3:2:0:0:
505,233,128297,6,0,B|466:248|448:273|448:273|278:246,1,233.999989288331,2|2,2:0|2:0,2:0:0:0:
511,318,128826,1,8,3:2:0:0:
300,325,129002,2,0,P|353:294|352:215,1,116.999994644165,2|10,2:0|3:2,2:0:0:0:
174,380,129355,2,0,P|143:327|11:320,1,175.499991966248,2|0,2:0|2:0,2:0:0:0:
31,315,129708,5,2,2:0:0:0:
26,328,129797,1,2,2:0:0:0:
20,343,129885,2,0,P|74:342|146:213,1,175.499991966248,6|0,2:0|2:0,2:0:0:0:
144,240,130238,2,0,P|118:180|110:113,1,116.999994644165,10|2,3:2|2:0,2:0:0:0:
314,77,130591,1,10,3:2:0:0:
246,210,130767,1,2,2:0:0:0:
169,30,130944,1,10,3:2:0:0:
332,168,131120,6,0,P|390:161|475:143,1,116.999994644165,2|0,2:0|2:0,2:0:0:0:
335,266,131473,2,0,P|299:265|244:188,1,116.999994644165,2|8,2:0|3:2,2:0:0:0:
93,55,131826,2,0,P|36:60|0:104,1,116.999994644165,2|10,2:0|3:2,2:0:0:0:
96,328,132179,2,0,P|126:210|194:105,1,233.999989288331,2|2,2:0|2:0,2:0:0:0:
193,109,132620,1,2,2:0:0:0:
203,101,132708,6,0,P|265:92|318:-2,1,175.499991966248,6|0,2:0|2:0,2:0:0:0:
308,6,133061,6,0,P|294:18|305:65,1,58.4999973220826,10|0,3:2|2:0,2:0:0:0:
394,32,133238,1,2,2:0:0:0:
340,205,133414,1,10,3:2:0:0:
417,154,133591,1,2,2:0:0:0:
486,223,133767,1,10,3:2:0:0:
407,293,133944,6,0,P|411:272|407:226,1,58.4999973220826,2|0,2:0|2:0,2:0:0:0:
417,154,134120,1,10,3:2:0:0:
423,17,134297,6,0,P|427:38|423:84,1,58.4999973220826,2|0,2:0|2:0,2:0:0:0:
433,156,134473,1,8,3:2:0:0:
498,109,134650,1,2,2:0:0:0:
337,120,134826,6,0,P|306:133|297:175,1,58.4999973220826,10|0,3:2|2:0,2:0:0:0:
328,234,135002,1,2,2:0:0:0:
204,188,135179,6,0,P|191:219|325:316,1,233.999989288331,10|2,3:2|2:0,2:0:0:0:
318,319,136238,5,2,2:0:0:0:
318,319,136591,1,2,2:0:0:0:
