osu file format v14

[General]
AudioFilename: audio.mp3
AudioLeadIn: 0
PreviewTime: -1
Countdown: 1
SampleSet: Soft
StackLeniency: 0.7
Mode: 0
LetterboxInBreaks: 0
WidescreenStoryboard: 1

[Editor]
DistanceSpacing: 0.8
BeatDivisor: 8
GridSize: 8
TimelineZoom: 1

[Metadata]
Title:Communication
TitleUnicode:Communication
Artist:Slakker
ArtistUnicode:Slakker
Creator:Kajou Ayame
Version:communication
Source:
Tags:
BeatmapID:1510963
BeatmapSetID:642140

[Difficulty]
HPDrainRate:6
CircleSize:4
OverallDifficulty:7
ApproachRate:9
SliderMultiplier:1.4
SliderTickRate:1

[Events]
//Background and Video events
0,0,"mTRVsWKNYwo.jpg",0,0
//Break Periods
2,87950,91250
//Storyboard Layer 0 (Background)
//Storyboard Layer 1 (Fail)
//Storyboard Layer 2 (Pass)
//Storyboard Layer 3 (Foreground)
//Storyboard Sound Samples

[TimingPoints]
0,500,4,2,0,100,1,0

[HitObjects]
288,208,3968,5,0,0:0:0:0:
88,168,4250,1,0,0:0:0:0:
184,288,4500,1,0,0:0:0:0:
232,104,4750,2,0,L|384:104,1,140
432,200,5500,1,0,0:0:0:0:
384,336,5750,1,0,0:0:0:0:
264,280,6000,2,0,L|192:248,1,70
352,112,6500,1,0,0:0:0:0:
176,104,6750,2,0,L|240:152,1,70
320,280,7250,1,0,0:0:0:0:
144,200,7500,2,0,L|272:144,1,140
200,72,8250,5,0,0:0:0:0:
280,152,8500,1,0,0:0:0:0:
344,40,8750,2,0,L|448:136,1,140
424,280,9500,1,0,0:0:0:0:
272,304,9750,1,0,0:0:0:0:
176,176,10000,2,0,L|240:144,1,70
136,72,10500,1,0,0:0:0:0:
136,72,10625,1,0,0:0:0:0:
136,72,10750,1,0,0:0:0:0:
312,80,11000,1,0,0:0:0:0:
264,224,11250,1,0,0:0:0:0:
344,336,11500,1,0,0:0:0:0:
416,168,11750,1,0,0:0:0:0:
344,56,12000,5,0,0:0:0:0:
256,200,12250,1,0,0:0:0:0:
176,56,12500,1,0,0:0:0:0:
112,192,12750,1,0,0:0:0:0:
24,320,13000,1,0,0:0:0:0:
200,320,13250,1,0,0:0:0:0:
120,192,13500,1,0,0:0:0:0:
336,192,13750,1,0,0:0:0:0:
152,344,14000,2,0,L|232:336,1,70
192,208,14500,1,0,0:0:0:0:
328,120,14750,1,0,0:0:0:0:
464,224,15000,1,0,0:0:0:0:
312,208,15250,1,0,0:0:0:0:
312,352,15500,1,0,0:0:0:0:
168,288,15750,1,0,0:0:0:0:
112,160,16000,5,0,0:0:0:0:
224,96,16250,1,0,0:0:0:0:
352,96,16500,1,0,0:0:0:0:
312,208,16750,2,0,L|232:216,1,70
88,184,17250,1,0,0:0:0:0:
160,328,17500,1,0,0:0:0:0:
312,336,17750,1,0,0:0:0:0:
376,264,18000,2,0,L|360:184,1,70
272,72,18500,1,0,0:0:0:0:
272,72,18625,1,0,0:0:0:0:
272,72,18750,1,0,0:0:0:0:
136,112,19000,1,0,0:0:0:0:
184,256,19250,1,0,0:0:0:0:
256,160,19500,1,0,0:0:0:0:
296,48,19750,1,0,0:0:0:0:
416,96,20000,6,0,L|440:168,1,70
440,248,20500,2,0,L|360:248,1,70
288,240,21000,2,0,L|232:184,1,70
184,120,21500,2,0,L|240:64,1,70
312,56,22000,2,0,L|392:56,1,70
240,200,22500,1,0,0:0:0:0:
224,64,22750,1,0,0:0:0:0:
360,88,23000,1,0,0:0:0:0:
240,200,23250,1,0,0:0:0:0:
112,160,23500,1,0,0:0:0:0:
240,200,23750,1,0,0:0:0:0:
272,64,24000,6,0,L|352:64,1,70
416,168,24500,1,0,0:0:0:0:
376,296,24750,2,0,L|296:296,1,70
168,296,25250,1,0,0:0:0:0:
176,176,25500,2,0,L|200:96,1,70
272,48,26000,1,0,0:0:0:0:
416,80,26250,1,0,0:0:0:0:
320,208,26500,1,0,0:0:0:0:
320,208,26625,1,0,0:0:0:0:
320,208,26750,1,0,0:0:0:0:
240,280,27000,6,0,L|176:240,1,70
128,144,27500,1,0,0:0:0:0:
248,72,27750,1,0,0:0:0:0:
336,160,28000,2,0,L|392:216,1,70
424,64,28500,1,0,0:0:0:0:
424,224,28750,2,0,P|424:288|424:304,1,70
320,336,29250,1,0,0:0:0:0:
208,336,29500,2,0,L|128:336,1,70
96,224,30000,1,0,0:0:0:0:
176,104,30250,1,0,0:0:0:0:
256,48,30500,6,0,L|336:48,1,70
296,160,31000,1,0,0:0:0:0:
392,264,31250,1,0,0:0:0:0:
256,320,31500,1,0,0:0:0:0:
144,216,31750,1,0,0:0:0:0:
152,96,32000,2,0,L|224:80,1,70
328,64,32750,2,0,L|384:120,1,70
320,264,33500,2,0,L|272:320,1,70
96,272,34000,1,0,0:0:0:0:
120,152,34250,1,0,0:0:0:0:
256,192,34500,5,0,0:0:0:0:
256,184,34625,1,0,0:0:0:0:
256,176,34750,1,0,0:0:0:0:
368,96,35000,1,0,0:0:0:0:
432,304,35250,1,0,0:0:0:0:
304,272,35500,1,0,0:0:0:0:
176,312,35750,1,0,0:0:0:0:
168,160,36000,6,0,L|232:112,1,70
136,48,36500,1,0,0:0:0:0:
64,168,36750,2,0,L|72:240,1,70
216,264,37250,1,0,0:0:0:0:
328,240,37500,2,0,L|352:168,1,70
448,128,38000,1,0,0:0:0:0:
352,24,38250,1,0,0:0:0:0:
256,128,38500,1,0,0:0:0:0:
168,32,38750,1,0,0:0:0:0:
64,192,39000,1,0,0:0:0:0:
160,320,39250,1,0,0:0:0:0:
256,192,39500,1,0,0:0:0:0:
328,320,39750,1,0,0:0:0:0:
320,128,40000,5,0,0:0:0:0:
456,280,40250,1,0,0:0:0:0:
256,232,40500,1,0,0:0:0:0:
464,168,40750,1,0,0:0:0:0:
384,32,41000,1,0,0:0:0:0:
224,32,41250,1,0,0:0:0:0:
96,112,41500,2,0,L|72:184,1,70
64,40,42000,1,0,0:0:0:0:
208,144,42250,1,0,0:0:0:0:
136,272,42500,1,0,0:0:0:0:
136,264,42625,1,0,0:0:0:0:
136,256,42750,1,0,0:0:0:0:
256,192,43000,1,0,0:0:0:0:
328,296,43250,1,0,0:0:0:0:
416,192,43500,1,0,0:0:0:0:
320,88,43750,1,0,0:0:0:0:
232,192,44000,6,0,B|184:192|184:192|184:160,1,70
128,40,44500,2,0,B|128:88|128:88|96:88,1,70
64,192,45000,2,0,B|64:240|64:240|96:240,1,70
192,104,45500,1,0,0:0:0:0:
184,256,45750,1,0,0:0:0:0:
304,328,46000,2,0,L|344:264,1,70
280,96,46500,2,0,L|352:64,1,70
416,192,47000,2,0,L|456:256,1,70
336,304,47500,1,0,0:0:0:0:
184,320,47750,1,0,0:0:0:0:
256,192,48000,6,0,B|184:192|184:192|152:120,1,140
248,40,48750,1,0,0:0:0:0:
344,224,49000,1,0,0:0:0:0:
376,56,49250,1,0,0:0:0:0:
232,152,49500,1,0,0:0:0:0:
200,320,49750,1,0,0:0:0:0:
328,328,50000,2,0,B|368:304|368:304|360:280,1,70
256,192,50500,1,0,0:0:0:0:
256,192,50625,1,0,0:0:0:0:
256,184,50750,1,0,0:0:0:0:
136,272,51000,1,0,0:0:0:0:
136,80,51250,1,0,0:0:0:0:
352,144,51500,1,0,0:0:0:0:
352,320,51750,1,0,0:0:0:0:
192,256,52000,6,0,L|208:264,4,17.5
248,112,52500,1,0,0:0:0:0:
424,184,52750,2,0,L|440:208,4,17.5
272,288,53250,1,0,0:0:0:0:
176,160,53500,1,0,0:0:0:0:
272,96,53750,2,0,B|288:64|288:64|320:96,1,70
400,256,54250,1,0,0:0:0:0:
288,304,54500,2,0,L|256:304,4,17.5
112,232,55250,2,0,L|80:224,4,17.5
240,136,55750,1,0,0:0:0:0:
400,136,56000,6,0,B|440:112|440:112|464:120,1,70
400,248,56500,1,0,0:0:0:0:
368,352,56750,2,0,B|344:368|344:368|296:352,1,70
208,264,57250,1,0,0:0:0:0:
128,160,57500,1,0,0:0:0:0:
240,64,57750,1,0,0:0:0:0:
384,144,58000,2,0,L|448:200,1,70
160,224,58500,2,0,L|208:224,2,35
192,104,59000,1,0,0:0:0:0:
352,96,59250,1,0,0:0:0:0:
272,200,59500,1,0,0:0:0:0:
408,280,59750,1,0,0:0:0:0:
256,312,60000,5,0,0:0:0:0:
160,224,60250,1,0,0:0:0:0:
280,152,60500,1,0,0:0:0:0:
360,64,60750,2,0,L|432:64,1,70
400,184,61250,1,0,0:0:0:0:
432,312,61500,1,0,0:0:0:0:
320,272,61750,1,0,0:0:0:0:
392,176,62000,1,0,0:0:0:0:
304,80,62250,1,0,0:0:0:0:
160,224,62500,2,0,L|216:272,1,70
224,152,63000,1,0,0:0:0:0:
384,96,63250,1,0,0:0:0:0:
240,40,63500,1,0,0:0:0:0:
224,152,63750,1,0,0:0:0:0:
384,296,64000,5,0,0:0:0:0:
448,184,64250,1,0,0:0:0:0:
296,192,64500,2,0,L|216:192,1,70
264,72,65000,1,0,0:0:0:0:
400,192,65250,1,0,0:0:0:0:
408,56,65500,1,0,0:0:0:0:
304,256,65750,1,0,0:0:0:0:
184,176,66000,1,0,0:0:0:0:
256,72,66250,1,0,0:0:0:0:
64,40,66500,2,0,L|96:72,2,35
56,216,67000,1,0,0:0:0:0:
256,336,67250,1,0,0:0:0:0:
256,112,67500,1,0,0:0:0:0:
56,216,67750,1,0,0:0:0:0:
168,336,68000,6,0,L|240:296,1,70
224,104,68500,1,0,0:0:0:0:
408,104,68750,1,0,0:0:0:0:
304,224,69000,1,0,0:0:0:0:
448,320,69250,1,0,0:0:0:0:
448,168,69500,1,0,0:0:0:0:
304,224,69750,1,0,0:0:0:0:
168,112,70000,1,0,0:0:0:0:
360,112,70250,1,0,0:0:0:0:
256,224,70500,1,0,0:0:0:0:
112,224,70750,1,0,0:0:0:0:
112,64,71000,1,0,0:0:0:0:
256,144,71250,1,0,0:0:0:0:
256,304,71500,1,0,0:0:0:0:
384,224,71750,1,0,0:0:0:0:
256,144,72000,5,0,0:0:0:0:
120,256,72250,1,0,0:0:0:0:
80,88,72500,1,0,0:0:0:0:
256,40,72750,1,0,0:0:0:0:
392,192,73000,1,0,0:0:0:0:
256,192,73250,1,0,0:0:0:0:
184,328,73500,1,0,0:0:0:0:
112,192,73750,1,0,0:0:0:0:
48,304,74000,1,0,0:0:0:0:
224,192,74250,1,0,0:0:0:0:
136,96,74500,6,0,P|168:96|168:96,4,17.5
336,136,75000,1,0,0:0:0:0:
432,248,75250,1,0,0:0:0:0:
264,280,75500,1,0,0:0:0:0:
136,192,75750,1,0,0:0:0:0:
312,80,76000,5,0,0:0:0:0:
440,152,76250,1,0,0:0:0:0:
264,144,76500,1,0,0:0:0:0:
416,224,76750,1,0,0:0:0:0:
208,216,77000,1,0,0:0:0:0:
392,296,77250,1,0,0:0:0:0:
168,288,77500,1,0,0:0:0:0:
368,368,77750,1,0,0:0:0:0:
256,192,78000,6,0,B|184:192|184:192|136:136,1,140
256,48,78750,1,0,0:0:0:0:
376,192,79000,1,0,0:0:0:0:
256,192,79250,1,0,0:0:0:0:
376,312,79500,1,0,0:0:0:0:
256,312,79750,1,0,0:0:0:0:
160,192,80000,6,0,L|240:192,1,70
256,56,80500,1,0,0:0:0:0:
360,192,80750,1,0,0:0:0:0:
360,320,81000,2,0,L|280:320,1,70
216,192,81500,1,0,0:0:0:0:
64,192,81750,1,0,0:0:0:0:
144,72,82000,2,0,L|224:72,1,70
312,192,82500,6,0,L|352:192,2,35
256,320,83000,1,0,0:0:0:0:
152,192,83250,1,0,0:0:0:0:
360,192,83500,1,0,0:0:0:0:
256,192,83750,1,0,0:0:0:0:
72,120,84000,6,0,L|136:72,1,70
256,48,84500,1,0,0:0:0:0:
392,160,84750,2,0,B|400:232|400:232|328:248|328:248|336:320,1,210
184,264,85750,1,0,0:0:0:0:
224,96,86000,1,0,0:0:0:0:
48,48,86250,1,0,0:0:0:0:
32,264,86500,1,0,0:0:0:0:
208,240,86750,1,0,0:0:0:0:
288,112,87000,1,0,0:0:0:0:
392,192,87250,1,0,0:0:0:0:
112,104,87500,1,0,0:0:0:0:
256,192,87750,1,0,0:0:0:0:
24,144,92000,5,0,0:0:0:0:
184,88,92250,1,0,0:0:0:0:
120,248,92500,1,0,0:0:0:0:
280,88,92750,1,0,0:0:0:0:
152,352,93000,1,0,0:0:0:0:
376,88,93250,1,0,0:0:0:0:
320,264,93500,1,0,0:0:0:0:
152,352,93750,1,0,0:0:0:0:
136,80,94000,1,0,0:0:0:0:
256,192,94250,1,0,0:0:0:0:
416,192,94500,6,0,P|472:240|432:288,1,140
312,336,95250,2,0,P|240:312|256:256,1,140
160,192,96000,2,0,P|160:120|224:96,1,140
392,112,96750,2,0,P|448:176|432:232,1,140
256,104,97500,1,0,0:0:0:0:
352,272,97750,1,0,0:0:0:0:
168,288,98000,1,0,0:0:0:0:
256,104,98500,1,0,0:0:0:0:
256,104,98625,1,0,0:0:0:0:
256,104,98750,1,0,0:0:0:0:
376,192,99000,1,0,0:0:0:0:
256,304,99250,1,0,0:0:0:0:
128,192,99500,1,0,0:0:0:0:
256,72,99750,1,0,0:0:0:0:
368,104,100000,6,0,P|400:72|432:80,1,70
432,224,100500,2,0,P|400:256|368:248,1,70
232,256,101000,2,0,P|208:224|224:192,1,70
256,88,101500,2,0,P|296:112|288:136,1,70
192,240,102000,1,0,0:0:0:0:
48,192,102250,1,0,0:0:0:0:
184,80,102500,1,0,0:0:0:0:
304,192,102750,1,0,0:0:0:0:
296,40,103000,2,0,B|376:40|376:40|392:112,1,140
256,64,104000,6,0,B|176:64|176:64|176:128|176:128|248:168|248:168|248:224|248:224|104:224,1,420
