osu file format v14

[General]
AudioFilename: a.mp3
AudioLeadIn: 0
PreviewTime: 68649
Countdown: 0
SampleSet: Soft
StackLeniency: 0.5
Mode: 0
LetterboxInBreaks: 0
WidescreenStoryboard: 0

[Editor]
DistanceSpacing: 1.6
BeatDivisor: 4
GridSize: 8
TimelineZoom: 3.899998

[Metadata]
Title:Duet
TitleUnicode:Duet
Artist:Skytree
ArtistUnicode:Skytree
Creator:Deppyforce
Version:Delightful Melody
Source:Hachi Hachi
Tags:八八 rhythm game
BeatmapID:939209
BeatmapSetID:434556

[Difficulty]
HPDrainRate:7
CircleSize:4.8
OverallDifficulty:7.5
ApproachRate:8.5
SliderMultiplier:1.6
SliderTickRate:1

[Events]
//Background and Video events
0,0,"x.png",0,0
//Break Periods
//Storyboard Layer 0 (Background)
//Storyboard Layer 1 (Fail)
//Storyboard Layer 2 (Pass)
//Storyboard Layer 3 (Foreground)
//Storyboard Sound Samples

[TimingPoints]
2124,535.714285714286,4,2,1,50,1,0
14981,542.986425339367,4,2,1,50,1,0
15523,563.380281690141,4,2,1,50,1,0
16086,585.365853658537,4,2,1,50,1,0
16671,606.060606060606,4,2,1,50,1,0
17277,642.942103063619,4,2,1,50,1,0
20813,-100,4,2,1,5,0,0
22420,491.803278688525,4,2,1,70,1,0
36190,-100,4,2,1,50,0,0
38157,-100,4,2,1,60,0,0
69633,-90.9090909090909,4,2,1,70,0,1
83895,-100,4,2,1,60,0,0
85370,-90.9090909090909,4,2,1,70,0,1
99387,-90.9090909090909,4,2,1,60,0,1
101108,-100,4,2,1,70,0,0
114879,500,4,2,1,50,1,0
115379,508.474576271186,4,2,1,50,1,0
115887,530.973451327434,4,2,1,50,1,0
116948,530.973451327434,4,2,1,40,1,0
125443,-100,4,2,1,5,0,0

[Colours]
Combo1 : 158,205,205
Combo2 : 213,153,249
Combo3 : 128,214,247
Combo4 : 255,168,255

[HitObjects]
273,134,2124,6,0,P|251:167|246:210,1,80,2|0,0:0|0:0,0:0:0:0:
331,70,2659,2,0,P|294:50|255:50,1,80
331,196,3195,1,2,0:0:0:0:
393,138,3463,1,0,0:0:0:0:
350,280,3731,1,0,0:0:0:0:
268,254,3999,1,0,0:0:0:0:
412,221,4266,6,0,P|434:275|416:331,2,120,2|0|0,0:0|0:0|0:0,0:0:0:0:
287,339,5338,2,0,L|350:280,1,80,2|0,0:0|0:0,0:0:0:0:
249,170,5874,1,0,0:0:0:0:
268,254,6142,1,0,0:0:0:0:
416,331,6409,6,0,P|431:295|430:253,1,80,2|0,0:0|0:0,0:0:0:0:
268,254,6945,2,0,P|267:293|281:330,1,80
332,196,7481,1,2,0:0:0:0:
249,170,7749,1,0,0:0:0:0:
350,280,8016,1,0,0:0:0:0:
430,254,8284,1,0,0:0:0:0:
268,254,8552,6,0,L|147:254,2,120,2|0|0,0:0|0:0|0:0,0:0:0:0:
114,177,9624,2,0,P|82:200|67:238,1,80,2|0,0:0|0:0,0:0:0:0:
179,123,10159,1,0,0:0:0:0:
99,93,10427,1,0,0:0:0:0:
148,254,10695,6,0,L|227:254,1,80,2|0,0:0|0:0,0:0:0:0:
114,177,11231,2,0,P|82:200|67:238,1,80
179,123,11766,2,0,P|148:98|107:93,1,80,2|0,0:0|0:0,0:0:0:0:
148,254,12302,1,0,0:0:0:0:
213,200,12570,1,0,0:0:0:0:
165,40,12838,5,2,0:0:0:0:
179,123,13106,1,0,0:0:0:0:
342,162,13374,1,0,0:0:0:0:
262,132,13642,1,0,0:0:0:0:
227,283,13909,2,0,P|263:266|291:231,1,80,2|0,0:0|0:0,0:0:0:0:
148,254,14445,1,0,0:0:0:0:
83,308,14713,1,0,0:0:0:0:
179,123,14981,6,0,L|262:132,2,80,2|0|0,0:0|0:0|0:0,0:0:0:0:
165,40,15804,1,0,0:0:0:0:
213,200,16086,2,0,L|292:208,1,80,2|0,0:0|0:0,0:0:0:0:
148,254,16671,2,0,L|61:245,1,80,0|2,0:0|0:0,0:0:0:0:
256,192,17277,12,0,20813,0:0:0:0:
274,210,22420,5,6,0:0:0:0:
298,109,22665,1,0,0:0:0:0:
348,281,22911,1,8,0:0:0:0:
199,138,23157,2,0,P|196:97|210:54,1,80,2|0,0:0|0:0,0:0:0:0:
274,210,23649,1,0,0:0:0:0:
98,114,23895,1,8,0:0:0:0:
127,213,24141,1,0,0:0:0:0:
298,109,24387,5,2,0:0:0:0:
202,285,24633,2,0,P|169:307|127:318,1,80,2|8,0:0|0:0,0:0:0:0:
274,210,25124,2,0,P|296:243|307:285,1,80,2|0,0:0|0:0,0:0:0:0:
258,374,25616,1,0,0:0:0:0:
127,213,25862,1,8,0:0:0:0:
103,314,26108,1,0,0:0:0:0:
273,209,26354,6,0,P|295:242|305:280,1,80,2|0,0:0|0:0,0:0:0:0:
199,138,26846,2,0,P|216:102|244:74,1,80,10|0,0:0|0:0,0:0:0:0:
127,213,27338,1,2,0:0:0:0:
99,114,27583,1,0,0:0:0:0:
202,285,27829,1,10,0:0:0:0:
273,209,28075,1,0,0:0:0:0:
103,314,28321,6,0,P|123:349|154:373,1,80,2|0,0:0|0:0,0:0:0:0:
306,279,28813,2,0,P|295:240|272:208,1,80,10|0,0:0|0:0,0:0:0:0:
76,154,29305,2,0,P|96:189|127:213,1,80,2|0,0:0|0:0,0:0:0:0:
279,119,29797,2,0,P|268:80|245:48,1,80,10|0,0:0|0:0,0:0:0:0:
202,285,30288,5,2,0:0:0:0:
356,188,30534,1,0,0:0:0:0:
306,279,30780,1,8,0:0:0:0:
378,87,31026,2,0,L|479:109,1,80,2|0,0:0|0:0,0:0:0:0:
457,210,31518,1,0,0:0:0:0:
279,119,31764,1,8,0:0:0:0:
356,188,32010,1,0,0:0:0:0:
301,18,32256,5,2,0:0:0:0:
378,87,32501,1,0,0:0:0:0:
257,220,32747,1,8,0:0:0:0:
202,50,32993,2,0,P|162:48|121:66,1,80,2|0,0:0|0:0,0:0:0:0:
180,151,33485,1,0,0:0:0:0:
301,18,33731,1,8,0:0:0:0:
76,155,33977,1,0,0:0:0:0:
356,188,34223,6,0,L|378:87,1,80,2|0,0:0|0:0,0:0:0:0:
333,289,34715,2,0,P|374:290|413:275,1,80,10|0,0:0|0:0,0:0:0:0:
234,239,35206,1,2,0:0:0:0:
244,342,35452,1,0,0:0:0:0:
257,138,35698,2,0,P|216:137|177:152,1,80,10|0,0:0|0:0,0:0:0:0:
333,289,36190,6,0,P|374:290|413:275,1,80,6|0,0:0|0:0,0:0:0:0:
446,284,36559,2,0,P|432:246|433:206,1,80,6|0,0:0|0:0,0:0:0:0:
452,175,36928,2,0,P|411:176|372:161,1,80,6|0,0:0|0:0,0:0:0:0:
341,175,37297,2,0,P|354:137|353:97,1,80,6|0,0:0|0:0,0:0:0:0:
334,67,37665,2,0,P|375:68|414:53,1,80,6|2,0:0|0:0,0:0:0:0:
256,14,38157,6,0,L|176:14,1,80,6|0,0:0|0:0,0:0:0:0:
173,118,38649,2,0,L|253:118,1,80,8|2,0:0|0:0,0:0:0:0:
283,138,39018,1,0,0:0:0:0:
312,158,39141,1,0,0:0:0:0:
256,14,39387,1,0,0:0:0:0:
210,223,39633,1,8,0:0:0:0:
173,118,39879,1,0,0:0:0:0:
320,243,40124,6,0,P|358:228|388:199,1,80,2|0,0:0|0:0,0:0:0:0:
407,171,40493,2,0,P|422:209|451:239,1,80
479,258,40862,1,2,0:0:0:0:
392,330,41107,1,0,0:0:0:0:
496,366,41354,1,0,0:0:0:0:
510,159,41600,1,8,0:0:0:0:
479,258,41846,1,0,0:0:0:0:
438,72,42092,6,0,L|358:67,1,80,2|0,0:0|0:0,0:0:0:0:
325,83,42460,2,0,L|245:78,1,80
212,94,42829,1,2,0:0:0:0:
101,106,43075,1,0,0:0:0:0:
165,187,43321,1,0,0:0:0:0:
325,83,43567,1,8,0:0:0:0:
389,164,43813,1,0,0:0:0:0:
212,94,44059,5,2,0:0:0:0:
276,175,44305,1,0,0:0:0:0:
101,106,44551,1,8,0:0:0:0:
54,199,44797,2,0,P|65:239|87:270,1,80,2|0,0:0|0:0,0:0:0:0:
165,187,45288,1,0,0:0:0:0:
140,11,45534,2,0,P|99:5|61:12,1,80,8|0,0:0|0:0,0:0:0:0:
165,187,46026,5,2,0:0:0:0:
212,94,46272,1,0,0:0:0:0:
229,268,46518,1,8,0:0:0:0:
101,106,46764,2,0,P|76:137|62:175,1,80,2|0,0:0|0:0,0:0:0:0:
103,272,47256,1,0,0:0:0:0:
276,175,47501,1,8,0:0:0:0:
165,187,47747,1,0,0:0:0:0:
352,248,47993,5,2,0:0:0:0:
212,94,48239,1,0,0:0:0:0:
167,353,48485,1,8,0:0:0:0:
276,175,48731,2,0,P|311:152|351:142,1,80,2|0,0:0|0:0,0:0:0:0:
352,248,49223,1,0,0:0:0:0:
165,187,49469,2,0,L|211:94,1,80,12|0,0:0|0:0,0:0:0:0:
276,175,49960,5,8,0:0:0:0:
230,268,50206,1,0,0:0:0:0:
211,94,50452,1,8,0:0:0:0:
313,78,50698,1,0,0:0:0:0:
165,187,50944,1,8,0:0:0:0:
108,100,51190,1,0,0:0:0:0:
276,175,51436,1,8,0:0:0:0:
127,282,51682,1,0,0:0:0:0:
211,94,51928,5,8,0:0:0:0:
331,260,52174,1,0,0:0:0:0:
358,236,52297,1,0,0:0:0:0:
374,204,52420,1,8,0:0:0:0:
165,187,52665,1,0,0:0:0:0:
285,353,52911,1,8,0:0:0:0:
320,357,53034,1,0,0:0:0:0:
355,361,53157,1,0,0:0:0:0:
390,365,53280,1,0,0:0:0:0:
425,369,53403,1,8,0:0:0:0:
276,175,53895,5,6,0:0:0:0:
230,268,54141,1,0,0:0:0:0:
374,204,54387,1,8,0:0:0:0:
165,187,54633,2,0,P|129:162|110:130,1,80,2|0,0:0|0:0,0:0:0:0:
211,94,55124,1,0,0:0:0:0:
328,297,55370,1,8,0:0:0:0:
374,204,55616,1,0,0:0:0:0:
230,268,55862,5,2,0:0:0:0:
276,175,56108,1,0,0:0:0:0:
431,290,56354,1,8,0:0:0:0:
350,104,56600,2,0,P|316:80|279:72,1,80,2|0,0:0|0:0,0:0:0:0:
276,175,57092,1,0,0:0:0:0:
449,134,57338,2,0,L|441:54,1,80,8|0,0:0|0:0,0:0:0:0:
374,204,57829,6,0,P|408:228|445:236,1,80,2|0,0:0|0:0,0:0:0:0:
252,76,58321,2,0,P|218:52|181:44,1,80,8|2,0:0|0:0,0:0:0:0:
146,54,58690,1,0,0:0:0:0:
117,76,58813,1,0,0:0:0:0:
184,156,59059,1,0,0:0:0:0:
350,104,59305,1,8,0:0:0:0:
252,76,59551,1,0,0:0:0:0:
209,255,59797,6,0,P|169:258|130:245,1,80,2|0,0:0|0:0,0:0:0:0:
102,224,60165,1,0,0:0:0:0:
83,193,60288,1,8,0:0:0:0:
184,156,60534,1,2,0:0:0:0:
127,323,60780,1,0,0:0:0:0:
93,310,60903,1,0,0:0:0:0:
63,288,61026,1,0,0:0:0:0:
283,184,61272,1,8,0:0:0:0:
283,184,61764,5,2,0:0:0:0:
209,255,62010,1,0,0:0:0:0:
259,85,62256,1,8,0:0:0:0:
382,214,62501,2,0,P|364:249|332:275,1,80,2|0,0:0|0:0,0:0:0:0:
283,184,62993,1,0,0:0:0:0:
406,313,63239,1,8,0:0:0:0:
482,242,63485,1,0,0:0:0:0:
359,112,63731,5,2,0:0:0:0:
382,214,63977,1,0,0:0:0:0:
184,156,64223,1,8,0:0:0:0:
334,14,64469,2,0,P|374:12|414:27,1,80,2|0,0:0|0:0,0:0:0:0:
259,85,64960,1,0,0:0:0:0:
114,17,65206,1,8,0:0:0:0:
93,114,65452,1,0,0:0:0:0:
114,17,65698,5,0,0:0:0:0:
259,85,65944,2,0,P|299:83|339:98,1,80,4|0,0:0|0:0,0:0:0:0:
356,126,66313,2,0,P|358:166|343:206,1,80,4|0,0:0|0:0,0:0:0:0:
315,223,66682,2,0,P|275:225|235:210,1,80,4|0,0:0|0:0,0:0:0:0:
218,182,67051,2,0,P|216:142|231:102,1,80,4|0,0:0|0:0,0:0:0:0:
259,85,67420,1,4,0:0:0:0:
344,203,67665,5,8,0:0:0:0:
218,182,67911,1,8,0:0:0:0:
385,141,68157,1,8,0:0:0:0:
176,243,68403,1,8,0:0:0:0:
358,70,68649,5,8,0:0:0:0:
261,346,68895,1,8,0:0:0:0:
291,28,69141,1,8,0:0:0:0:
190,320,69387,1,8,0:0:0:0:
4,87,69633,6,0,L|0:-2,1,88.000002685547,6|0,0:0|0:0,0:0:0:0:
186,232,70124,2,0,L|189:319,1,88.000002685547,8|0,0:0|0:0,0:0:0:0:
82,266,70616,1,2,0:0:0:0:
111,146,70862,1,0,0:0:0:0:
157,350,71108,1,8,0:0:0:0:
186,232,71354,1,0,0:0:0:0:
394,344,71600,6,0,P|439:347|479:331,1,88.000002685547,2|0,0:0|0:0,0:0:0:0:
512,269,71969,2,0,P|515:225|499:184,1,88.000002685547
434,155,72338,1,0,0:0:0:0:
350,236,72583,1,2,0:0:0:0:
271,150,72829,1,0,0:0:0:0:
394,344,73075,1,8,0:0:0:0:
458,192,73321,1,0,0:0:0:0:
265,316,73567,6,0,P|223:328|178:320,1,88.000002685547,2|0,0:0|0:0,0:0:0:0:
185,154,74059,2,0,P|227:142|272:150,1,88.000002685547,8|0,0:0|0:0,0:0:0:0:
91,233,74551,1,2,0:0:0:0:
70,111,74797,1,0,0:0:0:0:
179,320,75042,1,8,0:0:0:0:
273,240,75288,1,0,0:0:0:0:
55,353,75534,6,0,P|50:308|63:264,1,88.000002685547,2|0,0:0|0:0,0:0:0:0:
100,207,75903,2,0,P|111:164|106:121,1,88.000002685547
53,72,76272,1,0,0:0:0:0:
244,223,76518,1,2,0:0:0:0:
179,320,76764,1,0,0:0:0:0:
304,121,77010,1,8,0:0:0:0:
420,162,77256,1,0,0:0:0:0:
185,154,77501,6,0,L|183:65,1,88.000002685547,2|0,0:0|0:0,0:0:0:0:
273,240,77993,2,0,L|197:285,1,88.000002685547,8|0,0:0|0:0,0:0:0:0:
304,121,78485,2,0,L|381:163,1,88.000002685547,2|0,0:0|0:0,0:0:0:0:
185,154,78977,1,8,0:0:0:0:
215,34,79223,1,0,0:0:0:0:
273,240,79469,5,2,0:0:0:0:
304,121,79715,1,0,0:0:0:0:
154,273,79960,1,8,0:0:0:0:
391,207,80206,1,0,0:0:0:0:
215,34,80452,2,0,P|168:33|127:45,1,88.000002685547,2|0,0:0|0:0,0:0:0:0:
273,240,80944,1,8,0:0:0:0:
185,154,81190,1,0,0:0:0:0:
421,87,81436,6,0,L|424:-1,1,88.000002685547,2|0,0:0|0:0,0:0:0:0:
304,121,81928,1,8,0:0:0:0:
508,173,82173,1,2,0:0:0:0:
478,293,82420,1,0,0:0:0:0:
391,207,82665,1,0,0:0:0:0:
421,87,82911,2,0,P|454:59|501:51,1,88.000002685547,8|0,0:0|0:0,0:0:0:0:
391,207,83403,5,2,0:0:0:0:
334,1,83649,1,8,0:0:0:0:
508,173,83895,1,8,0:0:0:0:
508,173,84387,5,8,0:0:0:0:
304,121,84633,1,8,0:0:0:0:
478,293,84879,1,8,0:0:0:0:
334,1,85124,1,8,0:0:0:0:
257,352,85370,6,0,P|214:361|169:349,1,88.000002685547,6|0,0:0|0:0,0:0:0:0:
37,142,85862,2,0,L|32:50,1,88.000002685547,8|0,0:0|0:0,0:0:0:0:
104,246,86354,1,2,0:0:0:0:
48,356,86600,1,0,0:0:0:0:
227,239,86846,1,8,0:0:0:0:
160,135,87092,1,0,0:0:0:0:
171,350,87338,6,0,L|266:353,1,88.000002685547,2|0,0:0|0:0,0:0:0:0:
329,356,87706,2,0,P|318:313|327:270,1,88.000002685547
381,225,88075,1,0,0:0:0:0:
502,307,88321,2,0,L|415:311,1,88.000002685547,2|0,0:0|0:0,0:0:0:0:
339,126,88813,1,8,0:0:0:0:
393,237,89059,1,0,0:0:0:0:
223,168,89305,6,0,P|212:125|221:82,1,88.000002685547,2|0,0:0|0:0,0:0:0:0:
202,291,89797,2,0,P|159:279|126:249,1,88.000002685547,8|0,0:0|0:0,0:0:0:0:
318,247,90288,1,2,0:0:0:0:
297,370,90534,1,0,0:0:0:0:
223,168,90780,1,8,0:0:0:0:
339,126,91026,1,0,0:0:0:0:
202,291,91272,6,0,P|159:279|126:249,1,88.000002685547,2|0,0:0|0:0,0:0:0:0:
61,223,91641,2,0,P|92:191|105:149,1,88.000002685547
66,90,92010,1,0,0:0:0:0:
102,319,92256,2,0,L|14:319,1,88.000002685547,2|0,0:0|0:0,0:0:0:0:
202,291,92747,2,0,P|223:329|230:372,1,88.000002685547,8|0,0:0|0:0,0:0:0:0:
202,291,93239,6,0,P|225:254|232:209,1,88.000002685547,2|0,0:0|0:0,0:0:0:0:
76,70,93731,2,0,P|96:108|132:136,1,88.000002685547,8|0,0:0|0:0,0:0:0:0:
330,71,94223,2,0,P|286:69|243:86,1,88.000002685547,2|0,0:0|0:0,0:0:0:0:
423,152,94715,1,8,0:0:0:0:
446,32,94960,1,0,0:0:0:0:
307,192,95205,5,2,0:0:0:0:
400,272,95452,1,0,0:0:0:0:
330,71,95698,1,8,0:0:0:0:
423,152,95944,1,0,0:0:0:0:
284,312,96190,2,0,P|241:298|210:270,1,88.000002685547,2|0,0:0|0:0,0:0:0:0:
512,233,96682,1,8,0:0:0:0:
493,352,96927,1,0,0:0:0:0:
307,192,97174,6,0,L|307:85,1,88.000002685547,2|0,0:0|0:0,0:0:0:0:
400,272,97665,1,8,0:0:0:0:
284,312,97911,1,0,0:0:0:0:
423,152,98157,2,0,L|512:233,1,88.000002685547,2|0,0:0|0:0,0:0:0:0:
330,71,98649,2,0,L|444:34,1,88.000002685547,8|0,0:0|0:0,0:0:0:0:
400,272,99141,5,2,0:0:0:0:
214,111,99387,2,0,P|171:117|126:107,1,88.000002685547,4|0,0:0|0:0,0:0:0:0:
73,62,99756,2,0,P|79:105|69:150,1,88.000002685547,4|0,0:0|0:0,0:0:0:0:
24,203,100124,2,0,P|67:197|112:207,1,88.000002685547,4|0,0:0|0:0,0:0:0:0:
168,165,100493,2,0,P|159:208|165:252,1,88.000002685547,4|0,0:0|0:0,0:0:0:0:
214,303,100862,1,4,0:0:0:0:
214,111,101108,5,6,0:0:0:0:
321,143,101354,1,0,0:0:0:0:
154,210,101600,1,8,0:0:0:0:
296,35,101846,2,0,P|262:9|223:-2,1,80,2|0,0:0|0:0,0:0:0:0:
321,143,102338,1,0,0:0:0:0:
509,100,102583,1,8,0:0:0:0:
402,67,102829,1,0,0:0:0:0:
347,252,103075,5,2,0:0:0:0:
214,111,103321,2,0,L|293:118,1,80,2|8,0:0|0:0,0:0:0:0:
154,210,103813,2,0,L|75:203,1,80,2|0,0:0|0:0,0:0:0:0:
239,284,104305,1,0,0:0:0:0:
426,176,104551,1,8,0:0:0:0:
347,252,104797,1,0,0:0:0:0:
214,111,105042,6,0,P|189:77|183:40,1,80,2|0,0:0|0:0,0:0:0:0:
154,210,105534,2,0,P|120:235|83:241,1,80,10|0,0:0|0:0,0:0:0:0:
239,284,106026,1,2,0:0:0:0:
297,187,106272,1,0,0:0:0:0:
99,109,106518,1,10,0:0:0:0:
154,210,106764,1,0,0:0:0:0:
321,76,107010,6,0,L|402:76,1,80,2|0,0:0|0:0,0:0:0:0:
215,33,107501,2,0,P|206:71|213:110,1,80,10|0,0:0|0:0,0:0:0:0:
377,187,107993,2,0,L|296:187,1,80,2|0,0:0|0:0,0:0:0:0:
482,144,108485,2,0,P|491:182|484:221,1,80,10|0,0:0|0:0,0:0:0:0:
319,373,108977,5,2,0:0:0:0:
294,263,109223,1,0,0:0:0:0:
484,221,109469,1,8,0:0:0:0:
319,373,109715,2,0,P|278:373|238:360,1,80,2|0,0:0|0:0,0:0:0:0:
182,266,110206,1,0,0:0:0:0:
401,297,110452,1,8,0:0:0:0:
294,263,110698,1,0,0:0:0:0:
129,364,110944,5,2,0:0:0:0:
70,268,111190,1,0,0:0:0:0:
241,361,111436,1,8,0:0:0:0:
123,170,111682,2,0,P|84:159|41:162,1,80,2|0,0:0|0:0,0:0:0:0:
182,266,112174,1,0,0:0:0:0:
176,71,112420,1,8,0:0:0:0:
70,268,112665,1,0,0:0:0:0:
288,69,112911,6,0,L|371:68,1,80,2|0,0:0|0:0,0:0:0:0:
234,167,113403,2,0,P|201:141|182:106,1,80,10|0,0:0|0:0,0:0:0:0:
345,164,113895,1,2,0:0:0:0:
293,262,114141,1,0,0:0:0:0:
288,54,114387,2,0,L|371:53,1,80,10|0,0:0|0:0,0:0:0:0:
293,277,114879,5,6,0:0:0:0:
256,192,115004,12,0,116683,0:0:0:0:
215,281,116948,5,4,0:0:0:0:
256,192,117080,12,0,125443,0:0:0:0:
