osu file format v14

[General]
AudioFilename: audio.mp3
AudioLeadIn: 0
PreviewTime: 46131
Countdown: 0
SampleSet: Soft
StackLeniency: 0.4
Mode: 0
LetterboxInBreaks: 0
WidescreenStoryboard: 1

[Editor]
Bookmarks: 61373,65486
DistanceSpacing: 1.3
BeatDivisor: 4
GridSize: 4
TimelineZoom: 2.1

[Metadata]
Title:Ame ga Furu kara Niji ga Deru (TV Size)
TitleUnicode:雨が降るから虹が出る (TV Size)
Artist:Sky Peace
ArtistUnicode:スカイピース
Creator:Nevo
Version:Red's Insane
Source:七つの大罪 戒めの復活
Tags:nanatsu no taizai imashime no fukkatsu seven deadly sins revival of the commandments pika [[pika]] xchorse chaoticred hypercyte ayanokorin nikakis yukiyo
BeatmapID:1707596
BeatmapSetID:811447

[Difficulty]
HPDrainRate:6
CircleSize:3.5
OverallDifficulty:8
ApproachRate:9
SliderMultiplier:1.4
SliderTickRate:1

[Events]
//Background and Video events
0,0,"thumb-1920-738207.png",0,0
Video,0,"OP.mp4"
//Break Periods
//Storyboard Layer 0 (Background)
//Storyboard Layer 1 (Fail)
//Storyboard Layer 2 (Pass)
//Storyboard Layer 3 (Foreground)
//Storyboard Sound Samples

[TimingPoints]
406,322.58064516129,4,2,1,60,1,0
406,-125,4,2,1,60,0,0
2341,-100,4,2,1,60,0,0
4276,-166.666666666667,4,2,1,60,0,0
10728,-166.666666666667,4,2,1,75,0,0
12018,-142.857142857143,4,2,1,40,0,0
21051,-100,4,2,1,40,0,0
22341,-83.3333333333333,4,2,1,75,0,0
37825,-80,4,2,1,75,0,0
42664,-111.111111111111,4,2,1,75,0,0
44922,322.58064516129,4,2,1,50,1,0
44922,-111.111111111111,4,2,1,50,0,0
45244,-111.111111111111,4,2,1,60,0,0
45567,-100,4,2,1,70,0,0
45889,-100,4,2,1,80,0,0
46212,-68.9655172413793,4,2,1,90,0,1
55244,-50,4,2,1,90,0,1
56535,-68.9655172413793,4,2,1,90,0,1
66857,-100,4,2,1,55,0,0
82341,-100,4,2,1,70,0,0
88792,-100,4,2,1,5,0,0

[Colours]
Combo1 : 255,255,255
Combo2 : 66,190,242
Combo3 : 221,231,44
Combo4 : 141,3,193
Combo5 : 218,44,48

[HitObjects]
32,82,406,5,2,0:0:0:0:
46,187,567,1,2,0:0:0:0:
139,142,728,2,0,P|179:134|214:134,3,56,0|0|0|0,0:0|0:0|0:0|0:0,0:0:0:0:
296,165,1373,5,2,0:0:0:0:
310,270,1534,1,2,0:0:0:0:
381,77,1696,5,12,0:0:0:0:
399,220,1857,1,0,3:0:0:0:
490,133,2018,1,0,3:0:0:0:
504,323,2179,1,12,0:0:0:0:
310,270,2341,2,0,P|251:252|215:251,1,70,0|0,3:0|3:0,0:0:0:0:
98,348,2664,2,0,P|157:330|193:329,1,70,8|0,0:0|3:0,0:0:0:0:
45,249,2986,5,4,0:3:0:0:
45,249,3954,21,0,0:0:0:0:
108,71,4276,2,0,P|104:133|120:194,1,125.999996154785,0|0,0:0|0:0,0:0:0:0:
199,249,4922,2,0,P|262:233|334:239,1,125.999996154785,0|0,0:0|0:0,0:0:0:0:
421,285,5567,5,4,0:3:0:0:
421,285,6535,5,0,0:0:0:0:
327,120,6857,2,0,P|345:182|315:243,1,125.999996154785,0|0,0:0|0:0,0:0:0:0:
242,302,7502,2,0,P|180:284|119:314,1,125.999996154785,0|0,0:0|0:0,0:0:0:0:
44,360,8147,5,4,0:3:0:0:
15,96,8631,1,0,0:0:0:0:
262,190,9115,1,0,0:0:0:0:
87,218,9438,21,0,0:0:0:0:
425,118,10083,1,0,0:0:0:0:
72,104,10728,5,8,3:1:0:0:
129,275,10889,1,8,3:1:0:0:
217,122,11212,5,8,3:1:0:0:
228,302,11373,1,8,3:1:0:0:
359,184,11696,5,8,3:1:0:0:
323,361,11857,1,8,3:1:0:0:
324,269,12018,22,0,P|371:283|410:313,2,97.9999970092774,2|2|2,0:0|0:0|0:0,0:0:0:0:
226,266,12986,1,2,0:0:0:0:
144,320,13309,2,0,P|94:339|11:261,1,171.499994766236,2|0,0:0|0:0,0:0:0:0:
23,248,13954,2,0,P|37:183|35:143,1,97.9999970092774,2|2,0:0|0:0,0:0:0:0:
12,56,14599,6,0,L|121:62,1,97.9999970092774,2|2,0:0|0:0,0:0:0:0:
218,145,15244,2,0,L|109:151,1,97.9999970092774,2|2,0:0|0:0,0:0:0:0:
23,248,15889,5,2,0:0:0:0:
134,327,16212,1,2,0:0:0:0:
268,299,16535,1,2,0:0:0:0:
401,328,16857,1,2,0:0:0:0:
369,194,17180,6,0,P|339:138|309:105,1,97.9999970092774,2|2,0:0|0:0,0:0:0:0:
209,197,17825,2,0,P|153:167|120:137,1,97.9999970092774,2|2,0:0|0:0,0:0:0:0:
44,34,18470,22,0,P|102:41|154:21,1,97.9999970092774,2|2,0:0|0:0,0:0:0:0:
274,30,19115,2,0,P|332:22|384:43,1,97.9999970092774,2|2,0:0|0:0,0:0:0:0:
482,110,19760,5,0,3:2:0:0:
399,220,20083,1,10,0:0:0:0:
263,241,20405,1,2,0:0:0:0:
316,112,20728,1,10,0:2:0:0:
183,163,21051,6,0,P|132:165|107:158,1,70,2|0,3:2|0:0,0:0:0:0:
236,65,21373,2,0,P|185:63|160:70,1,70,2|0,0:0|0:0,0:0:0:0:
316,112,21696,1,2,0:0:0:0:
183,163,21857,1,2,0:0:0:0:
331,235,22018,2,0,P|379:219|405:220,1,70,2|0,0:0|0:0,0:0:0:0:
291,344,22341,5,0,3:0:0:0:
505,377,22502,1,0,0:0:0:0:
429,296,22664,2,0,P|403:241|395:194,1,83.9999974365235,0|0,3:0|0:0,0:0:0:0:
512,50,22986,2,0,L|505:157,1,83.9999974365235,8|0,0:1|0:0,0:0:0:0:
449,284,23309,1,0,3:0:0:0:
398,66,23470,1,0,3:0:0:0:
374,55,23793,21,0,0:0:0:0:
275,44,23954,1,0,0:0:0:0:
176,33,24115,1,0,3:0:0:0:
214,189,24276,1,8,0:1:0:0:
116,112,24438,2,0,P|56:106|9:114,1,83.9999974365235,0|0,3:0|0:0,0:0:0:0:
193,178,24760,1,0,0:0:0:0:
82,279,24922,6,0,P|46:327|30:372,1,83.9999974365235,0|0,3:0|0:0,0:0:0:0:
179,267,25244,1,0,0:0:0:0:
202,366,25405,1,0,3:0:0:0:
283,226,25567,2,0,P|294:166|290:119,1,83.9999974365235,8|0,0:1|0:0,0:0:0:0:
327,316,25889,1,0,3:0:0:0:
382,87,26051,1,0,3:0:0:0:
363,62,26373,5,0,0:0:0:0:
264,73,26534,1,0,0:0:0:0:
165,84,26695,1,0,3:0:0:0:
233,220,26857,1,8,0:1:0:0:
103,165,27018,2,0,P|42:164|-3:177,1,83.9999974365235,0|0,0:0|0:0,0:0:0:0:
191,216,27341,1,0,0:0:0:0:
0,304,27502,5,0,3:0:0:0:
133,339,27664,1,0,0:0:0:0:
227,306,27825,2,0,P|288:305|333:318,1,83.9999974365235,0|0,0:0|3:0,0:0:0:0:
462,384,28147,1,8,0:1:0:0:
445,226,28309,1,0,0:0:0:0:
270,348,28470,1,0,3:0:0:0:
315,209,28631,2,0,P|325:148|320:102,1,83.9999974365235,0|0,3:0|0:0,0:0:0:0:
179,59,28954,2,0,P|193:118|218:158,1,83.9999974365235
286,40,29276,1,0,3:0:0:0:
398,213,29438,21,8,0:1:0:0:
447,100,29599,2,0,P|456:57|452:9,1,83.9999974365235,0|0,0:0|0:0,0:0:0:0:
500,189,29922,1,0,3:0:0:0:
368,46,30083,6,0,P|325:37|277:41,1,83.9999974365235,0|0,3:0|0:0,0:0:0:0:
188,71,30405,1,0,0:0:0:0:
118,142,30567,1,0,3:0:0:0:
203,248,30728,2,0,P|212:205|208:157,1,83.9999974365235,8|0,0:1|0:0,0:0:0:0:
103,46,31051,1,0,3:0:0:0:
69,222,31212,1,0,3:0:0:0:
209,165,31373,5,0,0:0:0:0:
298,139,31535,1,0,3:0:0:0:
394,165,31696,2,0,L|402:210,3,41.9999987182618,8|0|0|0,0:1|0:0|3:0|0:0,0:0:0:0:
415,131,32018,2,0,P|455:121|506:125,1,83.9999974365235,0|0,3:0|0:0,0:0:0:0:
410,233,32341,1,0,0:0:0:0:
510,269,32502,1,0,3:0:0:0:
330,320,32664,6,0,B|260:314|260:314|226:325|226:325|135:319,1,167.999994873047,0|0,3:0|0:0,0:0:0:0:
41,315,33147,1,0,3:0:0:0:
194,232,33309,1,8,0:1:0:0:
3,203,33470,1,0,0:0:0:0:
172,355,33631,2,0,P|215:364|263:360,1,83.9999974365235,0|0,3:0|3:0,0:0:0:0:
382,323,33954,21,0,0:0:0:0:
284,232,34115,1,0,0:0:0:0:
410,199,34276,2,0,P|453:201|499:217,1,83.9999974365235,0|0,0:0|3:0,0:0:0:0:
394,71,34599,2,0,L|312:112,1,83.9999974365235,8|0,0:1|0:0,0:0:0:0:
175,126,34922,1,0,0:0:0:0:
243,37,35083,1,0,3:0:0:0:
223,222,35244,5,0,3:0:0:0:
87,86,35405,1,0,0:0:0:0:
47,271,35567,2,0,P|45:228|29:182,1,83.9999974365235,0|0,0:0|3:0,0:0:0:0:
149,285,35889,2,0,L|131:367,1,83.9999974365235,8|0,0:1|0:0,0:0:0:0:
223,222,36212,1,0,3:0:0:0:
292,301,36373,1,0,3:0:0:0:
307,156,36535,5,0,0:0:0:0:
352,378,36696,1,0,0:0:0:0:
409,217,36857,2,0,P|421:175|422:127,1,83.9999974365235,0|0,0:0|3:0,0:0:0:0:
352,35,37180,2,0,B|285:9|234:47|234:47|185:84|100:59,1,251.999992309571,8|0,0:1|0:0,0:0:0:0:
23,5,37825,6,0,P|31:69|18:126,1,87.5,0|0,3:0|0:0,0:0:0:0:
21,132,38067,1,0,3:0:0:0:
21,132,38147,1,0,0:0:0:0:
64,273,38309,2,0,P|123:248|182:246,1,87.5,8|0,0:1|0:0,0:0:0:0:
270,316,38631,1,0,3:0:0:0:
113,365,38793,1,8,0:1:0:0:
237,201,38954,1,0,3:0:0:0:
237,201,39035,1,0,0:0:0:0:
237,201,39115,22,0,P|261:149|273:44,1,131.25,0|0,3:0|3:0,0:0:0:0:
410,263,39599,2,0,P|401:192|406:150,1,87.5,8|0,0:1|0:0,0:0:0:0:
446,74,39922,1,0,3:0:0:0:
503,350,40083,2,0,P|512:279|507:237,1,87.5,8|0,0:1|3:0,0:0:0:0:
321,353,40405,5,8,3:2:0:0:
272,186,40567,1,8,3:2:0:0:
272,186,40889,5,8,3:2:0:0:
223,353,41051,1,8,3:2:0:0:
223,353,41373,5,8,3:2:0:0:
174,186,41535,1,8,3:2:0:0:
174,186,41857,21,8,3:2:0:0:
125,353,42019,1,8,3:2:0:0:
125,353,42341,5,8,3:2:0:0:
76,186,42503,1,8,3:2:0:0:
213,287,42664,2,0,P|271:316|316:328,1,94.499997116089,8|0,3:2|0:0,0:0:0:0:
328,335,42986,5,8,3:2:0:0:
374,157,43147,1,8,3:2:0:0:
374,157,43470,5,8,3:2:0:0:
420,335,43631,1,8,3:2:0:0:
420,335,43954,21,8,3:2:0:0:
466,157,44115,2,0,P|431:88|283:134,1,251.999992309571,8|0,3:2|0:0,0:0:0:0:
250,261,44922,2,0,P|250:303|254:320,3,31.4999990386963,8|0|0|0,0:1|0:0|0:0|0:0,0:0:0:0:
303,182,45244,2,0,P|303:166|301:150,3,31.4999990386963,8|0|0|0,0:1|0:0|0:0|0:0,0:0:0:0:
340,268,45567,1,8,3:3:0:0:
353,296,45647,1,8,3:3:0:0:
378,315,45728,5,8,3:3:0:0:
409,321,45808,1,8,3:3:0:0:
439,313,45889,1,8,3:3:0:0:
463,293,45970,1,8,3:3:0:0:
475,265,46050,1,8,3:3:0:0:
474,233,46131,1,8,3:3:0:0:
462,194,46212,6,0,P|420:162|372:146,1,101.500003097534,4|0,3:3|0:0,0:0:0:0:
222,170,46535,1,8,0:0:0:0:
300,381,46696,2,0,P|320:332|323:281,1,101.500003097534,0|0,0:0|3:0,0:0:0:0:
141,235,47018,2,0,P|122:189|118:138,1,101.500003097534,0|8,0:0|0:0,0:0:0:0:
262,30,47341,6,0,B|311:4|361:31|361:31|406:53|488:18,1,203.000006195069,0|0,0:0|0:0,0:0:0:0:
301,114,47825,2,0,P|238:119|191:91,1,101.500003097534,8|0,0:0|0:0,0:0:0:0:
394,65,48147,1,0,3:0:0:0:
262,30,48309,1,0,0:0:0:0:
386,172,48470,1,0,3:0:0:0:
206,128,48631,1,8,0:0:0:0:
321,255,48793,22,0,P|370:275|421:278,1,101.500003097534,0|0,3:0|0:0,0:0:0:0:
295,155,49115,1,8,0:0:0:0:
156,209,49276,2,0,P|103:215|53:205,1,101.500003097534,0|0,0:0|3:0,0:0:0:0:
0,60,49599,2,0,P|48:80|86:114,1,101.500003097534,0|8,0:0|0:0,0:0:0:0:
206,296,49922,6,0,P|250:238|167:114,1,203.000006195069,0|0,0:0|0:0,0:0:0:0:
110,308,50405,2,0,P|130:353|170:383,1,101.500003097534,8|0,0:0|0:0,0:0:0:0:
147,208,50728,1,0,3:0:0:0:
264,375,50889,1,8,0:0:0:0:
335,226,51051,2,0,P|355:177|358:126,1,101.500003097534,0|8,0:0|0:0,0:0:0:0:
138,24,51373,6,0,P|206:75|314:34,1,203.000006195069,4|8,3:2|0:0,0:0:0:0:
491,153,51857,2,0,P|406:142|333:232,1,203.000006195069,0|0,0:0|0:0,0:0:0:0:
261,348,52341,2,0,P|191:358|148:350,1,101.500003097534,8|0,0:0|0:0,0:0:0:0:
20,299,52664,5,0,3:0:0:0:
205,256,52825,1,0,0:0:0:0:
42,189,52986,1,8,0:0:0:0:
149,346,53147,1,0,0:0:0:0:
186,158,53309,2,0,P|202:98|204:43,1,101.500003097534,0|0,3:0|0:0,0:0:0:0:
340,233,53631,2,0,P|324:173|322:118,1,101.500003097534,8|0,0:0|0:0,0:0:0:0:
437,384,53954,22,0,B|413:331|435:286|435:286|462:236|436:188,1,203.000006195069,0|8,3:0|0:0,0:0:0:0:
371,50,54438,2,0,B|321:28|275:48|275:48|262:37|262:37|213:60|154:25,1,203.000006195069,0|0,0:0|0:0,0:0:0:0:
10,10,54922,2,0,P|33:77|20:128,1,101.500003097534,8|0,0:0|0:0,0:0:0:0:
89,269,55244,54,0,P|136:178|16:143,1,210,8|0,3:2|0:0,0:0:0:0:
0,191,55567,2,0,B|109:246|104:133|239:223,1,210,8|0,3:2|0:0,0:0:0:0:
291,162,55889,2,0,P|284:262|191:297,1,210,8|0,3:2|0:0,0:0:0:0:
202,201,56212,2,0,B|280:225|280:225|320:209|320:209|413:237,1,210,8|0,3:2|0:0,0:0:0:0:
440,248,56535,6,0,P|453:186|441:135,1,101.500003097534,4|0,3:3|0:0,0:0:0:0:
404,54,56857,1,8,0:0:0:0:
291,162,57018,2,0,P|240:168|192:155,1,101.500003097534,0|0,0:0|3:0,0:0:0:0:
87,87,57341,1,0,0:0:0:0:
252,70,57502,1,8,0:0:0:0:
156,254,57664,2,0,P|149:203|162:155,1,101.500003097534,0|0,0:0|3:0,0:0:0:0:
237,315,57986,1,0,0:0:0:0:
326,251,58147,2,0,P|372:231|423:231,1,101.500003097534,8|0,0:0|0:0,0:0:0:0:
474,347,58470,6,0,B|399:334|399:334|345:359,2,135.333337463379,10|10|10,3:2|3:2|3:2,0:0:0:0:
454,134,59115,6,0,L|440:240,1,101.500003097534,4|0,3:3|0:0,0:0:0:0:
360,377,59438,1,8,0:0:0:0:
244,202,59599,2,0,P|302:179|368:184,1,101.500003097534,0|0,0:0|0:0,0:0:0:0:
472,237,59922,1,0,0:0:0:0:
299,294,60083,1,8,0:0:0:0:
353,85,60244,2,0,P|367:133|364:183,1,101.500003097534,0|0,0:0|0:0,0:0:0:0:
280,19,60567,1,0,0:0:0:0:
198,74,60728,2,0,P|149:88|99:85,1,101.500003097534,8|0,0:0|0:0,0:0:0:0:
21,4,61051,5,0,3:0:0:0:
44,177,61212,1,0,0:0:0:0:
138,2,61373,1,8,0:0:0:0:
161,175,61534,1,0,0:0:0:0:
366,39,61696,22,0,P|448:23|497:150,1,203.000006195069,4|8,3:3|0:0,0:0:0:0:
362,239,62180,2,0,P|342:163|355:96,1,101.500003097534,0|0,0:0|3:0,0:0:0:0:
451,367,62502,2,0,P|471:291|458:224,1,101.500003097534,0|8,0:0|0:0,0:0:0:0:
315,127,62825,2,0,P|264:128|216:145,1,101.500003097534,0|0,0:0|3:0,0:0:0:0:
60,19,63147,2,0,P|108:33|149:62,1,101.500003097534,0|8,0:0|0:0,0:0:0:0:
241,237,63470,1,0,0:0:0:0:
70,114,63631,1,0,3:0:0:0:
267,37,63793,6,0,B|316:16|366:38|366:38|411:60|493:25,1,203.000006195069,0|0,3:0|0:0,0:0:0:0:
314,118,64276,5,8,3:2:0:0:
492,140,64438,1,8,3:2:0:0:
242,232,64760,5,8,3:2:0:0:
420,210,64922,1,8,3:2:0:0:
176,130,65244,21,8,3:2:0:0:
154,308,65406,1,8,3:2:0:0:
308,27,65728,5,8,3:2:0:0:
330,205,65890,1,8,3:2:0:0:
115,61,66212,6,0,P|187:40|242:53,1,101.500003097534,0|8,3:0|0:0,0:0:0:0:
97,197,66535,2,0,P|46:197|0:179,1,101.500003097534,0|0,3:0|0:0,0:0:0:0:
184,143,66857,6,0,P|232:165|329:170,1,140,4|0,3:2|0:0,0:0:0:0:
451,144,67341,2,0,P|475:113|485:64,1,70,0|8,0:0|0:1,0:0:0:0:
409,262,67664,2,0,P|420:294|442:322,1,70,0|0,0:0|3:0,0:0:0:0:
319,205,67986,2,0,L|230:199,1,70,0|0,3:0|0:0,0:0:0:0:
119,292,68309,2,0,P|145:233|126:169,1,105,0|0,0:0|0:0,0:0:0:0:
126,169,68631,1,0,0:0:0:0:
29,272,68793,21,8,0:1:0:0:
36,179,68954,1,0,0:0:0:0:
119,292,69115,2,0,P|183:301|213:300,1,70,0|0,0:0|0:0,0:0:0:0:
313,241,69438,6,0,P|291:289|286:386,1,140,0|0,3:0|0:0,0:0:0:0:
430,327,69922,2,0,P|472:316|511:318,1,70,0|8,0:0|0:1,0:0:0:0:
475,212,70244,2,0,P|433:201|394:203,1,70,0|0,0:0|3:0,0:0:0:0:
213,238,70567,2,0,L|219:149,1,70,0|0,3:0|0:0,0:0:0:0:
247,66,70889,1,0,0:0:0:0:
322,143,71051,1,0,0:0:0:0:
355,41,71212,1,0,0:0:0:0:
217,168,71373,5,8,0:1:0:0:
139,93,71535,1,0,0:0:0:0:
121,191,71696,2,0,P|99:251|76:278,1,70,0|0,0:0|0:0,0:0:0:0:
192,345,72018,6,0,P|265:330|345:357,1,140,0|0,3:0|0:0,0:0:0:0:
424,384,72502,2,0,P|427:328|416:295,1,70,0|8,0:0|0:1,0:0:0:0:
373,228,72825,1,0,0:0:0:0:
257,307,72986,2,0,P|254:251|265:218,1,70,0|0,3:0|3:0,0:0:0:0:
302,120,73309,2,0,P|375:135|455:108,1,140
359,22,73954,5,8,0:1:0:0:
312,101,74115,1,0,0:0:0:0:
266,0,74276,1,0,0:0:0:0:
232,137,74438,1,0,0:0:0:0:
127,35,74599,2,0,P|84:5|-26:34,1,140,0|0,3:0|0:0,0:0:0:0:
50,144,75083,2,0,P|92:131|127:130,1,70,0|8,0:0|0:1,0:0:0:0:
222,160,75405,1,0,0:0:0:0:
109,229,75567,1,0,3:0:0:0:
216,266,75728,1,0,3:0:0:0:
98,366,75889,6,0,P|190:308|321:363,1,245,0|0,0:0|0:0,0:0:0:0:
327,373,76535,2,0,B|294:280|320:240|320:240|351:194|329:119,1,245,8|0,0:1|0:0,0:0:0:0:
324,109,77180,6,0,B|251:71|249:127|163:92,1,140,0|0,3:0|0:0,0:0:0:0:
84,104,77664,2,0,P|37:90|3:93,1,70,0|8,0:0|0:1,0:0:0:0:
218,197,77986,2,0,P|168:198|136:186,1,70,0|0,0:0|3:0,0:0:0:0:
31,188,78309,22,0,P|46:260|27:325,1,140,0|0,3:0|0:0,0:0:0:0:
128,281,78793,1,0,0:0:0:0:
109,376,78954,1,0,0:0:0:0:
210,235,79115,1,8,0:1:0:0:
245,330,79276,1,0,0:0:0:0:
312,226,79438,2,0,P|347:205|389:197,1,70,0|0,0:0|0:0,0:0:0:0:
512,239,79760,5,0,3:0:0:0:
423,286,79922,1,0,0:0:0:0:
510,337,80083,1,0,0:0:0:0:
352,358,80244,2,0,P|317:337|275:329,1,70,0|8,0:0|0:1,0:0:0:0:
312,226,80567,2,0,P|347:205|389:197,1,70,0|0,0:0|0:0,0:0:0:0:
509,104,80889,22,0,P|494:176|513:241,1,140,0|0,3:0|0:0,0:0:0:0:
415,118,81535,1,0,0:0:0:0:
367,266,81696,2,0,P|366:225|380:184,1,70,8|0,0:1|0:0,0:0:0:0:
276,360,82018,2,0,P|276:319|262:278,1,70,0|0,0:0|0:0,0:0:0:0:
191,204,82341,21,8,3:2:0:0:
173,352,82502,1,8,3:2:0:0:
49,185,82825,21,8,3:2:0:0:
67,333,82986,1,8,3:2:0:0:
280,134,83309,5,8,3:2:0:0:
132,116,83470,1,8,3:2:0:0:
370,21,83793,37,8,3:2:0:0:
222,39,83954,1,8,3:2:0:0:
443,230,84276,53,8,3:2:0:0:
461,82,84437,1,8,3:2:0:0:
330,299,84760,21,0,3:0:0:0:
312,151,84922,1,8,3:2:0:0:
256,355,85083,1,8,3:2:0:0:
24,254,85405,5,8,3:2:0:0:
234,232,85567,1,8,3:2:0:0:
140,100,85889,37,8,3:2:0:0:
93,384,86051,1,12,3:2:0:0:
