osu file format v14

[General]
AudioFilename: audio.mp3
AudioLeadIn: 0
PreviewTime: 46131
Countdown: 0
SampleSet: Soft
StackLeniency: 0.2
Mode: 0
LetterboxInBreaks: 0
WidescreenStoryboard: 1

[Editor]
Bookmarks: 2986,8147,12018,22341,32664,37825,42986,56534,65486,77180,82341,86051,88792
DistanceSpacing: 1.3
BeatDivisor: 4
GridSize: 4
TimelineZoom: 2.1

[Metadata]
Title:Ame ga Furu kara Niji ga Deru (TV Size)
TitleUnicode:雨が降るから虹が出る (TV Size)
Artist:Sky Peace
ArtistUnicode:スカイピース
Creator:Nevo
Version:Pika's Insane
Source:七つの大罪 戒めの復活
Tags:nanatsu no taizai imashime no fukkatsu seven deadly sins revival of the commandments pika [[pika]] xchorse chaoticred hypercyte ayanokorin nikakis yukiyo
BeatmapID:1705445
BeatmapSetID:811447

[Difficulty]
HPDrainRate:5.5
CircleSize:4
OverallDifficulty:8
ApproachRate:9
SliderMultiplier:1.6
SliderTickRate:1

[Events]
//Background and Video events
0,0,"thumb-1920-738207.png",0,0
Video,0,"OP.mp4"
//Break Periods
//Storyboard Layer 0 (Background)
//Storyboard Layer 1 (Fail)
//Storyboard Layer 2 (Pass)
//Storyboard Layer 3 (Foreground)
//Storyboard Sound Samples

[TimingPoints]
406,322.58064516129,4,2,1,60,1,0
406,-125,4,2,1,60,0,0
3067,-125,4,2,1,60,0,1
3147,-125,4,2,1,60,0,0
5647,-125,4,2,1,60,0,1
5728,-125,4,2,1,60,0,0
8228,-125,4,2,1,60,0,1
8309,-125,4,2,1,60,0,0
10728,-95.2380952380952,4,2,1,75,0,0
12018,-111.111111111111,4,2,1,40,0,0
22341,-83.3333333333333,4,2,1,75,0,1
22422,-83.3333333333333,4,2,1,75,0,0
22986,-62.5,4,2,1,75,0,0
23470,-76.9230769230769,4,2,1,75,0,0
24438,-83.3333333333333,4,2,1,75,0,0
25083,-80,4,2,1,75,0,0
25567,-74.0740740740741,4,2,1,75,0,0
26051,-74.0740740740741,4,2,1,75,0,0
27018,-86.9565217391304,4,2,1,75,0,0
27502,-95.2380952380952,4,2,1,75,0,0
32664,-95.2380952380952,4,2,1,75,0,1
32744,-95.2380952380952,4,2,1,75,0,0
37825,-90.9090909090909,4,2,1,75,0,0
44115,-125,4,2,1,75,0,0
44922,322.58064516129,4,2,1,50,1,0
45244,-100,4,2,1,60,0,0
45567,-100,4,2,1,70,0,0
45889,-100,4,2,1,80,0,0
46212,-86.9565217391304,4,2,1,90,0,1
66857,-90.9090909090909,4,2,1,55,0,0
82341,-90.9090909090909,4,2,1,70,0,0
88792,-90.9090909090909,4,2,1,5,0,0

[Colours]
Combo1 : 223,223,223
Combo2 : 66,190,242
Combo3 : 221,231,44
Combo4 : 141,3,193
Combo5 : 218,44,48

[HitObjects]
121,129,406,5,2,0:0:0:0:
111,326,567,1,2,0:0:0:0:
193,167,728,2,0,B|200:134|200:134|196:96,1,64,0|0,0:0|0:0,0:0:0:0:
45,154,1051,2,0,B|42:124|42:124|49:91,1,64,0|0,0:0|0:0,0:0:0:0:
126,31,1373,5,2,0:0:0:0:
116,228,1535,1,2,0:0:0:0:
292,139,1696,5,12,0:0:0:0:
118,123,1857,1,0,3:0:0:0:
126,131,2018,1,0,3:0:0:0:
299,43,2180,1,12,0:0:0:0:
289,239,2341,2,0,B|287:287|287:287|305:321|305:321|303:370,1,128,0|8,3:0|0:0,0:0:0:0:
291,35,2986,5,4,0:3:0:0:
256,192,3067,12,0,4922,0:0:0:0:
206,154,5244,6,0,L|201:102,3,32,2|2|2|2,0:0|0:0|0:0|0:0,0:0:0:0:
214,237,5567,5,4,0:3:0:0:
256,192,5647,12,0,7502,0:0:0:0:
285,181,7664,6,0,L|355:175,2,64,2|2|2,0:0|0:0|0:0,0:0:0:0:
215,241,8147,5,4,0:3:0:0:
256,192,8228,12,0,10083,0:0:0:0:
148,154,10405,5,2,0:0:0:0:
164,136,10486,1,2,0:0:0:0:
185,124,10567,1,2,0:0:0:0:
208,117,10647,1,2,0:0:0:0:
231,115,10728,5,8,3:1:0:0:
259,290,10889,2,0,B|242:330|242:330|226:287,1,83.9999974365235,8|0,3:1|0:0,0:0:0:0:
349,151,11212,5,8,3:1:0:0:
377,326,11373,2,0,B|360:366|360:366|344:323,1,83.9999974365235,8|0,3:1|0:0,0:0:0:0:
467,187,11696,5,8,3:1:0:0:
495,362,11857,1,8,3:1:0:0:
459,179,12018,6,0,L|470:17,2,143.999995605469,2|2|2,0:0|0:0|0:0,0:0:0:0:
376,57,12825,1,0,0:0:0:0:
384,65,12986,2,0,L|379:143,1,71.9999978027344,2|0,0:0|0:0,0:0:0:0:
305,94,13309,6,0,B|251:90|251:90|214:103|214:103|141:97,1,143.999995605469,2|0,0:0|0:0,0:0:0:0:
30,67,13793,1,0,0:0:0:0:
22,59,13954,2,0,L|103:54,1,71.9999978027344,2|0,0:0|0:0,0:0:0:0:
19,141,14276,2,0,L|100:136,1,71.9999978027344,2|0,0:0|0:0,0:0:0:0:
153,237,14599,6,0,B|124:217|124:217|7:223,2,143.999995605469,2|2|2,0:0|0:0|0:0,0:0:0:0:
169,332,15405,1,0,0:0:0:0:
99,367,15567,2,0,P|91:330|99:298,1,71.9999978027344,2|0,0:0|0:0,0:0:0:0:
234,222,15889,6,0,L|239:310,1,71.9999978027344,2|0,0:0|0:0,0:0:0:0:
244,371,16212,1,2,0:0:0:0:
312,327,16373,1,0,0:0:0:0:
390,369,16535,1,2,0:0:0:0:
390,369,16615,1,0,0:0:0:0:
390,369,16696,1,0,0:0:0:0:
381,284,16857,2,0,L|377:213,1,71.9999978027344,2|0,0:0|0:0,0:0:0:0:
436,157,17180,6,0,B|432:103|432:103|449:74|449:74|443:6,2,143.999995605469,2|2|2,0:0|0:0|0:0,0:0:0:0:
339,128,17986,1,0,0:0:0:0:
298,53,18147,2,0,L|385:51,1,71.9999978027344,2|0,0:0|0:0,0:0:0:0:
226,89,18470,6,0,P|218:52|234:5,1,71.9999978027344,2|0,0:0|0:0,0:0:0:0:
264,163,18793,2,0,P|272:198|264:233,1,71.9999978027344,2|0,0:0|0:0,0:0:0:0:
120,196,19115,2,0,L|207:198,1,71.9999978027344,2|0,0:0|0:0,0:0:0:0:
197,278,19438,2,0,L|110:276,1,71.9999978027344,2|0,0:0|0:0,0:0:0:0:
47,153,19760,5,0,3:2:0:0:
130,356,19922,2,0,B|196:357|196:357|205:363|205:363|213:357|213:357|278:358,1,143.999995605469,0|0,3:3|0:0,0:0:0:0:
427,259,20405,1,2,0:0:0:0:
410,237,20486,1,0,0:0:0:0:
386,225,20567,1,0,3:0:0:0:
360,223,20647,1,0,0:0:0:0:
335,233,20728,2,0,L|334:310,1,71.9999978027344,10|0,0:2|0:0,0:0:0:0:
469,179,21051,6,0,L|510:175,3,35.9999989013672,2|0|0|0,3:2|0:0|0:0|0:0,0:0:0:0:
477,187,21373,2,0,L|471:69,1,107.999996704102,2|0,0:0|0:0,0:0:0:0:
467,38,21696,5,2,0:0:0:0:
391,71,21857,1,2,0:0:0:0:
324,22,22018,2,0,P|283:13|243:18,1,71.9999978027344,2|0,0:0|0:0,0:0:0:0:
166,181,22341,5,0,3:0:0:0:
169,0,22502,2,0,B|163:39|178:63|178:63|160:88|160:88|180:132|167:181,1,191.999994140625,0|0,0:0|0:0,0:0:0:0:
16,164,22986,2,0,B|-7:135|-7:135|115:149,1,128,8|0,0:1|0:0,0:0:0:0:
234,277,23309,1,0,3:0:0:0:
117,292,23470,6,0,B|113:230|169:209|169:209|224:218|235:281,1,207.999990478516,0|0,3:0|0:0,0:0:0:0:
392,339,23954,1,0,0:0:0:0:
311,311,24115,1,0,3:0:0:0:
461,189,24276,1,8,0:1:0:0:
476,377,24438,2,0,B|478:306|478:306|459:267|459:267|462:185,1,191.999994140625,0|0,3:0|0:0,0:0:0:0:
477,90,24922,5,0,3:0:0:0:
296,154,25083,2,0,B|412:165|365:79|493:90,1,200,0|0,0:0|3:0,0:0:0:0:
275,0,25567,2,0,P|237:57|256:127,1,108.000000411987,8|0,0:1|0:0,0:0:0:0:
356,228,25889,1,0,3:0:0:0:
320,72,26051,6,0,B|334:122|312:160|312:160|289:198|294:244|344:261|368:212,1,216.000000823975,0|0,3:0|0:0,0:0:0:0:
133,229,26535,1,0,0:0:0:0:
218,228,26696,1,0,3:0:0:0:
89,302,26857,1,8,0:1:0:0:
262,303,27018,2,0,B|190:304|190:304|176:317|176:317|161:304|161:304|73:302,1,184.000003509522,0|0,0:0|0:0,0:0:0:0:
51,144,27502,6,0,L|49:233,1,83.9999974365235,0|0,3:0|0:0,0:0:0:0:
133,229,27825,2,0,L|134:145,1,83.9999974365235,0|0,0:0|3:0,0:0:0:0:
139,0,28147,1,8,0:1:0:0:
179,73,28308,1,0,0:0:0:0:
96,72,28470,1,0,3:0:0:0:
256,33,28631,6,0,B|263:76|263:76|256:115,1,83.9999974365235,0|0,3:0|0:0,0:0:0:0:
422,74,28954,2,0,B|379:81|379:81|340:74,1,83.9999974365235,0|0,0:0|0:0,0:0:0:0:
381,240,29276,2,0,B|374:197|374:197|381:158,1,83.9999974365235,0|8,3:0|0:1,0:0:0:0:
215,199,29599,2,0,B|258:192|258:192|297:199,1,83.9999974365235,0|0,0:0|0:0,0:0:0:0:
258,280,29922,1,0,3:0:0:0:
91,274,30083,6,0,L|174:276,1,83.9999974365235,0|0,3:0|0:0,0:0:0:0:
300,356,30405,1,0,0:0:0:0:
216,353,30567,1,0,3:0:0:0:
417,278,30728,1,8,0:1:0:0:
425,286,30889,2,0,L|342:284,1,83.9999974365235,0|0,0:0|3:0,0:0:0:0:
384,211,31212,1,0,3:0:0:0:
465,360,31373,5,0,0:0:0:0:
508,288,31535,1,0,3:0:0:0:
381,357,31696,1,8,0:1:0:0:
468,214,31857,1,0,0:0:0:0:
468,214,31938,1,0,0:0:0:0:
468,214,32018,2,0,B|474:153|474:153|463:118|463:118|468:47,1,167.999994873047,0|0,3:0|0:0,0:0:0:0:
44,48,32664,6,0,L|50:135,1,83.9999974365235,0|0,3:0|0:0,0:0:0:0:
54,214,32986,1,0,0:0:0:0:
119,84,33147,1,0,3:0:0:0:
269,160,33309,1,8,0:1:0:0:
124,167,33470,1,0,0:0:0:0:
187,35,33631,2,0,L|193:119,1,83.9999974365235,0|0,3:0|3:0,0:0:0:0:
203,284,33954,5,0,0:0:0:0:
193,118,34115,1,0,0:0:0:0:
129,250,34276,1,0,0:0:0:0:
263,76,34438,1,0,3:0:0:0:
346,279,34599,1,8,0:1:0:0:
346,279,34922,5,0,0:0:0:0:
340,195,35083,1,0,3:0:0:0:
351,362,35244,1,0,3:0:0:0:
488,273,35406,1,0,0:0:0:0:
275,325,35567,1,0,0:0:0:0:
494,357,35728,1,0,3:0:0:0:
412,152,35889,1,8,0:1:0:0:
412,152,36212,5,0,3:0:0:0:
417,235,36373,1,0,3:0:0:0:
336,115,36535,1,0,0:0:0:0:
487,188,36696,1,0,0:0:0:0:
264,158,36857,1,0,0:0:0:0:
481,104,37018,1,0,3:0:0:0:
419,318,37180,1,8,0:1:0:0:
93,66,37825,6,0,B|81:100|81:100|91:220,1,132.00000402832,0|0,3:0|3:0,0:0:0:0:
96,203,38147,2,0,L|105:303,1,88.000002685547,0|8,0:0|0:1,0:0:0:0:
175,239,38470,5,0,0:0:0:0:
17,249,38631,1,0,3:0:0:0:
165,156,38793,5,8,0:1:0:0:
25,257,38954,1,0,3:0:0:0:
189,334,39115,6,0,B|244:332|244:332|268:342|268:342|349:337,1,132.00000402832,0|0,3:0|3:0,0:0:0:0:
326,330,39438,2,0,L|423:323,1,88.000002685547,0|8,0:1|0:1,0:0:0:0:
480,211,39760,5,0,0:0:0:0:
494,363,39921,1,0,3:0:0:0:
397,218,40083,5,8,0:1:0:0:
486,371,40244,1,0,3:0:0:0:
499,192,40405,5,8,3:2:0:0:
288,257,40567,1,8,3:2:0:0:
280,249,40889,5,8,3:2:0:0:
493,287,41051,1,8,3:2:0:0:
501,279,41373,5,8,3:2:0:0:
248,165,41535,1,8,3:2:0:0:
240,157,41857,5,8,3:2:0:0:
497,55,42018,1,8,3:2:0:0:
505,47,42341,5,8,3:2:0:0:
414,259,42502,1,8,3:2:0:0:
278,69,42664,1,8,3:2:0:0:
270,61,42986,5,8,3:2:0:0:
499,163,43147,1,8,3:2:0:0:
507,155,43470,5,8,3:2:0:0:
264,262,43631,1,8,3:2:0:0:
256,270,43954,5,8,3:2:0:0:
331,2,44115,2,0,B|373:55|341:111|341:111|357:140|357:140|322:191|345:253,1,256,8|0,3:2|0:0,0:0:0:0:
495,288,44922,5,8,0:1:0:0:
470,284,45002,1,8,0:1:0:0:
445,285,45083,1,8,0:1:0:0:
421,293,45163,1,8,0:1:0:0:
401,308,45244,1,8,0:1:0:0:
380,321,45325,1,8,0:1:0:0:
356,327,45405,1,8,0:1:0:0:
331,328,45486,1,8,0:1:0:0:
306,325,45567,6,0,L|313:382,3,40,8|8|8|8,3:3|3:3|3:3|3:3,0:0:0:0:
256,254,45889,1,8,3:3:0:0:
216,255,45969,1,8,3:3:0:0:
176,257,46050,1,8,3:3:0:0:
136,259,46130,1,8,3:0:0:0:
96,261,46212,6,0,B|103:310|103:310|96:352,1,92.0000017547608,4|0,3:3|0:0,0:0:0:0:
21,305,46534,1,8,0:0:0:0:
154,178,46696,2,0,L|257:173,1,92.0000017547608,0|0,0:0|3:0,0:0:0:0:
92,110,47018,2,0,L|-11:115,1,92.0000017547608,0|8,0:0|0:0,0:0:0:0:
140,30,47341,2,0,B|248:16|207:90|323:72,1,184.000003509522,0|0,0:0|0:0,0:0:0:0:
504,62,47825,5,8,0:0:0:0:
311,73,47986,1,0,0:0:0:0:
479,181,48147,5,0,3:0:0:0:
412,8,48309,1,0,0:0:0:0:
362,182,48470,5,0,3:0:0:0:
404,0,48631,1,8,0:0:0:0:
495,197,48792,6,0,B|503:247|503:247|494:290,1,92.0000017547608,0|0,3:0|0:0,0:0:0:0:
418,243,49115,1,8,0:0:0:0:
492,379,49276,2,0,L|494:278,1,92.0000017547608,0|0,0:0|3:0,0:0:0:0:
346,198,49599,2,0,L|344:289,1,92.0000017547608,0|8,0:0|0:0,0:0:0:0:
236,355,49921,2,0,B|136:376|163:298|61:318,1,184.000003509522,0|0,0:0|0:0,0:0:0:0:
191,104,50405,5,8,0:0:0:0:
207,277,50567,1,0,0:0:0:0:
235,16,50728,5,0,3:0:0:0:
146,198,50889,1,0,0:0:0:0:
139,19,51051,5,0,3:0:0:0:
253,186,51212,1,8,0:0:0:0:
463,104,51373,6,0,B|387:110|387:110|355:91|355:91|266:97,1,184.000003509522,4|8,3:2|0:0,0:0:0:0:
154,190,51857,2,0,P|101:186|43:180,1,92.0000017547608,0|0,0:0|3:0,0:0:0:0:
296,263,52180,1,0,0:0:0:0:
304,271,52341,2,0,P|349:266|395:263,1,92.0000017547608,8|0,0:0|0:0,0:0:0:0:
214,362,52663,6,0,B|202:317|202:317|209:259,1,92.0000017547608,0|0,3:0|0:0,0:0:0:0:
278,185,52986,2,0,B|290:140|290:140|283:82,1,92.0000017547608,8|0,0:0|0:0,0:0:0:0:
206,370,53309,6,0,B|194:325|194:325|201:267,1,92.0000017547608,0|0,3:0|0:0,0:0:0:0:
286,177,53632,2,0,B|298:132|298:132|291:74,1,92.0000017547608,8|0,0:0|0:0,0:0:0:0:
33,44,53954,6,0,B|78:63|78:63|232:40,1,184.000003509522,0|8,3:0|0:0,0:0:0:0:
384,1,54438,2,0,L|281:-1,1,92.0000017547608,0|0,0:0|3:0,0:0:0:0:
373,134,54760,1,0,0:0:0:0:
381,142,54921,2,0,L|484:140,1,92.0000017547608,8|0,0:0|0:0,0:0:0:0:
505,8,55244,5,8,3:2:0:0:
437,350,55567,1,8,3:2:0:0:
221,29,55889,5,8,3:2:0:0:
147,357,56212,1,8,3:2:0:0:
23,151,56534,6,0,B|69:142|69:142|120:152,1,92.0000017547608,4|0,3:3|0:0,0:0:0:0:
70,226,56857,1,8,0:0:0:0:
187,105,57018,2,0,L|188:213,1,92.0000017547608,0|0,0:0|3:0,0:0:0:0:
70,317,57341,2,0,L|69:225,1,92.0000017547608,0|8,0:0|0:0,0:0:0:0:
323,226,57663,6,0,B|228:206|266:297|154:271,1,184.000003509522,0|0,0:0|0:0,0:0:0:0:
398,270,58147,2,0,P|407:233|389:170,1,92.0000017547608,8|0,0:0|0:0,0:0:0:0:
342,64,58470,2,0,B|382:56|382:56|442:86|442:86|476:82,2,122.666669006348,10|10|10,3:2|3:2|3:2,0:0:0:0:
175,16,59115,6,0,B|222:7|222:7|270:17,1,92.0000017547608,4|0,3:3|0:0,0:0:0:0:
223,90,59438,1,8,0:0:0:0:
48,92,59599,2,0,L|146:91,1,92.0000017547608,0|0,0:0|0:0,0:0:0:0:
274,169,59921,2,0,L|176:168,1,92.0000017547608,0|8,0:0|0:0,0:0:0:0:
50,283,60244,6,0,B|88:253|88:253|224:249,1,184.000003509522,0|0,0:0|0:0,0:0:0:0:
310,384,60728,2,0,B|298:339|298:339|307:292,1,92.0000017547608,8|0,0:0|0:0,0:0:0:0:
382,131,61051,5,0,3:0:0:0:
383,335,61212,1,0,0:0:0:0:
374,123,61373,5,8,0:0:0:0:
391,343,61534,1,0,0:0:0:0:
462,116,61696,6,0,P|414:42|310:63,1,184.000003509522,4|8,3:3|0:0,0:0:0:0:
152,13,62180,2,0,L|251:8,1,92.0000017547608,0|0,0:0|3:0,0:0:0:0:
91,161,62502,2,0,L|-8:156,1,92.0000017547608,0|8,0:0|0:0,0:0:0:0:
159,98,62825,6,0,L|258:93,1,92.0000017547608,0|0,0:0|3:0,0:0:0:0:
98,246,63147,2,0,L|-1:241,1,92.0000017547608,0|8,0:0|0:0,0:0:0:0:
72,71,63470,5,0,0:0:0:0:
118,336,63631,1,0,3:0:0:0:
351,193,63792,2,0,B|390:162|390:162|253:175,1,184.000003509522,0|0,3:0|0:0,0:0:0:0:
226,180,64276,5,8,3:2:0:0:
441,91,64438,1,8,3:2:0:0:
448,84,64760,5,8,3:2:0:0:
417,326,64921,1,8,3:2:0:0:
425,334,65244,5,8,3:2:0:0:
394,27,65405,1,8,3:2:0:0:
400,21,65728,5,8,3:2:0:0:
150,201,65889,1,8,3:2:0:0:
142,209,66212,6,0,L|44:203,1,92.0000017547608,0|8,3:0|0:0,0:0:0:0:
370,253,66534,2,0,L|468:247,1,92.0000017547608,0|0,3:0|0:0,0:0:0:0:
192,49,66857,6,0,B|184:93|184:93|194:142,1,88.000002685547,4|0,3:2|0:0,0:0:0:0:
350,101,67180,1,0,0:0:0:0:
358,93,67341,2,0,L|269:95,1,88.000002685547,0|8,0:0|0:1,0:0:0:0:
142,209,67663,2,0,L|231:211,1,88.000002685547,0|0,0:0|3:0,0:0:0:0:
406,172,67986,6,0,B|360:166|360:166|317:174,1,88.000002685547,0|0,3:0|0:0,0:0:0:0:
190,286,68309,2,0,B|236:292|236:292|279:284,1,88.000002685547,0|0,0:0|0:0,0:0:0:0:
366,270,68631,1,0,0:0:0:0:
229,210,68792,1,8,0:1:0:0:
240,367,68954,1,0,0:0:0:0:
248,375,69115,2,0,L|337:377,1,88.000002685547,0|0,0:0|0:0,0:0:0:0:
182,294,69438,6,0,B|136:288|136:288|93:296,1,88.000002685547,0|0,3:0|0:0,0:0:0:0:
4,347,69760,1,0,0:0:0:0:
12,355,69921,2,0,L|6:264,1,88.000002685547,0|8,0:0|0:1,0:0:0:0:
89,207,70244,2,0,L|94:294,1,88.000002685547,0|0,0:0|3:0,0:0:0:0:
40,140,70567,6,0,P|86:124|127:133,1,88.000002685547,0|0,3:0|0:0,0:0:0:0:
158,55,70889,2,0,P|194:86|207:126,1,88.000002685547,0|0,0:0|0:0,0:0:0:0:
211,210,71212,1,0,0:0:0:0:
357,113,71373,1,8,0:1:0:0:
206,123,71534,1,0,0:0:0:0:
288,249,71696,2,0,L|283:162,1,88.000002685547,0|0,0:0|0:0,0:0:0:0:
374,28,72018,6,0,B|353:63|353:63|362:210,1,176.000005371094,0|0,3:0|0:0,0:0:0:0:
438,238,72502,2,0,L|433:151,1,88.000002685547,0|8,0:0|0:1,0:0:0:0:
392,307,72825,1,0,0:0:0:0:
400,315,72986,2,0,P|451:323|489:308,1,88.000002685547,0|0,3:0|3:0,0:0:0:0:
330,363,73309,6,0,B|278:340|238:360|248:368|202:391|147:361,1,176.000005371094,0|0,0:0|0:0,0:0:0:0:
158,369,73954,2,0,P|167:315|195:287,1,88.000002685547,8|0,0:1|0:0,0:0:0:0:
139,228,74276,2,0,P|190:208|228:219,1,88.000002685547,0|0,0:0|0:0,0:0:0:0:
82,291,74599,6,0,B|55:251|55:251|42:121,1,176.000005371094,0|0,3:0|0:0,0:0:0:0:
42,36,75083,2,0,B|36:80|36:80|42:126,1,88.000002685547,0|8,0:0|0:1,0:0:0:0:
197,90,75405,1,0,0:0:0:0:
205,82,75567,2,0,L|105:83,1,88.000002685547,0|0,3:0|3:0,0:0:0:0:
254,157,75889,6,0,P|291:101|231:3,1,176.000005371094,0|0,0:0|0:0,0:0:0:0:
205,222,76373,1,0,0:0:0:0:
213,230,76534,2,0,B|259:252|305:232|297:223|341:198|396:232,1,176.000005371094,8|0,0:1|0:0,0:0:0:0:
94,351,77180,6,0,B|105:307|105:307|94:263,1,88.000002685547,0|0,3:0|0:0,0:0:0:0:
57,182,77503,1,0,0:0:0:0:
49,190,77664,2,0,L|140:189,1,88.000002685547,0|8,0:0|0:1,0:0:0:0:
177,112,77986,2,0,L|89:112,1,88.000002685547,0|0,0:0|3:0,0:0:0:0:
254,157,78309,6,0,B|262:114|262:114|253:69,1,88.000002685547,0|0,3:0|0:0,0:0:0:0:
176,24,78631,1,0,0:0:0:0:
339,110,78792,1,0,0:0:0:0:
177,112,78954,1,0,0:0:0:0:
414,65,79115,1,8,0:1:0:0:
253,70,79276,1,0,0:0:0:0:
339,197,79438,2,0,L|338:109,1,88.000002685547,0|0,0:0|0:0,0:0:0:0:
256,241,79760,5,0,3:0:0:0:
414,152,79921,1,0,0:0:0:0:
256,154,80083,1,0,0:0:0:0:
339,283,80244,2,0,B|346:241|346:241|338:195,1,88.000002685547,0|8,0:0|0:1,0:0:0:0:
175,199,80567,2,0,B|168:241|168:241|176:287,1,88.000002685547,0|0,0:0|0:0,0:0:0:0:
385,360,80889,6,0,L|284:359,1,88.000002685547,0|0,3:0|0:0,0:0:0:0:
87,284,81211,2,0,L|188:285,1,88.000002685547,0|0,0:0|0:0,0:0:0:0:
136,368,81534,1,0,0:0:0:0:
37,209,81696,2,0,B|29:145|29:145|42:108|42:108|34:26,1,176.000005371094,8|0,0:1|0:0,0:0:0:0:
34,36,82341,5,8,3:2:0:0:
249,168,82502,1,8,3:2:0:0:
257,160,82825,5,8,3:2:0:0:
8,283,82986,1,8,3:2:0:0:
0,291,83309,5,8,3:2:0:0:
303,240,83470,1,8,3:2:0:0:
311,248,83792,5,8,3:2:0:0:
129,8,83954,1,8,3:2:0:0:
121,0,84276,5,8,3:2:0:0:
158,328,84438,1,8,3:2:0:0:
150,336,84921,5,8,3:2:0:0:
238,75,85083,1,8,3:2:0:0:
246,67,85405,5,8,3:2:0:0:
13,190,85567,1,8,3:2:0:0:
5,182,85889,5,8,3:2:0:0:
361,180,86051,1,12,3:2:0:0:
256,192,86131,12,0,88792,0:0:0:0:
