osu file format v14

[General]
AudioFilename: audio.mp3
AudioLeadIn: 0
PreviewTime: 55713
Countdown: 0
SampleSet: Soft
StackLeniency: 0
Mode: 0
LetterboxInBreaks: 0
WidescreenStoryboard: 1

[Editor]
Bookmarks: 28590,39753,50916,56497,65480,67660,78823,81614,101149,109172,109521,111963,114753,118939,140218,156963
DistanceSpacing: 1
BeatDivisor: 4
GridSize: 32
TimelineZoom: 2.2

[Metadata]
Title:Supersonic (My Existence)
TitleUnicode:Supersonic (My Existence)
Artist:Skrillex, Noisia, josh pan & Dylan Brady
ArtistUnicode:Skrillex, Noisia, josh pan & Dylan Brady
Creator:Celektus
Version:Normal
Source:
Tags:EDM electronic english male vocals bass music wonky beat dnb downtempo OWSLA
BeatmapID:3250658
BeatmapSetID:1577126

[Difficulty]
HPDrainRate:3
CircleSize:4
OverallDifficulty:3
ApproachRate:4
SliderMultiplier:1
SliderTickRate:1

[Events]
//Background and Video events
0,0,"subsucc.png",0,0
//Break Periods
2,101497,107995
//Storyboard Layer 0 (Background)
//Storyboard Layer 1 (Fail)
//Storyboard Layer 2 (Pass)
//Storyboard Layer 3 (Foreground)
//Storyboard Layer 4 (Overlay)
//Storyboard Sound Samples

[TimingPoints]
478,348.837209302326,4,2,1,15,1,0
478,-100,4,2,1,15,0,0
28384,-100,4,2,1,20,0,0
39547,-100,4,2,2,20,0,0
55594,-100,4,2,2,30,0,0
56291,-100,4,2,2,80,0,1
61175,-100,4,2,2,80,0,0
61873,-100,4,2,2,80,0,1
66757,-100,4,2,2,80,0,0
67454,-100,4,2,2,80,0,1
72338,-100,4,2,2,80,0,0
73036,-100,4,2,2,80,0,1
78617,-100,4,2,2,60,0,0
81408,-100,4,2,2,80,0,0
99547,-100,4,2,2,50,0,0
100943,-100,4,2,2,50,0,0
116989,-100,4,2,2,30,0,0
118384,-100,4,2,2,80,0,0
118733,-100,4,2,2,80,0,1
122571,-100,4,2,2,80,0,0
123268,-100,4,2,2,80,0,1
128152,-100,4,2,2,80,0,0
128850,-100,4,2,2,80,0,1
133733,-100,4,2,2,80,0,0
134431,-100,4,2,2,80,0,1
140012,-100,4,2,2,30,0,0
142454,-100,4,2,2,60,0,0
143152,-100,4,2,2,30,0,0
143370,-100,4,2,2,20,0,0
144198,-100,4,2,2,30,0,0
144286,-100,4,2,2,40,0,0
144373,-100,4,2,2,50,0,0
144896,-100,4,2,2,20,0,0
145245,-100,4,2,2,10,0,0
145594,-100,4,2,2,20,0,0
146408,-100,4,2,2,20,0,0
146640,-100,4,2,2,20,0,0
146989,-100,4,2,2,20,0,0
148733,-100,4,2,2,30,0,0
149082,-100,4,2,2,40,0,0
150129,-100,4,2,2,40,0,0
151175,-100,4,2,2,30,0,0
151524,-100,4,2,2,15,0,0
152222,-100,4,2,2,30,0,0
152309,-100,4,2,2,20,0,0
154315,-100,4,2,2,10,0,0
154489,-100,4,2,2,15,0,0
154664,-100,4,2,2,20,0,0
154838,-100,4,2,2,25,0,0
155012,-100,4,2,2,30,0,0
155187,-100,4,2,2,35,0,0
155361,-100,4,2,2,40,0,0
155536,-100,4,2,2,45,0,0
155710,-100,4,2,2,20,0,0
157105,-100,4,2,1,15,0,0

[Colours]
Combo1 : 140,123,132
Combo2 : 85,84,89
Combo3 : 149,148,154
Combo4 : 99,86,94

[HitObjects]
256,4,478,5,2,0:2:0:0:
456,349,1873,1,2,0:2:0:0:
55,349,3268,1,2,0:2:0:0:
55,345,5361,5,2,0:2:0:0:
15,253,5710,1,2,0:2:0:0:
0,154,6059,2,0,P|12:105|32:59,1,100,2|2,0:2|0:2,0:0:0:0:
479,88,8152,6,0,P|492:124|501:160,1,75,2|2,0:2|0:2,0:0:0:0:
494,266,8762,1,2,0:2:0:0:
446,365,9111,1,2,0:2:0:0:
81,4,10943,5,2,0:2:0:0:
130,90,11291,1,2,0:2:0:0:
128,96,11466,2,0,P|138:144|155:192,1,100,2|2,0:2|0:2,0:0:0:0:
357,196,13733,6,0,P|373:243|384:292,1,100,2|2,0:2|0:2,0:0:0:0:
382,298,14256,1,2,0:2:0:0:
431,384,14604,1,2,0:2:0:0:
81,384,16524,5,2,0:2:0:0:
130,298,16872,1,2,0:2:0:0:
128,291,17047,2,0,P|138:243|155:195,1,100,2|2,0:2|0:2,0:0:0:0:
357,192,19315,6,0,P|373:145|384:96,1,100,2|2,0:2|0:2,0:0:0:0:
382,90,19837,1,2,0:2:0:0:
431,4,20187,1,2,0:2:0:0:
0,192,22105,5,2,0:2:0:0:
100,192,22454,1,2,0:2:0:0:
100,198,22629,1,2,0:2:0:0:
199,191,22978,1,2,0:2:0:0:
313,191,24896,5,2,0:2:0:0:
412,192,25245,1,2,0:2:0:0:
412,198,25420,1,2,0:2:0:0:
512,192,25769,1,2,0:2:0:0:
256,192,25855,12,2,27512,0:0:0:0:
331,384,28384,6,0,L|231:375,1,100,2|2,0:2|0:2,0:0:0:0:
131,366,29082,1,2,0:2:0:0:
138,266,29431,2,0,L|73:189,1,100,2|0,0:2|1:2,0:0:0:0:
9,111,30129,1,2,0:2:0:0:
0,11,30478,1,2,0:2:0:0:
199,7,31175,6,0,L|189:105,1,100,2|2,0:2|0:2,0:0:0:0:
196,206,31873,1,2,0:2:0:0:
259,283,32222,1,2,0:2:0:0:
448,382,32919,1,2,0:2:0:0:
511,304,33268,2,0,P|465:291|447:246,1,100,2|2,0:2|0:2,0:0:0:0:
456,146,33966,6,0,L|392:69,1,100,2|2,0:2|0:2,0:0:0:0:
319,0,34664,1,2,0:2:0:0:
219,7,35012,2,0,L|209:106,2,100,2|2|0,0:2|1:2|0:0,0:0:0:0:
119,15,36059,6,0,P|88:109|71:208,1,200,2|0,0:2|1:0,0:0:0:0:
140,280,37105,1,2,0:2:0:0:
256,192,37193,12,2,38850,0:2:0:0:
122,135,39547,6,0,P|103:181|77:224,1,100,2|2,0:2|0:2,0:0:0:0:
0,285,40245,1,2,0:2:0:0:
12,384,40594,2,0,P|61:377|111:377,1,100,2|0,0:2|1:0,0:0:0:0:
158,288,41291,1,2,0:2:0:0:
248,333,41640,1,2,0:2:0:0:
416,384,42338,6,0,P|415:334|422:284,1,100,2|2,0:2|0:2,0:0:0:0:
512,238,43035,1,2,0:2:0:0:
467,148,43384,1,2,0:2:0:0:
273,96,44082,1,2,0:2:0:0:
228,6,44431,1,2,0:2:0:0:
27,8,45129,5,2,0:2:0:0:
0,104,45478,1,2,0:2:0:0:
27,197,45826,1,2,0:2:0:0:
0,293,46175,2,0,P|30:332|55:375,1,100,2|0,0:2|1:2,0:0:0:0:
154,384,46873,5,2,0:2:0:0:
254,383,47222,2,0,B|345:340|345:340|443:349,1,200,2|0,0:2|1:0,0:0:0:0:
429,250,48268,2,0,B|331:241|331:241|237:280|237:280|138:266|138:266|116:169|116:169|203:118|203:118|251:162,1,550,2|2,0:2|0:2,0:0:0:0:
256,192,50710,12,4,55594,0:2:0:0:
374,57,56291,6,0,P|447:3|510:70,1,200,2|8,3:2|0:2,0:0:0:0:
475,164,57338,2,0,P|382:170|471:277,1,300,2|8,3:2|0:2,0:0:0:0:
510,370,58733,2,0,P|413:384|320:348,1,200,2|0,0:2|3:0,0:0:0:0:
243,282,59780,1,8,0:2:0:0:
107,383,60478,2,0,P|83:352|58:325,1,75,0|0,3:0|3:0,0:0:0:0:
56,330,60914,2,0,P|32:299|7:272,1,75,0|10,3:0|0:2,0:0:0:0:
0,67,61873,6,0,P|85:99|63:188,1,200,2|8,3:2|0:2,0:0:0:0:
125,266,62919,2,0,P|193:137|135:5,1,300,0|8,3:0|0:2,0:0:0:0:
262,3,64315,2,0,P|296:89|286:199,1,200,2|0,0:2|3:0,0:0:0:0:
241,280,65361,2,0,P|356:373|503:372,1,300,10|0,0:2|3:0,0:0:0:0:
511,272,66757,1,12,0:2:0:0:
511,72,67454,5,2,3:2:0:0:
440,0,67803,2,0,P|413:41|398:89,1,100,2|8,0:2|0:2,0:0:0:0:
303,58,68501,2,0,P|220:176|75:186,1,300,2|8,3:2|0:2,0:0:0:0:
0,252,69896,2,0,P|67:323|163:345,1,200,2|0,0:2|3:0,0:0:0:0:
241,278,70943,2,0,P|349:216|466:173,1,250,10|0,0:2|3:0,0:0:0:0:
468,180,71989,1,0,3:0:0:0:
511,272,72338,1,10,0:2:0:0:
341,383,73036,6,0,P|242:381|147:351,1,200,2|8,3:2|0:2,0:0:0:0:
51,383,74082,2,0,P|4:326|0:252,1,150,2|8,3:2|0:2,0:0:0:0:
74,185,74954,1,0,3:0:0:0:
72,179,75129,1,8,0:2:0:0:
58,88,75478,2,0,P|151:102|175:193,1,200,2|0,0:2|3:0,0:0:0:0:
240,278,76524,2,0,P|262:264|283:251,2,50,10|2|2,0:2|0:2|0:2,0:0:0:0:
254,382,77222,6,0,P|234:379|215:375,2,40,8|8|0,0:3|0:3|3:0,0:0:0:0:
291,367,77640,2,0,L|370:373,1,80,8|8,3:3|0:2,0:0:0:0:
350,175,78617,5,0,3:0:0:0:
58,88,79664,1,0,3:0:0:0:
346,6,80710,1,10,0:2:0:0:
506,125,81408,6,0,B|478:167|478:167|494:214|494:214|466:255|466:255|487:303,2,200,0|8|0,3:0|0:2|0:0,0:0:0:0:
509,119,82978,1,8,0:2:0:0:
512,114,83152,1,0,3:2:0:0:
418,77,83501,1,10,1:2:0:0:
367,270,84198,6,0,B|316:266|316:266|283:304|283:304|234:300|234:300|204:340,1,200,0|8,3:0|0:2,0:0:0:0:
113,382,85245,2,0,B|64:366|64:366|47:320|47:320|0:306,2,150,0|8|8,3:0|0:2|0:2,0:0:0:0:
131,283,86640,2,0,B|112:235|112:235|64:222|64:222|47:175|47:175|-1:165,1,200,2|0,0:2|3:2,0:0:0:0:
0,65,87687,2,0,B|38:35|38:35|86:46|86:46|130:17|130:17|178:30|178:30|217:3|217:3|267:14,1,300,10|0,0:2|3:2,0:0:0:0:
319,100,89082,1,12,0:2:0:0:
512,44,89780,6,0,B|498:93|498:93|451:111|451:111|438:158|438:158|390:173,1,200,2|8,3:2|0:2,0:0:0:0:
292,199,90826,2,0,B|243:183|243:183|226:137|226:137|179:123,2,150,0|8|8,3:0|0:2|0:2,0:0:0:0:
364,271,92222,2,0,B|333:312|333:312|285:308|285:308|254:351|254:351|207:347,1,200,2|0,0:2|3:2,0:0:0:0:
113,382,93268,1,8,0:2:0:0:
88,183,93966,6,0,L|13:189,1,75,0|0,3:0|3:0,0:0:0:0:
13,183,94402,2,0,L|6:108,1,75,0|10,3:0|0:2,0:0:0:0:
176,4,95361,6,0,B|161:53|161:53|193:89|193:89|178:139|178:139|209:175,1,200,2|8,3:2|0:2,0:0:0:0:
292,198,96408,2,0,B|329:163|329:163|378:170|378:170|413:136,1,150,0|8,3:0|0:2,0:0:0:0:
377,42,97280,1,0,3:0:0:0:
379,36,97454,1,8,0:2:0:0:
472,1,97803,2,0,P|510:92|512:192,1,200,2|0,0:2|0:0,0:0:0:0:
465,281,98850,1,10,0:2:0:0:
281,299,99547,6,0,L|276:249,1,50,10|0,0:2|0:2,0:0:0:0:
228,254,99896,2,0,L|178:257,1,50,8|8,0:2|0:2,0:0:0:0:
183,308,100245,2,0,L|187:357,1,50,10|0,0:2|0:2,0:0:0:0:
139,362,100594,2,0,L|75:367,1,50,8|8,0:2|0:2,0:0:0:0:
41,382,100943,1,0,3:2:0:0:
256,192,109315,12,0,111059,0:0:0:0:
256,192,111757,12,4,116989,0:0:0:0:
236,108,118384,5,8,0:2:0:0:
271,15,118733,2,0,B|174:7|174:7|154:22|154:22|76:15,1,200,2|2,3:2|0:2,0:0:0:0:
8,88,119780,2,0,B|2:154|2:154|26:178|26:178|24:203|24:203,1,125,10|2,0:2|0:2,0:0:0:0:
17,278,120478,2,0,B|84:284|84:284|111:264|111:264|136:266|136:266|174:236|174:236|203:238,2,200,2|10|2,3:2|0:2|3:2,0:0:0:0:
11,353,122134,1,0,3:0:0:0:
12,359,122309,2,0,L|108:367,1,75,0|10,3:0|0:2,0:0:0:0:
303,380,123268,6,0,L|285:180,1,200,2|8,3:2|0:2,0:0:0:0:
331,83,124315,2,0,B|387:111|387:111|407:171|407:171|460:200|460:200|480:260|480:260|457:307,1,300,2|8,0:2|0:2,0:0:0:0:
396,384,125710,1,2,0:2:0:0:
303,208,126408,6,0,B|281:242|281:242|247:237|247:237|225:267|225:267|187:267|187:267|165:298|165:298|128:295|128:295|109:327|109:327|71:322|71:322|52:354|52:354|14:349|14:349|-5:336,1,400,2|2,3:2|3:2,0:0:0:0:
18,238,128152,1,12,0:2:0:0:
2,38,128850,6,0,L|51:32,1,50,2|2,3:2|0:2,0:0:0:0:
100,26,129198,2,0,L|149:20,1,50,2|2,0:2|0:2,0:0:0:0:
198,14,129547,1,10,0:2:0:0:
213,112,129896,6,0,L|262:108,1,50,2|2,3:2|0:2,0:0:0:0:
312,104,130244,2,0,L|361:100,1,50,2|2,0:2|0:2,0:0:0:0:
412,96,130594,2,0,L|461:92,1,50,2|2,0:2|0:2,0:0:0:0:
511,88,130943,1,10,0:2:0:0:
511,187,131291,6,0,L|461:192,1,50,2|2,0:2|0:2,0:0:0:0:
411,196,131640,2,0,L|361:200,1,50,2|2,0:2|0:2,0:0:0:0:
311,207,131988,1,2,3:2:0:0:
302,306,132338,6,0,L|253:310,1,50,10|2,0:2|0:2,0:0:0:0:
202,313,132686,2,0,L|153:317,1,50,2|2,0:2|0:2,0:0:0:0:
101,322,133036,2,0,L|52:326,1,50,2|2,0:2|3:2,0:0:0:0:
50,332,133384,1,0,3:0:0:0:
18,238,133733,1,10,0:2:0:0:
145,83,134431,6,0,L|344:100,1,200,2|10,3:2|0:2,0:0:0:0:
443,108,135478,2,0,B|447:156|447:156|404:209|404:209|407:242|407:242|384:265|384:265|390:332|390:332|354:373,1,300,2|10,3:2|0:2,0:0:0:0:
257,359,136873,2,0,B|252:293|252:293|201:248|201:248|196:182,1,200,2|2,0:2|3:2,0:0:0:0:
96,172,137919,2,0,B|45:130|45:130|42:96|42:96,1,100,10|2,0:2|0:2,0:0:0:0:
132,51,138617,6,0,L|135:11,2,40,8|8|0,0:3|0:3|3:0,0:0:0:0:
155,83,139036,2,0,L|233:75,1,80,8|8,3:3|0:2,0:0:0:0:
413,0,140012,5,4,3:2:0:0:
65,356,142454,6,0,L|15:351,2,50,4|4|0,0:3|0:3|3:0,0:0:0:0:
74,256,143152,1,2,0:3:0:0:
315,2,144373,1,8,0:2:0:0:
317,8,144547,1,0,3:2:0:0:
16,0,145594,5,2,3:2:0:0:
183,248,146640,1,2,3:2:0:0:
509,16,148036,2,0,L|491:216,1,200,2|0,0:2|3:0,0:0:0:0:
511,313,149082,2,0,B|468:340|468:340|422:322|422:322|380:348|380:348|335:324|335:324|292:349|292:349|245:327,1,300,2|0,0:2|3:0,0:0:0:0:
183,248,150478,1,0,1:0:0:0:
15,351,151175,5,2,3:2:0:0:
93,61,152222,1,2,3:2:0:0:
256,192,154315,12,0,155710,0:0:0:0:
216,68,157105,6,0,P|363:40|512:48,1,300,2|2,0:2|0:2,0:2:0:0:
482,346,159198,2,0,P|334:319|185:327,1,300,2|2,0:2|0:2,0:2:0:0:
2,244,160943,1,2,0:2:0:0:
