osu file format v14

[General]
AudioFilename: audio.mp3
AudioLeadIn: 0
PreviewTime: 55713
Countdown: 0
SampleSet: Soft
StackLeniency: 0
Mode: 0
LetterboxInBreaks: 0
WidescreenStoryboard: 1

[Editor]
Bookmarks: 28590,39753,50393,56497,67660,78823,81614,101149,109172,109521,111963,114753,118939,140218,156963
DistanceSpacing: 1.3
BeatDivisor: 4
GridSize: 32
TimelineZoom: 3.799998

[Metadata]
Title:Supersonic (My Existence)
TitleUnicode:Supersonic (My Existence)
Artist:Skrillex, Noisia, josh pan & Dylan Brady
ArtistUnicode:Skrillex, Noisia, josh pan & Dylan Brady
Creator:Celektus
Version:My Existence
Source:
Tags:EDM electronic english male vocals bass music wonky beat dnb downtempo OWSLA
BeatmapID:3220292
BeatmapSetID:1577126

[Difficulty]
HPDrainRate:6
CircleSize:5
OverallDifficulty:9
ApproachRate:9.5
SliderMultiplier:2
SliderTickRate:1

[Events]
//Background and Video events
0,0,"subsucc.png",0,0
//Break Periods
//Storyboard Layer 0 (Background)
//Storyboard Layer 1 (Fail)
//Storyboard Layer 2 (Pass)
//Storyboard Layer 3 (Foreground)
//Storyboard Layer 4 (Overlay)
//Storyboard Sound Samples

[TimingPoints]
478,348.837209302326,4,2,1,15,1,0
478,-333.333333333333,4,2,1,15,0,0
1873,-500,4,2,1,15,0,0
3268,-958.772770853308,4,2,1,15,0,0
5274,-958.772770853308,4,2,1,5,0,0
5361,-333.333333333333,4,2,1,20,0,0
28297,-333.333333333333,4,2,1,5,0,0
28384,-142.857142857143,4,2,1,20,0,0
31088,-142.857142857143,4,2,1,5,0,0
31175,-142.857142857143,4,2,1,20,0,0
33268,-111.111111111111,4,2,1,20,0,0
33879,-111.111111111111,4,2,1,5,0,0
33966,-142.857142857143,4,2,1,20,0,0
38762,-142.857142857143,4,2,1,5,0,0
38850,-90.909090909091,4,2,1,20,0,0
39460,-90.909090909091,4,2,1,5,0,0
39547,-133.333333333333,4,2,2,20,0,0
44431,-117.647058823529,4,2,2,20,0,0
44693,-117.647058823529,4,2,2,5,0,0
44780,-95.2380952380951,4,2,2,20,0,0
45041,-95.2380952380951,4,2,2,5,0,0
45129,-133.333333333333,4,2,2,20,0,0
50100,-133.333333333333,4,2,2,5,0,0
50187,-90.9090909090909,4,2,2,20,0,0
50623,-90.9090909090909,4,2,2,5,0,0
50710,-90.9090909090909,4,2,2,20,0,0
50754,-90.9090909090909,4,2,2,10,0,0
55594,-133.333333333333,4,2,2,30,0,0
56291,-64.5161290322581,4,2,2,80,0,1
56902,-64.5161290322581,4,2,2,5,0,1
56989,-64.5161290322581,4,2,2,80,0,1
57251,-64.5161290322581,4,2,2,5,0,1
57338,-86.9565217391304,4,2,2,80,0,1
57600,-86.9565217391304,4,2,2,5,0,1
57687,-86.9565217391304,4,2,2,80,0,1
57948,-86.9565217391304,4,2,2,5,0,1
58036,-86.9565217391304,4,2,2,80,0,1
58297,-86.9565217391304,4,2,2,5,0,1
58384,-86.9565217391304,4,2,2,80,0,1
58646,-86.9565217391304,4,2,2,5,0,1
58733,-105.263157894737,4,2,2,80,0,1
58995,-105.263157894737,4,2,2,5,0,1
59082,-105.263157894737,4,2,2,80,0,1
59344,-105.263157894737,4,2,2,5,0,1
59431,-105.263157894737,4,2,2,80,0,1
59693,-105.263157894737,4,2,2,5,0,1
59780,-105.263157894737,4,2,2,80,0,1
60041,-105.263157894737,4,2,2,5,0,1
60129,-105.263157894737,4,2,2,80,0,1
60390,-105.263157894737,4,2,2,5,0,1
60478,-105.263157894737,4,2,2,80,0,1
60652,-105.263157894737,4,2,2,5,0,1
60739,-52.6315789473684,4,2,2,80,0,1
60826,-52.6315789473684,4,2,2,5,0,1
60914,-105.263157894737,4,2,2,80,0,1
61088,-105.263157894737,4,2,2,5,0,1
61175,-105.263157894737,4,2,2,80,0,0
61873,-64.5161290322581,4,2,2,80,0,1
62483,-64.5161290322581,4,2,2,5,0,1
62571,-64.5161290322581,4,2,2,80,0,1
62832,-64.5161290322581,4,2,2,5,0,1
62919,-74.0740740740741,4,2,2,80,0,1
63879,-74.0740740740741,4,2,2,5,0,1
63966,-86.9565217391304,4,2,2,80,0,1
64228,-86.9565217391304,4,2,2,5,0,1
64315,-95.2380952380954,4,2,2,80,0,1
64925,-95.2380952380954,4,2,2,5,0,1
65012,-105.263157894737,4,2,2,80,0,1
65274,-105.263157894737,4,2,2,5,0,1
65361,-105.263157894737,4,2,2,80,0,1
65623,-105.263157894737,4,2,2,5,0,1
65710,-105.263157894737,4,2,2,80,0,1
65797,-105.263157894737,4,2,2,5,0,1
65884,-105.263157894737,4,2,2,80,0,1
65972,-105.263157894737,4,2,2,5,0,1
66059,-133.333333333334,4,2,2,80,0,1
66321,-133.333333333334,4,2,2,5,0,1
66408,-57.1428571428571,4,2,2,80,0,1
66757,-57.1428571428571,4,2,2,80,0,0
67454,-64.5161290322581,4,2,2,80,0,1
67716,-64.5161290322581,4,2,2,5,0,1
67803,-64.5161290322581,4,2,2,80,0,1
68065,-64.5161290322581,4,2,2,5,0,1
68152,-64.5161290322581,4,2,2,80,0,1
68414,-64.5161290322581,4,2,2,5,0,1
68501,-86.9565217391304,4,2,2,80,0,1
68762,-86.9565217391304,4,2,2,5,0,1
68850,-86.9565217391304,4,2,2,80,0,1
69111,-86.9565217391304,4,2,2,5,0,1
69198,-86.9565217391304,4,2,2,80,0,1
69286,-86.9565217391304,4,2,2,5,0,1
69373,-86.9565217391304,4,2,2,80,0,1
69460,-86.9565217391304,4,2,2,5,0,1
69547,-86.9565217391304,4,2,2,80,0,1
69896,-60.6060606060606,4,2,2,80,0,1
70507,-60.6060606060606,4,2,2,5,0,1
70594,-60.6060606060606,4,2,2,80,0,1
70855,-60.6060606060606,4,2,2,5,0,1
70943,-80,4,2,2,80,0,1
71728,-80,4,2,2,5,0,1
71815,-64.5161290322581,4,2,2,80,0,1
71902,-64.5161290322581,4,2,2,5,0,1
71989,-64.5161290322581,4,2,2,80,0,1
72338,-64.5161290322581,4,2,2,80,0,0
72512,-64.5161290322581,4,2,1,50,0,0
73036,-64.5161290322581,4,2,2,80,0,1
73646,-64.5161290322581,4,2,2,5,0,1
73733,-64.5161290322581,4,2,2,80,0,1
73995,-64.5161290322581,4,2,2,5,0,1
74082,-74.0740740740741,4,2,2,80,0,1
74518,-74.0740740740741,4,2,2,5,0,1
74605,-74.0740740740741,4,2,2,80,0,1
74919,-74.0740740740741,4,2,2,80,0,1
75129,-111.111111111111,4,2,2,80,0,1
75390,-74.0740740740741,4,2,2,5,0,1
75478,-74.0740740740741,4,2,2,80,0,1
76088,-74.0740740740741,4,2,2,5,0,1
76175,-74.0740740740741,4,2,2,80,0,1
76437,-74.0740740740741,4,2,2,5,0,1
76524,-74.0740740740741,4,2,2,80,0,1
76611,-74.0740740740741,4,2,2,5,0,1
76698,-74.0740740740741,4,2,2,80,0,1
76786,-74.0740740740741,4,2,2,5,0,1
76873,-74.0740740740741,4,2,2,80,0,1
77134,-74.0740740740741,4,2,2,5,0,1
77222,-57.1428571428571,4,2,2,80,0,1
77291,-57.1428571428571,4,2,2,5,0,1
77361,-57.1428571428571,4,2,2,80,0,1
78617,-200,4,2,2,60,0,0
80710,-66.6666666666667,4,2,2,60,0,0
81408,-142.857142857143,4,2,2,80,0,0
83501,-200,4,2,2,80,0,0
84198,-142.857142857143,4,2,2,80,0,0
84678,-142.857142857143,4,2,2,5,0,0
84722,-142.857142857143,4,2,2,80,0,0
86640,-71.4285714285714,4,2,2,80,0,0
87251,-71.4285714285714,4,2,2,5,0,0
87338,-142.857142857143,4,2,2,80,0,0
91873,-90.909090909091,4,2,2,80,0,0
92134,-90.909090909091,4,2,2,5,0,0
92222,-71.4285714285714,4,2,2,80,0,0
92832,-71.4285714285714,4,2,2,5,0,0
92919,-142.857142857143,4,2,2,80,0,0
95129,-142.857142857143,4,2,2,80,0,0
95187,-142.857142857143,4,2,2,5,0,0
95245,-142.857142857143,4,2,2,80,0,0
95303,-142.857142857143,4,2,2,5,0,0
95361,-71.4285714285714,4,2,2,80,0,0
95972,-71.4285714285714,4,2,2,5,0,0
96059,-71.4285714285714,4,2,2,80,0,0
97454,-90.9090909090909,4,2,2,80,0,0
97716,-90.9090909090909,4,2,2,5,0,0
97803,-71.4285714285714,4,2,2,80,0,0
99547,-71.4285714285714,4,2,2,50,0,0
100943,-285.714285714286,4,2,2,50,0,0
101117,-285.714285714286,4,2,2,17,0,0
109315,-285.714285714286,4,2,2,35,0,0
111757,-285.714285714286,4,2,2,40,0,0
116989,-285.714285714286,4,2,2,30,0,0
118384,-285.714285714286,4,2,2,80,0,0
118733,-71.4285714285714,4,2,2,100,0,1
119954,-71.4285714285714,4,2,2,5,0,1
120012,-71.4285714285714,4,2,2,100,0,1
120652,-71.4285714285714,4,2,2,5,0,1
120710,-71.4285714285714,4,2,2,100,0,1
121350,-71.4285714285714,4,2,2,5,0,1
121393,-71.4285714285714,4,2,2,100,0,1
121698,-71.4285714285714,4,2,2,5,0,1
121815,-71.4285714285714,4,2,2,100,0,1
122047,-71.4285714285714,4,2,2,5,0,1
122105,-71.4285714285714,4,2,2,100,0,1
122571,-71.4285714285714,4,2,2,100,0,0
123268,-71.4285714285714,4,2,2,100,0,1
124446,-71.4285714285714,4,2,2,5,0,1
124533,-71.4285714285714,4,2,2,100,0,1
124882,-71.4285714285714,4,2,2,5,0,1
124969,-71.4285714285714,4,2,2,100,0,1
125100,-71.4285714285714,4,2,2,5,0,1
125187,-71.4285714285714,4,2,2,100,0,1
125318,-71.4285714285714,4,2,2,5,0,1
125361,-71.4285714285714,4,2,2,100,0,1
125405,-117.647058823529,4,2,2,100,0,1
125623,-117.647058823529,4,2,2,5,0,1
125710,-312.5,4,2,2,100,0,1
126277,-312.5,4,2,2,5,0,1
126408,-86.9565217391304,4,2,2,100,0,1
127847,-305.810397553517,4,2,2,100,0,1
128152,-305.810397553517,4,2,2,100,0,0
128850,-71.4285714285714,4,2,2,100,0,1
133733,-71.4285714285714,4,2,2,100,0,0
134431,-71.4285714285714,4,2,2,100,0,1
135041,-71.4285714285714,4,2,2,5,0,1
135129,-71.4285714285714,4,2,2,100,0,1
135347,-71.4285714285714,4,2,2,5,0,1
135419,-71.4285714285714,4,2,2,100,0,1
135565,-71.4285714285714,4,2,2,5,0,1
135652,-142.857142857143,4,2,2,100,0,1
135884,-95.2380952380952,4,2,2,100,0,1
136117,-142.857142857143,4,2,2,100,0,1
136291,-142.857142857143,4,2,2,5,0,1
136350,-95.2380952380951,4,2,2,100,0,1
136466,-95.2380952380951,4,2,2,5,0,1
136524,-142.857142857143,4,2,2,100,0,1
136698,-142.857142857143,4,2,2,5,0,1
136815,-142.857142857143,4,2,2,100,0,1
137047,-142.857142857143,4,2,2,5,0,1
137105,-142.857142857143,4,2,2,100,0,1
137280,-142.857142857143,4,2,2,5,0,1
137338,-142.857142857143,4,2,2,100,0,1
137512,-142.857142857143,4,2,2,5,0,1
137571,-142.857142857143,4,2,2,100,0,1
137745,-142.857142857143,4,2,2,5,0,1
137803,-95.2380952380951,4,2,2,100,0,1
138094,-142.857142857143,4,2,2,100,0,1
138501,-142.857142857143,4,2,2,5,0,1
138617,-57.1428571428571,4,2,2,100,0,1
138687,-57.1428571428571,4,2,2,5,0,1
138757,-57.1428571428571,4,2,2,100,0,1
139664,-57.1428571428571,4,2,2,100,0,0
140012,-200,4,2,2,30,0,0
142454,-200,4,2,2,60,0,0
143152,-200,4,2,2,30,0,0
143370,-200,4,2,2,20,0,0
144198,-200,4,2,2,30,0,0
144286,-200,4,2,2,40,0,0
144373,-200,4,2,2,50,0,0
144896,-200,4,2,2,20,0,0
145245,-200,4,2,2,10,0,0
145594,-200,4,2,2,20,0,0
146175,-200,4,2,2,5,0,0
146408,-200,4,2,2,20,0,0
146640,-200,4,2,2,20,0,0
146698,-200,4,2,2,5,0,0
146989,-200,4,2,2,20,0,0
148733,-200,4,2,2,30,0,0
149082,-200,4,2,2,40,0,0
150129,-200,4,2,2,40,0,0
151175,-200,4,2,2,30,0,0
151524,-200,4,2,2,15,0,0
152222,-200,4,2,2,30,0,0
152309,-200,4,2,2,20,0,0
154315,-200,4,2,2,10,0,0
154489,-200,4,2,2,15,0,0
154664,-200,4,2,2,20,0,0
154838,-200,4,2,2,25,0,0
155012,-200,4,2,2,30,0,0
155187,-200,4,2,2,35,0,0
155361,-200,4,2,2,40,0,0
155536,-200,4,2,2,45,0,0
155710,-200,4,2,2,20,0,0
157105,-200,4,2,1,15,0,0
158268,-200,4,2,1,5,0,0
158326,-200,4,2,1,15,0,0
159140,-200,4,2,1,5,0,0
159198,-200,4,2,1,15,0,0

[Colours]
Combo1 : 140,123,132
Combo2 : 85,84,89
Combo3 : 149,148,154
Combo4 : 99,86,94

[HitObjects]
0,132,478,6,0,B|26:125|60:125|60:125|85:142|105:165,1,119.999996337891,2|0,0:2|0:2,0:2:0:0:
56,331,1873,2,0,P|40:273|30:215,1,120,2|0,0:2|0:0,0:0:0:0:
188,135,3268,2,0,P|203:77|223:21,1,120,2|0,0:2|0:0,0:0:0:0:
249,14,5361,5,2,0:2:0:0:
122,65,5710,1,2,0:2:0:0:
188,134,5972,2,0,P|189:126|191:119,1,14.9999995422363,2|0,0:2|0:0,0:0:0:0:
253,14,6350,2,0,P|347:31|439:53,1,189.99999420166,2|2,0:2|0:2,0:0:0:0:
268,382,8152,5,2,0:2:0:0:
312,266,8414,1,2,0:2:0:0:
310,262,8501,1,2,0:2:0:0:
308,258,8762,2,0,P|306:250|304:243,1,14.9999995422363,2|0,0:2|0:0,0:0:0:0:
504,246,9111,2,0,P|365:170|223:102,1,314.999990386963,2|2,0:2|0:2,0:0:0:0:
70,73,11291,5,2,0:2:0:0:
0,103,11466,2,0,L|8:141,1,29.9999990844727,2|0,0:2|0:0,0:0:0:0:
0,226,11815,2,0,P|102:202|206:189,1,209.999993591309,2|2,0:2|0:2,0:0:0:0:
512,144,13733,5,2,0:2:0:0:
264,121,14082,1,2,0:2:0:0:
206,189,14257,2,0,L|199:218,1,29.9999990844727,2|0,0:2|0:0,0:0:0:0:
211,349,14605,2,0,B|237:312|257:273|257:273|378:258|494:229,1,329.9999899292,2|2,0:2|0:2,0:0:0:0:
412,384,16873,5,2,0:2:0:0:
512,316,17105,2,0,L|488:322,1,19.9999993896485,2|0,0:2|0:0,0:0:0:0:
297,384,17454,2,0,P|204:346|108:316,1,199.999993896485,2|2,0:2|0:2,0:0:0:0:
0,28,19315,5,2,0:2:0:0:
0,186,19664,1,2,0:2:0:0:
61,140,19838,2,0,L|92:137,1,29.9999990844727,2|0,0:2|0:0,0:0:0:0:
138,22,20245,2,0,P|208:165|302:294,1,319.999990234375,2|2,0:2|0:2,0:0:0:0:
431,384,22454,5,2,0:2:0:0:
492,320,22629,2,0,L|494:290,1,29.9999990844727
494,198,22978,2,0,P|384:166|288:133,1,209.999993591309,2|2,0:2|0:2,0:0:0:0:
512,0,24896,5,2,0:2:0:0:
369,68,25245,1,2,0:2:0:0:
337,0,25419,2,0,L|307:2,1,29.9999990844727,2|0,0:2|0:0,0:0:0:0:
224,37,25768,2,0,B|183:10|138:22|138:22|158:154|164:367,1,434.999986724854,2|0,0:2|0:0,0:0:0:0:
161,369,28384,6,0,L|91:375,1,69.9999978637696,6|0,1:2|0:0,0:0:0:0:
71,288,28733,2,0,L|7:258,1,69.9999978637696,2|0,0:2|0:0,0:0:0:0:
41,176,29082,2,0,L|0:118,1,69.9999978637696,2|0,0:2|0:0,0:0:0:0:
75,69,29431,2,0,L|68:0,1,69.9999978637696,2|0,0:2|0:0,0:0:0:0:
158,0,29780,2,0,L|164:69,1,69.9999978637696,0|0,1:2|0:0,0:0:0:0:
120,136,30129,2,0,L|158:193,1,69.9999978637696,2|0,0:2|0:0,0:0:0:0:
154,273,30478,2,0,L|216:303,1,69.9999978637696,2|0,0:2|0:0,0:0:0:0:
251,374,30826,2,0,L|355:366,1,104.999996795654,2|0,0:2|0:0,0:0:0:0:
359,368,31175,6,0,L|365:298,1,69.9999978637696,6|0,1:2|0:0,0:0:0:0:
290,252,31524,2,0,L|313:185,1,69.9999978637696,2|0,0:2|0:0,0:0:0:0:
253,122,31873,2,0,L|293:64,1,69.9999978637696,2|0,0:2|0:0,0:0:0:0:
379,45,32222,2,0,L|432:0,1,69.9999978637696,2|0,0:2|0:0,0:0:0:0:
512,49,32571,2,0,L|458:94,1,69.9999978637696,0|0,0:2|0:0,0:0:0:0:
396,155,32919,2,0,L|408:224,1,69.9999978637696,2|0,0:2|0:0,0:0:0:0:
495,331,33268,2,0,P|378:252|300:370,1,314.999990386963,2|0,0:2|0:0,0:0:0:0:
298,374,33966,6,0,L|228:368,1,69.9999978637696,6|0,1:2|0:0,0:0:0:0:
141,384,34315,2,0,L|95:330,1,69.9999978637696,2|0,0:2|0:0,0:0:0:0:
22,280,34664,2,0,L|27:209,1,69.9999978637696,2|0,0:2|0:0,0:0:0:0:
12,123,35012,2,0,L|66:77,2,69.9999978637696,2|0|0,0:2|0:0|1:0,0:0:0:0:
116,4,35536,2,0,P|140:29|152:61,1,69.9999978637696,2|0,0:2|0:0,0:0:0:0:
145,147,35884,1,0,0:0:0:0:
149,149,35972,1,0,0:0:0:0:
153,151,36059,6,0,B|188:149|223:136|223:136|230:104|242:69|242:69|274:56|299:31|299:31|328:50|363:58,1,279.999991455078,2|0,0:2|1:2,2:0:0:0:
512,102,37105,2,0,B|500:133|497:169|497:169|463:175|431:191|431:191|407:166|377:145|377:145|336:163|310:166|310:166|290:205|272:224|272:224|283:266|281:292|281:292|316:318|331:339|331:339|375:335|401:342|401:342|431:310|456:299|456:299|439:289|427:280|427:280,1,664.999979705811
420,287,38850,2,0,P|230:300|58:385,1,385.000011749268
55,380,39547,6,0,P|49:342|48:305,1,75.0000028610231,6|0,1:2|0:0,0:0:0:0:
0,242,39896,2,0,P|22:210|48:184,1,75.0000028610231,2|0,0:2|0:0,0:0:0:0:
58,105,40245,2,0,P|96:99|132:98,1,75.0000028610231,2|0,0:2|0:0,0:0:0:0:
196,50,40594,2,0,P|227:72|253:98,1,75.0000028610231,2|0,0:2|0:0,0:0:0:0:
333,108,40943,2,0,P|333:145|338:182,1,75.0000028610231,0|0,1:2|0:0,0:0:0:0:
311,285,41291,1,2,0:2:0:0:
489,146,41640,2,0,P|459:169|427:188,3,75.0000028610231,2|0|2|0,0:2|0:0|0:2|0:0,0:0:0:0:
449,66,42338,6,0,P|416:47|381:33,1,75.0000028610231,6|0,1:2|0:0,0:0:0:0:
333,107,42687,2,0,P|296:98|259:94,1,75.0000028610231,2|0,0:2|0:0,0:0:0:0:
231,177,43036,2,0,P|193:177|156:182,1,75.0000028610231,2|0,0:2|0:0,0:0:0:0:
150,270,43384,2,0,P|113:279|79:295,3,75.0000028610231,2|0|0|0,0:2|0:0|0:0|0:0,0:0:0:0:
143,384,44082,2,0,P|172:360|204:341,1,75.0000028610231,2|0,0:2|0:0,0:0:0:0:
248,265,44431,2,0,P|290:312|309:376,1,127.50000243187,2|0,0:2|0:0,0:0:0:0:
305,378,44780,2,0,P|379:353|456:367,1,157.499995193482,2|0,0:2|0:0,0:0:0:0:
453,370,45129,6,0,P|418:351|390:328,1,75.0000028610231,6|0,1:2|0:0,0:0:0:0:
400,241,45478,2,0,P|362:231|328:216,1,75.0000028610231,2|0,0:2|0:0,0:0:0:0:
315,130,45826,2,0,P|276:131|239:125,1,75.0000028610231,2|0,0:2|0:0,0:0:0:0:
204,44,46175,2,0,P|166:55|130:58,2,75.0000028610231,2|0|0,0:2|0:0|1:2,0:0:0:0:
0,0,46873,1,0,0:0:0:0:
0,217,47222,6,0,B|75:223|75:223|131:173|131:173|206:180|206:180|259:128,1,300.000011444092,2|0,0:2|1:2,0:0:0:0:
0,217,48268,2,0,B|155:229|155:229|260:127|260:127|404:140|404:140|504:24|504:24|487:211,1,787.500030040742,2|0,0:2|0:2,0:0:0:0:
489,215,50187,6,0,P|402:295|504:356,1,275.000008392334,2|0,0:2|0:0,0:0:0:0:
509,353,50710,5,6,0:2:0:0:
256,192,50754,12,2,52105,0:2:0:0:
256,192,52149,12,2,53500,0:2:0:0:
256,192,53544,12,4,55594,0:2:0:0:
0,360,56291,6,0,P|133:127|363:-12,1,542.500004138947,2|0,3:2|0:0,0:0:0:0:
494,18,56989,1,8,0:2:0:0:
446,79,57076,2,0,P|471:151|488:227,1,155.000001182556,2|0,3:2|0:0,0:0:0:0:
511,349,57338,6,0,P|438:302|359:267,1,172.500003290176,2|0,3:2|0:0,0:0:0:0:
373,181,57687,2,0,P|290:154|205:141,1,172.500003290176,0|0,0:2|0:0,0:0:0:0:
196,54,58036,2,0,P|109:50|24:59,1,172.500003290176,0|0,0:2|0:0,0:0:0:0:
2,176,58384,2,0,P|83:204|168:221,1,172.500003290176,10|0,0:2|0:0,0:0:0:0:
165,225,58733,6,0,P|226:261|280:306,1,142.49999619484,2|0,0:2|0:0,0:0:0:0:
282,310,59082,2,0,P|220:345|153:369,1,142.49999619484
164,224,59431,2,0,P|226:261|280:307,1,142.49999619484,0|0,3:0|0:0,0:0:0:0:
153,369,59780,2,0,P|91:332|37:286,1,142.49999619484,8|0,0:2|0:0,0:0:0:0:
39,281,60129,2,0,P|68:214|107:155,1,142.49999619484,0|0,0:2|0:0,0:0:0:0:
233,54,60478,6,0,P|210:95|193:140,1,94.9999974632264,2|0,3:2|0:0,0:0:0:0:
353,194,60739,2,0,P|328:153|298:116,1,94.9999974632264,2|0,3:2|0:0,0:0:0:0:
172,228,60914,2,0,P|219:226|266:219,1,94.9999974632264,2|0,3:2|0:0,0:0:0:0:
264,215,61175,1,8,0:2:0:0:
510,17,61873,6,0,P|408:262|170:380,1,542.500004138947,2|0,3:2|0:0,0:0:0:0:
54,384,62571,1,8,0:2:0:0:
103,324,62658,2,0,P|69:277|25:191,1,155.000001182556,2|0,3:2|0:0,0:0:0:0:
95,88,62919,6,0,P|345:298|510:17,1,742.500002832413,2|0,3:2|0:0,0:0:0:0:
389,0,63966,2,0,P|431:75|483:143,1,172.500003290176,10|0,0:2|0:0,0:0:0:0:
512,227,64315,6,0,P|360:324|182:297,1,367.49998878479,2|0,0:2|0:0,0:0:0:0:
172,156,65012,2,0,P|133:216|89:272,1,142.49999619484,0|0,3:2|0:0,0:0:0:0:
0,384,65361,2,0,P|-2:312|1:241,1,142.49999619484,8|0,0:2|0:0,0:0:0:0:
0,213,65710,2,0,P|13:193|27:174,1,47.4999987316132
59,172,65884,2,0,P|72:152|86:133,1,47.4999987316132
145,22,66059,6,0,B|145:28|145:28|151:32|151:32|139:35|139:35|152:40|152:40|142:44|142:44|152:48|152:48|142:51|142:51|153:55|153:55|143:58|143:58|148:60|148:60|149:70,1,112.500004291535,0|0,0:2|0:0,0:0:0:0:
152,77,66408,2,0,P|323:42|494:3,1,350.00000333786,2|12,3:2|0:2,0:0:0:0:
512,361,67454,6,0,P|473:251|391:138,1,232.500001773834,2|0,3:2|0:0,0:0:0:0:
324,130,67803,2,0,P|268:232|242:345,1,232.500001773834,2|0,0:2|0:0,0:0:0:0:
131,384,68152,1,8,0:2:0:0:
58,355,68239,2,0,P|43:280|20:205,1,155.000001182556,2|0,3:2|0:0,0:0:0:0:
0,88,68501,6,0,P|73:133|150:171,1,172.500003290176,2|0,3:2|0:0,0:0:0:0:
152,167,68850,2,0,P|214:108|271:43,1,172.500003290176,0|0,0:2|0:0,0:0:0:0:
273,38,69198,2,0,P|301:40|330:40,1,57.5000010967255
332,36,69373,2,0,P|357:49|384:60,1,57.5000010967255
482,0,69547,2,0,P|470:85|464:171,1,172.500003290176,8|0,0:2|0:0,0:0:0:0:
500,291,69896,6,0,B|346:205|196:164|196:164|108:241|31:347,1,577.500005507469,2|0,0:2|0:0,0:0:0:0:
153,382,70594,2,0,P|124:265|19:204,1,247.500002360344,2|0,3:2|0:0,0:0:0:0:
0,117,70943,2,0,P|270:63|512:196,1,562.5,10|0,0:2|0:0,0:0:0:0:
500,291,71815,6,0,L|492:368,1,77.5000005912781,0|0,3:0|0:0,0:0:0:0:
389,204,71989,2,0,L|405:358,2,155.000001182556,2|0|8,3:2|0:0|0:2,0:0:0:0:
402,341,73036,6,0,P|141:335|0:116,1,542.500004138947,2|0,3:2|0:0,0:0:0:0:
0,0,73733,1,8,0:2:0:0:
78,0,73821,2,0,P|90:76|98:153,1,155.000001182556,0|0,3:0|0:0,0:0:0:0:
73,280,74082,6,0,B|204:177|263:91|263:91|262:56|256:23,1,337.50000128746,2|0,3:2|0:0,0:0:0:0:
260,21,74605,2,0,P|267:88|264:155,1,135.000000514984,8|0,0:2|0:0,0:0:0:0:
217,271,74919,2,0,P|244:272|271:274,1,54.0000002059937,0|0,3:0|0:0,0:0:0:0:
264,155,75129,2,0,P|267:86|258:11,1,134.999995880127,8|0,0:2|0:0,0:0:0:0:
267,19,75478,6,0,P|460:44|341:198,1,472.500001802445,2|0,0:2|0:0,0:0:0:0:
307,280,76175,2,0,P|214:317|130:374,1,202.500000772476,0|0,3:0|0:0,0:0:0:0:
42,384,76524,6,0,P|20:358|0:330,1,67.5000002574921,2|0,0:2|0:0,0:0:0:0:
59,265,76698,2,0,P|40:237|23:207,1,67.5000002574921,2|0,0:2|0:0,0:0:0:0:
87,146,76873,2,0,P|90:54|182:43,1,202.500000772476,2|0,0:2|0:0,0:0:0:0:
185,47,77222,6,0,L|178:116,1,70.000000667572,8|0,0:3|0:0,0:0:0:0:
263,50,77361,2,0,L|250:189,1,140.000001335144,8|0,0:3|3:0,0:0:0:0:
344,57,77658,2,0,L|320:318,1,262.500002503395,8|8,3:3|1:2,0:0:0:0:
512,0,78268,1,2,0:2:0:0:
512,0,78617,6,0,P|467:60|427:123,1,150,4|2,3:3|0:2,0:0:0:0:
0,384,79664,2,0,P|44:323|84:260,1,150,4|2,3:3|0:2,0:0:0:0:
256,0,80710,6,0,B|192:136|192:136|320:215|320:215|256:349,1,450.000017166138,10|0,0:2|0:2,0:0:0:0:
256,350,81408,5,2,3:2:0:0:
190,323,81582,1,0,0:0:0:0:
121,321,81756,1,2,0:2:0:0:
53,342,81931,2,0,L|63:363,2,23.3333326212565
50,340,82105,5,10,0:2:0:0:
51,270,82279,1,0,0:0:0:0:
74,204,82453,1,0,0:0:0:0:
117,149,82628,1,0,0:0:0:0:
175,110,82802,1,0,0:0:0:0:
50,140,82978,5,8,0:2:0:0:
242,91,83152,1,0,3:0:0:0:
277,90,83239,1,0,0:0:0:0:
311,93,83326,1,2,0:2:0:0:
439,211,83501,6,0,L|389:216,1,50,10|0,1:2|0:2,0:0:0:0:
387,212,83850,2,0,L|436:208,1,50,0|0,0:2|0:2,0:0:0:0:
318,366,84198,5,0,3:0:0:0:
373,324,84372,1,0,0:0:0:0:
438,306,84547,2,0,P|465:304|491:307,1,52.4999983978272,2|0,0:2|0:0,0:0:0:0:
504,325,84722,2,0,L|495:346,2,23.3333326212565
508,327,84896,5,8,0:2:0:0:
492,258,85070,1,0,0:0:0:0:
512,119,85245,1,0,3:0:0:0:
496,50,85419,1,0,0:0:0:0:
447,0,85594,6,0,P|421:23|401:52,1,69.9999978637696,2|8,0:2|0:2,0:0:0:0:
353,192,85943,1,0,0:0:0:0:
387,196,86030,1,0,0:0:0:0:
416,212,86117,1,0,0:0:0:0:
508,327,86291,2,0,P|476:342|446:360,1,69.9999978637696,8|0,0:2|0:0,0:0:0:0:
444,364,86640,2,0,B|307:206|132:159|58:303|222:347,1,489.999985046387,2|0,0:2|0:0,0:0:0:0:
303,384,87338,5,0,3:0:0:0:
221,347,87512,2,0,L|217:365,4,17.4999994659424,0|0|0|0|8,0:0|0:0|0:0|0:0|0:2,0:0:0:0:
93,384,87861,6,0,P|75:353|60:322,1,69.9999978637696,2|0,0:2|0:0,0:0:0:0:
34,257,88209,1,0,0:0:0:0:
15,189,88384,1,0,0:0:0:0:
4,120,88558,1,0,0:0:0:0:
109,51,88733,2,0,L|116:28,2,23.3333326212565,0|0|0,3:0|0:0|0:0,0:0:0:0:
132,1,88908,1,2,0:3:0:0:
104,267,89082,1,12,0:2:0:0:
220,5,89780,6,0,P|235:73|244:143,1,139.999995727539,6|0,3:2|0:0,0:0:0:0:
241,232,90303,2,0,L|242:255,2,23.3333326212565
238,278,90478,1,8,0:2:0:0:
220,346,90652,1,0,0:0:0:0:
357,320,90826,2,0,P|322:324|287:327,2,69.9999978637696,2|0|0,3:2|0:0|0:0,0:0:0:0:
510,384,91350,5,8,0:2:0:0:
453,345,91524,1,0,0:0:0:0:
418,286,91698,1,0,0:0:0:0:
512,181,91873,2,0,P|449:223|412:157,1,165.000005035401,8|0,0:2|0:0,0:0:0:0:
415,158,92222,2,0,B|333:26|43:-58|15:108|92:145,1,489.999985046387,2|0,0:2|0:0,0:0:0:0:
92,147,92919,6,0,P|73:166|56:187,1,52.4999983978272,0|0,3:0|0:0,0:0:0:0:
42,228,93094,2,0,L|20:219,2,23.3333326212565
15,262,93268,1,10,0:2:0:0:
80,286,93442,1,0,0:0:0:0:
137,326,93616,1,0,0:0:0:0:
182,380,93791,1,0,0:0:0:0:
15,262,93966,5,0,3:0:0:0:
252,384,94228,1,0,3:0:0:0:
308,250,94402,1,0,3:0:0:0:
512,0,94664,5,10,0:2:0:0:
512,0,94896,1,2,0:2:0:0:
504,93,95129,2,0,L|472:95,1,23.3333326212565,2|0,0:2|0:0,0:0:0:0:
508,139,95245,2,0,L|476:141,1,23.3333326212565,0|0,0:2|0:0,0:0:0:0:
512,185,95361,6,0,B|277:142|537:352|116:383,1,489.999985046387,2|0,3:2|0:0,0:0:0:0:
26,384,96059,1,8,0:2:0:0:
110,0,96408,2,0,B|311:20|70:150|377:271,1,419.999987182618,2|8,3:2|0:2,0:0:0:0:
467,338,97105,2,0,L|465:292,2,46.6666652425131,0|0|0,0:0|0:0|3:0,0:0:0:0:
499,38,97454,2,0,P|446:86|505:127,1,165.000005035401,10|0,0:2|0:2,0:2:0:0:
507,123,97803,6,0,B|326:98|126:196|54:379|54:379|191:324|254:192,1,839.999974365235,2|10,0:2|0:2,0:0:0:0:
260,2,99024,2,0,P|159:98|62:199,1,279.999991455078,2|0,0:2|0:0,0:0:0:0:
55,380,99547,5,8,0:2:0:0:
78,354,99634,1,8,0:2:0:0:
124,376,99722,1,8,0:2:0:0:
148,276,99896,1,8,0:2:0:0:
230,371,100071,1,8,0:2:0:0:
219,198,100245,2,0,L|222:232,2,34.9999989318848,8|8|8,0:2|0:2|0:2,0:0:0:0:
334,366,100419,1,8,0:2:0:0:
312,244,100594,1,8,0:2:0:0:
289,120,100768,1,8,0:2:0:0:
230,370,100943,6,0,L|226:334,11,34.9999989318848,6|0|0|0|0|0|0|0|0|0|0|0,3:2|0:2|0:2|0:2|0:2|0:2|0:2|0:2|0:2|0:2|0:2|0:2,0:2:0:0:
230,370,103036,1,0,0:2:0:0:
233,370,103210,1,0,0:2:0:0:
236,370,103384,1,0,0:2:0:0:
239,371,103558,1,0,0:2:0:0:
242,371,103733,1,0,0:2:0:0:
245,371,103907,1,0,0:2:0:0:
248,371,104081,1,0,0:2:0:0:
251,371,104257,1,0,0:2:0:0:
255,371,104431,1,0,0:2:0:0:
258,371,104605,1,0,0:2:0:0:
261,371,104779,1,0,0:2:0:0:
264,371,104953,1,0,0:2:0:0:
267,371,105128,1,0,0:2:0:0:
270,371,105302,1,0,0:2:0:0:
273,371,105478,1,0,0:2:0:0:
276,370,105652,1,0,0:2:0:0:
280,370,105826,1,0,0:2:0:0:
282,369,106000,1,0,0:2:0:0:
285,368,106174,1,0,0:2:0:0:
288,368,106350,1,0,0:2:0:0:
291,367,106523,1,0,0:2:0:0:
294,367,106697,1,0,0:2:0:0:
297,366,106873,1,0,0:2:0:0:
300,365,107047,1,0,0:2:0:0:
304,364,107221,1,0,0:2:0:0:
307,363,107395,1,0,0:2:0:0:
310,362,107571,1,0,0:2:0:0:
313,361,107745,1,0,0:2:0:0:
315,361,107918,1,0,0:2:0:0:
318,360,108094,1,0,0:2:0:0:
321,359,108268,1,0,0:2:0:0:
324,357,108443,1,0,0:2:0:0:
328,356,108617,1,0,0:2:0:0:
330,355,108791,1,0,0:2:0:0:
333,353,108965,1,0,0:2:0:0:
336,352,109139,1,0,0:2:0:0:
341,349,109315,5,0,3:2:0:0:
352,342,109489,1,0,3:2:0:0:
367,331,109664,1,0,3:2:0:0:
385,314,109838,1,0,3:2:0:0:
405,290,110012,1,0,3:2:0:0:
422,257,110187,1,0,3:2:0:0:
433,215,110361,1,0,3:2:0:0:
432,165,110536,1,0,3:2:0:0:
416,111,110710,1,0,3:2:0:0:
378,62,110884,1,0,3:2:0:0:
321,25,111059,1,0,3:2:0:0:
247,13,111233,1,0,3:2:0:0:
170,34,111408,1,0,3:2:0:0:
106,93,111582,1,0,3:2:0:0:
77,181,111757,5,0,3:2:0:0:
87,231,111844,1,0,3:2:0:0:
110,276,111931,1,0,3:2:0:0:
144,308,112018,1,0,3:2:0:0:
183,330,112105,1,0,3:2:0:0:
223,338,112192,1,0,3:2:0:0:
262,336,112279,1,0,3:2:0:0:
295,325,112366,1,0,3:2:0:0:
323,307,112454,1,0,3:2:0:0:
344,284,112541,1,0,3:2:0:0:
358,259,112628,1,0,3:2:0:0:
364,234,112715,1,0,3:2:0:0:
366,210,112802,1,0,3:2:0:0:
361,189,112889,1,0,3:2:0:0:
353,170,112978,1,0,3:2:0:0:
343,155,113065,1,0,3:2:0:0:
331,143,113152,1,0,3:2:0:0:
318,136,113239,1,0,3:2:0:0:
305,131,113326,1,0,3:2:0:0:
293,129,113413,1,0,3:2:0:0:
282,130,113500,1,0,3:2:0:0:
273,132,113587,1,0,3:2:0:0:
265,136,113674,1,0,3:2:0:0:
258,141,113761,1,0,3:2:0:0:
253,147,113849,1,0,3:2:0:0:
250,153,113936,1,0,3:2:0:0:
248,159,114023,1,0,3:2:0:0:
247,165,114110,1,0,3:2:0:0:
248,171,114197,1,0,3:2:0:0:
249,176,114286,1,0,3:2:0:0:
251,181,114373,1,0,3:2:0:0:
253,187,114460,1,0,3:2:0:0:
256,192,114547,1,0,3:2:0:0:
256,192,114634,12,6,116989,0:0:0:0:
512,384,118384,5,10,0:2:0:0:
512,384,118733,2,0,L|233:359,1,279.999991455078,6|0,3:2|0:0,0:0:0:0:
233,359,119169,2,0,L|23:378,1,209.999993591309,2|0,0:2|0:0,0:0:0:0:
24,378,119518,2,0,L|6:168,1,209.999993591309,2|8,0:2|0:2,0:0:0:0:
6,169,119823,2,0,L|13:64,1,104.999996795654,2|0,0:2|0:2,0:0:0:0:
98,92,120012,2,0,L|106:-9,1,93.3333304850261,2|0,0:2|0:2,0:0:0:0:
188,122,120216,2,0,L|206:331,1,209.999993591309,2|0,0:2|3:2,0:0:0:0:
206,331,120535,6,0,L|298:338,1,93.3333304850261,2|0,0:2|0:2,0:0:0:0:
367,281,120709,2,0,L|459:288,1,93.3333304850261,2|0,0:2|0:2,0:0:0:0:
512,203,120913,1,2,0:2:0:0:
510,207,121087,2,0,L|440:200,1,69.9999978637696,2|8,0:2|0:2,0:0:0:0:
286,249,121262,2,0,L|293:180,1,69.9999978637696,2|0,0:2|0:2,0:0:0:0:
422,178,121393,2,0,L|317:168,1,104.999996795654,2|0,0:2|0:2,0:0:0:0:
262,26,121610,2,0,L|268:95,1,69.9999978637696,2|0,0:2|0:2,0:0:0:0:
379,142,121814,6,0,L|384:96,1,46.6666652425131,0|0,0:0|3:0,0:0:0:0:
479,0,121930,2,0,L|470:92,1,93.3333304850261,0|0,0:0|3:0,0:0:0:0:
512,203,122105,2,0,L|480:200,1,23.3333326212565,2|0,0:2|3:0,0:0:0:0:
510,207,122163,1,2,3:2:0:0:
390,7,122308,1,2,3:2:0:0:
142,384,122570,1,10,0:2:0:0:
0,0,123268,6,0,L|512:225,1,559.999982910157,6|8,3:2|0:2,0:0:0:0:
512,225,124024,2,0,L|507:178,1,46.6666652425131,2|0,0:2|3:0,0:0:0:0:
511,100,124257,1,2,0:2:0:0:
512,94,124315,6,0,L|413:48,1,104.999996795654,2|0,0:2|0:0,0:0:0:0:
339,90,124533,2,0,L|240:136,1,104.999996795654,2|0,0:2|0:0,0:0:0:0:
166,94,124751,2,0,L|67:48,1,104.999996795654,2|0,0:2|0:0,0:0:0:0:
0,103,124969,2,0,L|9:211,1,104.999996795654,2|0,0:2|0:0,0:0:0:0:
90,242,125187,2,0,L|179:179,1,104.999996795654,2|0,0:2|0:0,0:0:0:0:
259,213,125361,1,8,0:2:0:0:
255,215,125405,2,0,L|265:320,1,106.250002026558,2|0,2:2|2:0,2:0:0:0:
327,384,125710,2,0,L|412:322,1,104,2|0,2:2|2:0,2:0:0:0:
512,201,126408,5,2,3:2:0:0:
511,195,126539,1,2,0:2:0:0:
500,345,126669,2,0,L|494:287,1,57.5000010967255,2|8,0:2|0:2,0:0:0:0:
512,111,126800,5,2,0:2:0:0:
510,117,126931,1,2,0:2:0:0:
337,84,127062,1,2,0:2:0:0:
339,90,127193,1,2,0:2:0:0:
511,117,127323,1,2,0:2:0:0:
512,111,127454,1,2,0:2:0:0:
422,240,127585,1,2,0:2:0:0:
423,234,127716,2,0,P|409:210|387:191,1,57.5000010967255,2|0,0:2|3:0,0:0:0:0:
255,215,127847,6,0,P|279:228|308:233,1,57.225000611229,2|12,0:2|0:2,0:0:0:0:
9,159,128850,5,2,0:2:0:0:
28,368,129024,1,2,0:2:0:0:
237,350,129198,1,2,0:2:0:0:
218,141,129373,1,2,0:2:0:0:
133,359,129547,1,10,0:2:0:0:
98,361,129634,2,0,L|28:368,1,69.9999978637696,0|2,3:0|0:2,0:0:0:0:
0,55,129896,5,2,3:2:0:0:
19,264,130071,1,2,0:2:0:0:
228,246,130246,1,2,0:2:0:0:
209,37,130420,1,2,0:2:0:0:
0,55,130594,1,2,0:2:0:0:
19,264,130768,1,2,0:2:0:0:
219,142,130943,1,10,0:2:0:0:
9,159,131117,1,2,0:2:0:0:
219,142,131291,5,2,0:2:0:0:
238,351,131467,1,2,0:2:0:0:
447,333,131641,1,2,0:2:0:0:
428,124,131815,1,2,0:2:0:0:
184,250,131989,1,2,3:2:0:0:
346,384,132163,1,2,0:2:0:0:
428,124,132338,1,10,0:2:0:0:
219,142,132511,1,2,0:2:0:0:
238,351,132687,1,2,0:2:0:0:
447,333,132861,1,2,0:2:0:0:
428,124,133036,1,2,0:2:0:0:
238,351,133210,5,2,3:2:0:0:
428,124,133384,1,2,3:2:0:0:
447,333,133559,1,2,0:2:0:0:
334,238,133733,5,10,0:2:0:0:
512,0,134431,6,0,L|23:42,1,489.999985046387,6|0,3:2|0:0,0:0:0:0:
0,128,135128,1,8,0:2:0:0:
69,119,135216,2,0,L|59:223,1,104.999996795654,2|0,3:2|0:0,0:0:0:0:
0,289,135419,1,2,0:2:0:0:
2,293,135478,6,0,L|9:362,1,69.9999978637696,2|0,3:2|0:0,0:0:0:0:
77,245,135652,2,0,L|84:314,1,69.9999978637696,2|0,0:2|0:0,0:0:0:0:
154,197,135884,2,0,L|217:225,1,69.9999978637696,2|8,0:2|0:2,0:0:0:0:
162,355,136117,2,0,L|226:384,1,69.9999978637696,2|0,0:2|0:0,0:0:0:0:
302,335,136350,2,0,L|295:266,1,69.9999978637696,2|0,0:2|0:2,0:0:0:0:
154,197,136524,2,0,L|161:128,1,69.9999978637696,10|0,0:2|0:2,0:0:0:0:
235,24,136814,5,2,0:2:0:0:
237,28,136873,2,0,L|244:97,1,69.9999978637696,2|0,0:2|0:2,0:0:0:0:
292,179,137105,2,0,L|348:138,1,69.9999978637696,2|0,0:2|0:2,0:0:0:0:
395,55,137338,2,0,L|331:26,1,69.9999978637696,2|0,0:2|0:2,0:0:0:0:
292,179,137571,6,0,L|299:248,1,69.9999978637696,2|0,3:2|0:2,0:0:0:0:
347,330,137803,2,0,L|403:289,1,69.9999978637696,2|8,0:2|0:2,0:0:0:0:
506,166,138094,2,0,L|442:137,1,69.9999978637696,2|0,0:2|0:2,0:0:0:0:
395,55,138326,2,0,L|331:26,1,69.9999978637696,2|0,0:2|0:2,0:0:0:0:
237,28,138617,6,0,L|244:97,1,70.000000667572,8|0,0:3|0:0,0:0:0:0:
149,33,138757,2,0,L|162:172,1,140.000001335144,8|0,0:3|3:0,0:0:0:0:
61,38,139053,2,0,L|84:299,1,262.500002503395,8|8,3:3|1:2,0:0:0:0:
0,0,139664,1,2,0:2:0:0:
61,38,140012,6,0,B|86:319|86:319|76:334|76:334|101:338|101:338|83:355|83:355|107:358|107:358|87:375|87:375|183:344|183:344|275:380,1,600,4|8,3:2|0:3,0:0:0:0:
342,349,142222,1,4,0:3:0:0:
410,373,142338,1,4,0:3:0:0:
512,340,142454,5,4,0:3:0:0:
490,290,142541,1,8,0:3:0:0:
444,260,142629,1,4,0:3:0:0:
442,264,142716,1,4,0:3:0:0:
437,364,142803,6,0,P|427:315|439:268,1,100,0|2,3:0|0:3,0:0:0:0:
508,190,143370,2,0,L|510:203,2,12.5,2|0|0,0:2|0:0|0:0,0:0:0:0:
423,168,143544,2,0,L|422:181,1,12.5,2|0,1:2|1:0,1:0:0:0:
485,106,143762,1,2,1:2:0:0:
485,106,144198,5,0,0:0:0:0:
487,102,144286,1,0,0:0:0:0:
512,62,144373,1,8,0:2:0:0:
359,4,144547,2,0,L|360:19,2,12.5,0|0|2,3:2|0:2|0:2,0:2:0:0:
357,0,144722,1,2,0:2:0:0:
342,91,144896,5,0,1:0:0:0:
340,94,144983,2,0,L|337:139,1,41.6666666666667
350,231,145245,1,0,1:3:0:0:
352,235,145303,1,0,1:3:0:0:
352,234,145594,6,0,P|295:267|229:265,1,133.333333333333,2|0,3:2|0:0,0:0:0:0:
225,263,146117,2,0,L|223:246,5,16.6666666666667,2|0|0|0|0|2,0:2|1:2|1:2|1:2|1:2|1:2,1:2:0:0:
254,95,146640,2,0,L|252:111,5,16.6666666666667,2|0|0|0|0|2,3:2|1:2|1:2|1:2|1:2|1:2,0:2:0:0:
255,90,146989,6,0,P|230:69|201:38,1,66.6666666666667,2|2,0:2|0:2,0:0:0:0:
59,0,147338,1,2,0:2:0:0:
136,98,147512,1,2,0:2:0:0:
12,115,147687,1,2,0:3:0:0:
89,213,147861,2,0,L|97:277,1,50
97,275,148210,6,0,L|99:288,4,12.5,2|2|2|2|2,0:2|0:2|0:2|0:2|0:2,0:0:0:0:
99,299,148472,1,0,0:0:0:0:
101,311,148559,1,0,0:0:0:0:
103,324,148646,1,0,0:0:0:0:
87,383,148733,2,0,P|137:372|185:365,1,100,2|2,3:2|0:2,0:0:0:0:
341,384,149257,5,0,0:2:0:0:
403,306,149431,1,0,0:2:0:0:
463,227,149605,1,0,0:2:0:0:
512,140,149780,2,0,P|491:157|476:174,1,50,2|0,0:2|0:0,0:0:0:0:
501,318,150129,2,0,L|499:332,3,14.2857142857143,0|0|0|0,3:3|0:3|0:3|0:3,0:3:0:0:
483,359,150328,2,0,L|484:373,3,14.2857142857143,2|0|0|12,0:2|0:0|0:0|0:2,0:0:0:0:
312,0,151175,6,0,P|329:46|345:94,1,100,2|0,3:2|1:0,0:0:0:0:
343,98,151611,1,0,0:0:0:0:
255,116,151786,1,0,0:0:0:0:
257,120,151873,1,0,0:0:0:0:
496,59,152222,5,2,3:2:0:0:
492,83,152309,1,0,0:2:0:0:
488,108,152396,1,0,0:2:0:0:
483,132,152483,1,0,0:2:0:0:
476,157,152571,2,0,P|475:165|475:173,6,16.6666666666667
477,177,153094,1,0,0:0:0:0:
477,177,153966,5,0,0:0:0:0:
479,181,154024,1,0,0:0:0:0:
391,199,154257,1,0,0:0:0:0:
393,203,154315,2,0,L|392:220,32,12.5,6|0|0|0|0|0|0|0|0|0|0|0|0|0|0|0|0|0|0|0|0|0|0|0|0|0|0|0|0|0|0|0|6,0:2|0:0|0:0|0:0|0:0|0:0|0:0|0:0|0:0|0:0|0:0|0:0|0:0|0:0|0:0|0:0|0:0|0:0|0:0|0:0|0:0|0:0|0:0|0:0|0:0|0:0|0:0|0:0|0:0|0:0|0:0|0:0|0:2,0:0:0:0:
394,219,155797,1,0,0:0:0:0:
396,223,155884,1,0,0:2:0:0:
395,219,157105,6,0,B|385:266|418:299|433:380,1,166.666666666667,2|0,0:2|0:0,0:0:0:0:
284,212,158152,2,0,P|282:228|282:245,1,33.3333333333333,2|0,0:2|0:0,0:0:0:0:
275,210,158326,2,0,P|271:276|275:327,2,116.666666666667,2|0|0,0:2|0:0|0:0,0:0:0:0:
264,208,159198,6,0,P|157:267|105:379,1,250,2|0,0:2|0:0,0:0:0:0:
194,384,160245,1,2,0:2:0:0:
132,301,160419,2,0,P|71:256|6:219,1,150,2|2,0:2|0:2,0:0:0:0:
