osu file format v14

[General]
AudioFilename: rumble.ogg
AudioLeadIn: 0
PreviewTime: 56550
Countdown: 0
SampleSet: Soft
StackLeniency: 0.7
Mode: 3
LetterboxInBreaks: 0
SpecialStyle: 0
WidescreenStoryboard: 1

[Editor]
Bookmarks: 42405,58520
DistanceSpacing: 0.6
BeatDivisor: 4
GridSize: 4
TimelineZoom: 1.700009

[Metadata]
Title:Rumble (sarochi Flip)
TitleUnicode:Rumble (sarochi Flip)
Artist:Skrillex, Fred again.. & Flowdan
ArtistUnicode:Skrillex, Fred again.. & Flowdan
Creator:KinoHimari
Version:danar's Easy
Source:
Tags:Ainer ERA Bengeut reihynn disguise danar zutu azkifanboy revv- kironojr edm instrumental english electronic drum and n bass dnb d&b d'n'b drumnbass drum'n'bass trance quest for fire mixed rice technical tech jack dump remix sarochisa
BeatmapID:4466717
BeatmapSetID:2123290

[Difficulty]
HPDrainRate:6.5
CircleSize:4
OverallDifficulty:6.5
ApproachRate:5
SliderMultiplier:1.4
SliderTickRate:1

[Events]
//Background and Video events
0,0,"bg.jpg",0,0
//Break Periods
//Storyboard Layer 0 (Background)
//Storyboard Layer 1 (Fail)
//Storyboard Layer 2 (Pass)
//Storyboard Layer 3 (Foreground)
//Storyboard Layer 4 (Overlay)
//Storyboard Sound Samples
Sample,27407,0,"hihat.wav",70
Sample,58779,0,"hihat.wav",70
Sample,58950,0,"hihat.wav",70
Sample,60150,0,"hihat.wav",70
Sample,61522,0,"hihat.wav",70
Sample,61693,0,"hihat.wav",70
Sample,62893,0,"hihat.wav",70
Sample,64265,0,"hihat.wav",70
Sample,64436,0,"hihat.wav",70
Sample,65636,0,"hihat.wav",70
Sample,67007,0,"hihat.wav",70
Sample,67179,0,"hihat.wav",70
Sample,68379,0,"hihat.wav",70
Sample,69750,0,"hihat.wav",70
Sample,69922,0,"hihat.wav",70
Sample,71122,0,"hihat.wav",70
Sample,72493,0,"hihat.wav",70
Sample,72665,0,"hihat.wav",70
Sample,73865,0,"hihat.wav",70
Sample,75236,0,"hihat.wav",70
Sample,76607,0,"hihat.wav",70
Sample,77979,0,"hihat.wav",70
Sample,79350,0,"hihat.wav",70
Sample,79865,0,"hihat.wav",70
Sample,80036,0,"hihat.wav",70
Sample,80379,0,"hihat.wav",70
Sample,80550,0,"hihat.wav",70
Sample,82093,0,"hihat.wav",70
Sample,83122,0,"hihat.wav",70
Sample,83293,0,"hihat.wav",70
Sample,84836,0,"hihat.wav",70
Sample,96836,0,"hihat.wav",70
Sample,97950,0,"hihat.wav",70
Sample,98207,0,"hihat.wav",70
Sample,99579,0,"hihat.wav",70
Sample,100693,0,"hihat.wav",70
Sample,100950,0,"hihat.wav",70
Sample,102322,0,"hihat.wav",70
Sample,103436,0,"hihat.wav",70
Sample,103693,0,"hihat.wav",70
Sample,105065,0,"hihat.wav",70
Sample,106179,0,"hihat.wav",70
Sample,106436,0,"hihat.wav",70

[TimingPoints]
5465,342.857142857143,4,2,1,50,1,0
12665,-100,4,2,1,40,0,0
14036,-100,4,2,1,30,0,0
15407,-100,4,2,1,50,0,0
50036,-100,4,2,1,30,0,0
51407,-100,4,2,1,35,0,0
52779,-100,4,2,1,40,0,0
53807,-100,4,2,1,45,0,0
54836,-100,4,2,1,50,0,0
96322,-100,4,2,1,50,0,1
106950,-100,4,2,1,50,0,0

[HitObjects]
448,192,5464,128,0,6493:0:0:0:0:
192,192,6493,128,0,7007:0:0:0:0:
64,192,7865,128,0,8379:0:0:0:0:
320,192,9236,128,0,9750:0:0:0:0:
448,192,10265,1,0,0:0:0:0:
64,192,10950,128,0,11979:0:0:0:0:
320,192,11979,128,0,12493:0:0:0:0:
192,192,13350,128,0,13865:0:0:0:0:
448,192,14722,128,0,15407:0:0:0:0:
320,192,16436,1,2,0:0:0:0:
64,192,16779,1,8,0:0:0:0:
192,192,16779,128,0,17293:0:0:0:70:hihat.wav
320,192,17293,1,8,0:0:0:0:
448,192,17293,128,0,17807:0:0:0:70:hihat.wav
64,192,17807,1,2,0:0:0:0:
320,192,18150,128,8,18665:0:0:0:0:
448,192,18150,1,0,0:0:0:70:hihat.wav
64,192,18665,128,8,19179:0:0:0:0:
192,192,18665,1,0,0:0:0:70:hihat.wav
448,192,19179,1,2,0:0:0:0:
192,192,19522,1,8,0:0:0:0:
448,192,19522,128,0,20036:0:0:0:70:hihat.wav
64,192,20036,128,8,20550:0:0:0:0:
320,192,20036,1,0,0:0:0:70:hihat.wav
448,192,20550,1,2,0:0:0:0:
320,192,20722,1,2,0:0:0:0:
64,192,20893,1,8,0:0:0:0:
192,192,20893,128,0,21407:0:0:0:70:hihat.wav
320,192,21407,1,8,0:0:0:0:
448,192,21407,128,0,21922:0:0:0:70:hihat.wav
192,192,21922,1,2,0:0:0:0:
64,192,22265,128,8,22779:0:0:0:0:
448,192,22265,1,0,0:0:0:70:hihat.wav
192,192,22779,1,8,0:0:0:0:
320,192,22779,128,0,23293:0:0:0:70:hihat.wav
64,192,23293,1,2,0:0:0:0:
320,192,23636,1,8,0:0:0:0:
448,192,23636,128,0,24150:0:0:0:70:hihat.wav
64,192,24150,128,8,24665:0:0:0:0:
192,192,24150,1,0,0:0:0:70:hihat.wav
448,192,24665,1,2,0:0:0:0:
192,192,25007,1,8,0:0:0:0:
320,192,25007,128,0,25522:0:0:0:70:hihat.wav
64,192,25522,128,8,26036:0:0:0:0:
448,192,25522,1,0,0:0:0:70:hihat.wav
448,192,26036,1,2,0:0:0:0:
320,192,26207,1,2,0:0:0:0:
64,192,26379,1,8,0:0:0:0:
192,192,26379,128,0,26893:0:0:0:70:hihat.wav
320,192,26893,1,8,0:0:0:0:
448,192,26893,128,0,27407:0:0:0:70:hihat.wav
64,192,27407,1,2,0:0:0:0:
64,192,28436,128,0,28865:0:0:0:0:
320,192,28865,1,0,0:0:0:0:
448,192,29807,128,0,30236:0:0:0:0:
192,192,30236,1,0,0:0:0:0:
320,192,31179,128,0,31607:0:0:0:0:
64,192,31607,1,0,0:0:0:0:
320,192,32207,1,0,0:0:0:0:
448,192,32207,1,0,0:0:0:0:
192,192,32550,1,0,0:0:0:0:
320,192,32893,128,0,33236:0:0:0:70:hihat.wav
64,192,33236,1,0,0:0:0:70:hihat.wav
192,192,33579,1,0,0:0:0:70:hihat.wav
448,192,33922,128,0,34436:0:0:0:70:hihat.wav
64,192,34436,1,0,0:0:0:70:hihat.wav
320,192,34607,1,0,0:0:0:70:hihat.wav
192,192,34950,1,0,0:0:0:70:hihat.wav
64,192,35293,128,0,35807:0:0:0:70:hihat.wav
320,192,35807,1,0,0:0:0:70:hihat.wav
192,192,35979,1,0,0:0:0:70:hihat.wav
448,192,36322,1,0,0:0:0:70:hihat.wav
320,192,36665,128,0,37179:0:0:0:70:hihat.wav
192,192,37179,1,0,0:0:0:0:
448,192,38036,1,0,0:0:0:0:
64,192,38379,1,0,0:0:0:0:
448,192,38722,1,0,0:0:0:0:
64,192,39065,1,0,0:0:0:0:
448,192,39407,1,0,0:0:0:0:
64,192,39750,1,0,0:0:0:0:
448,192,40093,1,0,0:0:0:0:
64,192,40436,1,0,0:0:0:0:
448,192,40779,1,0,0:0:0:0:
64,192,41122,1,0,0:0:0:0:
448,192,41465,1,0,0:0:0:0:
64,192,41807,1,0,0:0:0:0:
448,192,42150,1,0,0:0:0:0:
64,192,42493,1,0,0:0:0:0:
448,192,42836,1,0,0:0:0:0:
64,192,43179,1,0,0:0:0:0:
448,192,43522,1,0,0:0:0:0:
64,192,43865,1,8,0:0:0:0:
192,192,43865,1,0,0:0:0:0:
320,192,44036,1,8,0:0:0:0:
320,192,44379,1,8,0:0:0:0:
448,192,44379,1,0,0:0:0:0:
192,192,44550,1,8,0:0:0:0:
64,192,44893,1,8,0:0:0:0:
192,192,44893,1,0,0:0:0:0:
448,192,45065,1,8,0:0:0:0:
192,192,45407,1,8,0:0:0:0:
448,192,45407,1,0,0:0:0:0:
64,192,45750,1,8,0:0:0:0:
320,192,45750,1,0,0:0:0:0:
64,192,46093,1,8,0:0:0:0:
192,192,46093,128,0,46436:0:0:0:0:
448,192,46436,128,8,46779:0:0:0:0:
64,192,46779,1,8,0:0:0:0:
192,192,46779,1,0,0:0:0:0:
320,192,47122,1,8,0:0:0:0:
448,192,47122,1,0,0:0:0:0:
64,192,47293,1,8,0:0:0:0:
64,192,47636,1,8,0:0:0:0:
192,192,47636,1,0,0:0:0:0:
448,192,47807,1,8,0:0:0:0:
64,192,48150,1,8,0:0:0:0:
320,192,48150,1,0,0:0:0:0:
192,192,48493,1,8,0:0:0:0:
448,192,48493,1,0,0:0:0:0:
320,192,48836,128,8,49350:0:0:0:0:
448,192,48836,1,0,0:0:0:0:
64,192,49350,1,8,0:0:0:0:
192,192,49350,1,0,0:0:0:0:
320,192,49693,1,0,0:0:0:0:
448,192,50036,1,0,0:0:0:0:
192,192,50293,1,0,0:0:0:0:
64,192,50722,1,0,0:0:0:0:
192,192,51065,1,0,0:0:0:0:
64,192,51407,1,0,0:0:0:0:
320,192,51750,1,0,0:0:0:0:
448,192,52093,1,0,0:0:0:0:
320,192,52436,1,0,0:0:0:0:
448,192,52779,1,0,0:0:0:0:
192,192,52950,1,0,0:0:0:0:
320,192,53122,128,0,53465:0:0:0:0:
64,192,53465,1,0,0:0:0:0:
320,192,53636,1,0,0:0:0:0:
192,192,53807,128,0,55522:0:0:0:0:
448,192,56550,128,0,56893:0:0:0:0:
64,192,56893,128,0,57579:0:0:0:0:
320,192,57579,1,2,0:0:0:0:
448,192,57579,1,0,0:0:0:0:
192,192,57922,128,8,58436:0:0:0:0:
320,192,57922,1,0,0:0:0:70:hihat.wav
64,192,58436,1,8,0:0:0:0:
448,192,58436,128,0,58779:0:0:0:70:hihat.wav
192,192,58779,1,2,0:0:0:0:
448,192,58950,1,2,0:0:0:0:
192,192,59293,1,8,0:0:0:0:
320,192,59293,128,0,59807:0:0:0:70:hihat.wav
64,192,59807,128,8,60150:0:0:0:0:
448,192,59807,1,0,0:0:0:70:hihat.wav
320,192,60150,1,2,0:0:0:0:
64,192,60322,1,2,0:0:0:0:
320,192,60665,1,8,0:0:0:0:
448,192,60665,128,0,61179:0:0:0:70:hihat.wav
64,192,61179,1,8,0:0:0:0:
192,192,61179,128,0,61522:0:0:0:70:hihat.wav
448,192,61522,1,2,0:0:0:0:
192,192,61693,1,2,0:0:0:0:
64,192,62036,128,8,62550:0:0:0:0:
448,192,62036,1,0,0:0:0:70:hihat.wav
192,192,62550,1,8,0:0:0:0:
320,192,62550,128,0,62893:0:0:0:70:hihat.wav
64,192,62893,1,8,0:0:0:0:
320,192,63065,1,2,0:0:0:0:
64,192,63407,1,8,0:0:0:0:
448,192,63407,128,0,63922:0:0:0:70:hihat.wav
192,192,63922,128,8,64265:0:0:0:0:
320,192,63922,1,0,0:0:0:70:hihat.wav
448,192,64265,1,2,0:0:0:0:
192,192,64436,1,2,0:0:0:0:
320,192,64779,128,8,65293:0:0:0:0:
448,192,64779,1,0,0:0:0:70:hihat.wav
64,192,65293,128,8,65636:0:0:0:0:
192,192,65293,1,0,0:0:0:70:hihat.wav
320,192,65636,1,2,0:0:0:0:
64,192,65807,1,2,0:0:0:0:
192,192,66150,128,8,66665:0:0:0:0:
320,192,66150,1,0,0:0:0:70:hihat.wav
64,192,66665,1,8,0:0:0:0:
448,192,66665,128,0,67007:0:0:0:70:hihat.wav
192,192,67007,1,2,0:0:0:0:
448,192,67179,1,2,0:0:0:0:
192,192,67522,1,8,0:0:0:0:
320,192,67522,128,0,68036:0:0:0:70:hihat.wav
64,192,68036,128,8,68379:0:0:0:0:
448,192,68036,1,0,0:0:0:70:hihat.wav
320,192,68379,1,8,0:0:0:0:
448,192,68550,1,2,0:0:0:0:
64,192,68893,1,8,0:0:0:0:
448,192,68893,128,0,69407:0:0:0:70:hihat.wav
64,192,69407,1,8,0:0:0:0:
192,192,69407,128,0,69750:0:0:0:70:hihat.wav
448,192,69750,1,2,0:0:0:0:
192,192,69922,1,2,0:0:0:0:
192,192,70265,128,8,70779:0:0:0:0:
320,192,70265,1,0,0:0:0:70:hihat.wav
320,192,70779,1,8,0:0:0:0:
448,192,70779,128,0,71122:0:0:0:70:hihat.wav
192,192,71122,1,2,0:0:0:0:
448,192,71293,1,2,0:0:0:0:
64,192,71636,128,8,72150:0:0:0:0:
448,192,71636,1,0,0:0:0:70:hihat.wav
320,192,72150,128,8,72493:0:0:0:0:
448,192,72150,1,0,0:0:0:70:hihat.wav
64,192,72493,1,2,0:0:0:0:
320,192,72665,1,2,0:0:0:0:
192,192,73007,1,8,0:0:0:0:
320,192,73007,128,0,73522:0:0:0:70:hihat.wav
64,192,73522,128,8,73865:0:0:0:0:
192,192,73522,1,0,0:0:0:70:hihat.wav
320,192,73865,1,8,0:0:0:0:
448,192,74036,1,2,0:0:0:0:
192,192,74207,1,0,0:0:0:0:
64,192,74379,1,8,0:0:0:0:
448,192,74379,128,0,74893:0:0:0:70:hihat.wav
64,192,74893,128,8,75236:0:0:0:0:
192,192,74893,1,0,0:0:0:70:hihat.wav
448,192,75236,1,2,0:0:0:0:
64,192,75407,1,2,0:0:0:0:
64,192,75750,128,8,76265:0:0:0:0:
320,192,75750,1,0,0:0:0:70:hihat.wav
320,192,76265,128,8,76607:0:0:0:0:
448,192,76265,1,0,0:0:0:70:hihat.wav
64,192,76607,1,2,0:0:0:0:
320,192,76779,1,2,0:0:0:0:
192,192,76950,1,0,0:0:0:0:
64,192,77122,128,8,77636:0:0:0:0:
448,192,77122,1,0,0:0:0:70:hihat.wav
320,192,77636,1,8,0:0:0:0:
448,192,77636,128,0,77979:0:0:0:70:hihat.wav
64,192,77979,1,2,0:0:0:0:
448,192,78150,1,2,0:0:0:0:
64,192,78493,1,8,0:0:0:0:
448,192,78493,128,0,79007:0:0:0:70:hihat.wav
64,192,79007,1,8,0:0:0:0:
192,192,79007,128,0,79350:0:0:0:70:hihat.wav
448,192,79350,1,8,0:0:0:0:
320,192,79522,1,2,0:0:0:0:
448,192,79865,1,8,0:0:0:0:
64,192,80036,128,2,80379:0:0:0:0:
320,192,80379,1,8,0:0:0:0:
448,192,80550,128,2,80893:0:0:0:0:
192,192,80893,1,2,0:0:0:0:
64,192,81236,128,8,81750:0:0:0:0:
448,192,81236,1,0,0:0:0:70:hihat.wav
320,192,81750,128,8,82093:0:0:0:0:
448,192,81750,1,0,0:0:0:70:hihat.wav
64,192,82093,1,2,0:0:0:0:
320,192,82265,1,2,0:0:0:0:
64,192,82607,1,8,0:0:0:0:
448,192,82607,128,0,83122:0:0:0:70:hihat.wav
64,192,83122,1,8,0:0:0:0:
192,192,83293,128,2,83636:0:0:0:0:
448,192,83636,1,2,0:0:0:0:
64,192,83979,1,8,0:0:0:0:
448,192,83979,128,0,84493:0:0:0:70:hihat.wav
64,192,84493,1,8,0:0:0:0:
192,192,84493,128,0,84836:0:0:0:70:hihat.wav
320,192,84836,1,8,0:0:0:0:
448,192,85007,1,10,0:0:0:0:
64,192,85522,1,10,0:0:0:0:
320,192,85693,1,0,0:0:0:0:
192,192,86036,1,10,0:0:0:0:
192,192,86379,128,10,86722:0:0:0:0:
320,192,86893,1,10,0:0:0:0:
448,192,87065,128,0,87407:0:0:0:0:
64,192,87407,1,10,0:0:0:0:
320,192,87750,1,2,0:0:0:0:
448,192,87750,1,8,0:0:0:0:
448,192,88265,1,10,0:0:0:0:
192,192,88436,1,0,0:0:0:0:
320,192,88779,1,10,0:0:0:0:
320,192,89122,128,10,89465:0:0:0:0:
192,192,89636,1,10,0:0:0:0:
64,192,89807,128,0,90150:0:0:0:0:
448,192,90150,1,10,0:0:0:0:
64,192,90493,1,2,0:0:0:0:
192,192,90493,1,8,0:0:0:0:
448,192,91007,1,10,0:0:0:0:
192,192,91179,1,0,0:0:0:0:
64,192,91522,1,10,0:0:0:0:
64,192,91865,128,10,92207:0:0:0:0:
448,192,92379,1,10,0:0:0:0:
320,192,92550,128,0,92893:0:0:0:0:
192,192,92893,1,10,0:0:0:0:
320,192,93236,1,2,0:0:0:0:
448,192,93236,1,8,0:0:0:0:
64,192,93750,1,10,0:0:0:0:
320,192,93922,1,0,0:0:0:0:
448,192,94265,1,10,0:0:0:0:
192,192,94607,128,0,94950:0:0:0:0:
320,192,94950,1,0,0:0:0:0:
64,192,95293,128,0,95636:0:0:0:0:
448,192,95636,1,0,0:0:0:0:
64,192,95979,1,2,0:0:0:0:
192,192,95979,1,0,0:0:0:0:
320,192,96322,128,8,96836:0:0:0:0:
448,192,96322,1,0,0:0:0:70:hihat.wav
192,192,96836,1,2,0:0:0:0:
64,192,97007,1,8,0:0:0:0:
320,192,97007,1,0,0:0:0:70:hihat.wav
192,192,97350,1,2,0:0:0:0:
448,192,97350,1,0,0:0:0:70:hihat.wav
64,192,97693,1,8,0:0:0:0:
192,192,97693,1,0,0:0:0:70:hihat.wav
448,192,97950,1,2,0:0:0:0:
192,192,98207,1,2,0:0:0:0:
64,192,98379,1,8,0:0:0:0:
320,192,98379,1,0,0:0:0:70:hihat.wav
64,192,98722,1,2,0:0:0:0:
192,192,98722,1,0,0:0:0:0:
320,192,99065,1,8,0:0:0:0:
448,192,99065,128,0,99579:0:0:0:70:hihat.wav
64,192,99579,1,2,0:0:0:0:
192,192,99750,1,8,0:0:0:0:
448,192,99750,1,0,0:0:0:70:hihat.wav
64,192,100093,1,2,0:0:0:0:
320,192,100093,1,0,0:0:0:70:hihat.wav
64,192,100436,1,8,0:0:0:0:
448,192,100436,1,0,0:0:0:70:hihat.wav
320,192,100693,1,2,0:0:0:0:
64,192,100950,1,2,0:0:0:0:
192,192,101122,1,8,0:0:0:0:
448,192,101122,1,0,0:0:0:70:hihat.wav
320,192,101465,1,2,0:0:0:0:
448,192,101465,1,0,0:0:0:70:hihat.wav
64,192,101807,1,8,0:0:0:0:
192,192,101807,128,0,102322:0:0:0:70:hihat.wav
320,192,102322,1,2,0:0:0:0:
192,192,102493,1,8,0:0:0:0:
448,192,102493,1,0,0:0:0:70:hihat.wav
64,192,102836,1,2,0:0:0:0:
320,192,102836,1,0,0:0:0:70:hihat.wav
320,192,103179,1,8,0:0:0:0:
448,192,103179,1,0,0:0:0:70:hihat.wav
64,192,103436,1,2,0:0:0:0:
320,192,103693,1,2,0:0:0:0:
192,192,103865,1,8,0:0:0:0:
448,192,103865,1,0,0:0:0:70:hihat.wav
320,192,104207,1,2,0:0:0:0:
448,192,104207,1,0,0:0:0:0:
64,192,104550,128,8,105065:0:0:0:0:
192,192,104550,1,0,0:0:0:70:hihat.wav
448,192,105065,1,2,0:0:0:0:
64,192,105236,1,8,0:0:0:0:
320,192,105236,1,0,0:0:0:70:hihat.wav
192,192,105579,1,2,0:0:0:0:
448,192,105579,1,0,0:0:0:70:hihat.wav
192,192,105922,1,8,0:0:0:0:
320,192,105922,1,0,0:0:0:70:hihat.wav
448,192,106179,1,2,0:0:0:0:
64,192,106436,1,2,0:0:0:0:
192,192,106607,1,8,0:0:0:0:
320,192,106607,1,0,0:0:0:70:hihat.wav
320,192,106950,1,2,0:0:0:0:
448,192,106950,1,0,0:0:0:70:hihat.wav
