osu file format v14

[General]
AudioFilename: rumble.ogg
AudioLeadIn: 0
PreviewTime: 56550
Countdown: 0
SampleSet: Soft
StackLeniency: 0.7
Mode: 3
LetterboxInBreaks: 0
SpecialStyle: 0
WidescreenStoryboard: 1

[Editor]
DistanceSpacing: 0.6
BeatDivisor: 8
GridSize: 4
TimelineZoom: 3.000013

[Metadata]
Title:Rumble (sarochi Flip)
TitleUnicode:Rumble (sarochi Flip)
Artist:Skrillex, Fred again.. & Flowdan
ArtistUnicode:Skrillex, Fred again.. & Flowdan
Creator:KinoHimari
Version:Extra
Source:
Tags:Ainer ERA Bengeut reihynn disguise danar zutu azkifanboy revv- kironojr edm instrumental english electronic drum and n bass dnb d&b d'n'b drumnbass drum'n'bass trance quest for fire mixed rice technical tech jack dump remix sarochisa
BeatmapID:4462079
BeatmapSetID:2123290

[Difficulty]
HPDrainRate:8.5
CircleSize:4
OverallDifficulty:8
ApproachRate:5
SliderMultiplier:1.4
SliderTickRate:1

[Events]
//Background and Video events
0,0,"bg.jpg",0,0
//Break Periods
//Storyboard Layer 0 (Background)
//Storyboard Layer 1 (Fail)
//Storyboard Layer 2 (Pass)
//Storyboard Layer 3 (Foreground)
//Storyboard Layer 4 (Overlay)
//Storyboard Sound Samples
Sample,97950,0,"hihat.wav",70

[TimingPoints]
5465,342.857142857143,4,2,1,50,1,0
12665,-100,4,2,1,40,0,0
14036,-100,4,2,1,30,0,0
15407,-100,4,2,1,50,0,0
50036,-100,4,2,1,30,0,0
51407,-100,4,2,1,35,0,0
52779,-100,4,2,1,40,0,0
53807,-100,4,2,1,45,0,0
54836,-100,4,2,1,50,0,0
96322,-100,4,2,1,50,0,1
106950,-100,4,2,1,50,0,0

[HitObjects]
64,192,5464,1,0,0:0:0:0:
320,192,5550,1,0,0:0:0:0:
64,192,5636,1,0,0:0:0:0:
448,192,5722,1,0,0:0:0:0:
192,192,5807,1,0,0:0:0:0:
448,192,5893,1,0,0:0:0:0:
64,192,5979,1,0,0:0:0:0:
320,192,6064,1,0,0:0:0:0:
64,192,6150,1,0,0:0:0:0:
320,192,6493,1,0,0:0:0:0:
192,192,6579,1,0,0:0:0:0:
320,192,6665,1,0,0:0:0:0:
192,192,6750,1,0,0:0:0:0:
320,192,6836,1,0,0:0:0:0:
192,192,6922,1,0,0:0:0:0:
320,192,7007,1,0,0:0:0:0:
64,192,7522,1,0,0:0:0:0:
320,192,7865,1,0,0:0:0:0:
192,192,7950,1,0,0:0:0:0:
320,192,8036,1,0,0:0:0:0:
192,192,8122,1,0,0:0:0:0:
320,192,8207,1,0,0:0:0:0:
192,192,8293,1,0,0:0:0:0:
320,192,8379,1,0,0:0:0:0:
64,192,8893,1,0,0:0:0:0:
320,192,9236,1,0,0:0:0:0:
192,192,9322,1,0,0:0:0:0:
320,192,9407,1,0,0:0:0:0:
192,192,9493,1,0,0:0:0:0:
320,192,9579,1,0,0:0:0:0:
192,192,9665,1,0,0:0:0:0:
320,192,9750,1,0,0:0:0:0:
192,192,10093,128,0,10265:0:0:0:0:
64,192,10265,1,0,0:0:0:0:
448,192,10265,1,0,0:0:0:0:
320,192,10436,1,0,0:0:0:0:
192,192,10522,1,0,0:0:0:0:
320,192,10607,1,0,0:0:0:0:
64,192,10693,1,0,0:0:0:0:
448,192,10779,1,0,0:0:0:0:
64,192,10865,1,0,0:0:0:0:
192,192,10950,1,0,0:0:0:0:
448,192,11036,1,0,0:0:0:0:
192,192,11122,1,0,0:0:0:0:
320,192,11207,1,0,0:0:0:0:
64,192,11293,1,0,0:0:0:0:
320,192,11379,1,0,0:0:0:0:
448,192,11465,1,0,0:0:0:0:
192,192,11550,1,0,0:0:0:0:
448,192,11636,1,0,0:0:0:0:
64,192,11722,1,0,0:0:0:0:
320,192,11807,1,0,0:0:0:0:
64,192,11893,1,0,0:0:0:0:
320,192,11979,1,0,0:0:0:0:
192,192,12065,1,0,0:0:0:0:
320,192,12150,1,0,0:0:0:0:
192,192,12236,1,0,0:0:0:0:
320,192,12322,1,0,0:0:0:0:
192,192,12407,1,0,0:0:0:0:
320,192,12493,1,0,0:0:0:0:
64,192,13007,1,0,0:0:0:0:
320,192,13350,1,0,0:0:0:0:
192,192,13436,1,0,0:0:0:0:
320,192,13522,1,0,0:0:0:0:
192,192,13607,1,0,0:0:0:0:
320,192,13693,1,0,0:0:0:0:
192,192,13779,1,0,0:0:0:0:
320,192,13865,1,0,0:0:0:0:
64,192,14379,1,0,0:0:0:0:
320,192,14722,1,0,0:0:0:0:
192,192,14807,1,0,0:0:0:0:
320,192,14893,1,0,0:0:0:0:
64,192,14979,1,0,0:0:0:0:
448,192,15065,1,0,0:0:0:0:
192,192,15150,1,0,0:0:0:0:
320,192,15236,1,0,0:0:0:0:
320,192,15922,128,0,16093:0:0:0:0:
448,192,16007,128,0,16265:0:0:0:0:
192,192,16265,128,0,16436:0:0:0:0:
320,192,16436,1,2,0:0:0:0:
448,192,16436,1,0,0:0:0:0:
64,192,16779,1,8,0:0:0:0:
192,192,16779,1,0,0:0:0:70:hihat.wav
448,192,16779,1,0,0:0:0:0:
320,192,16865,1,0,0:0:0:0:
64,192,16950,1,0,0:0:0:70:hihat.wav
320,192,17036,1,0,0:0:0:0:
192,192,17122,1,0,0:0:0:70:hihat.wav
448,192,17207,1,0,0:0:0:0:
64,192,17293,1,8,0:0:0:0:
192,192,17293,1,0,0:0:0:70:hihat.wav
320,192,17293,1,0,0:0:0:0:
448,192,17379,1,0,0:0:0:0:
64,192,17465,1,0,0:0:0:70:hihat.wav
192,192,17550,1,0,0:0:0:0:
64,192,17636,1,0,0:0:0:70:hihat.wav
320,192,17722,1,0,0:0:0:0:
64,192,17807,1,2,0:0:0:0:
192,192,17807,1,0,0:0:0:0:
64,192,18150,1,8,0:0:0:0:
320,192,18150,1,0,0:0:0:70:hihat.wav
448,192,18150,1,0,0:0:0:0:
192,192,18236,1,0,0:0:0:0:
448,192,18322,1,0,0:0:0:70:hihat.wav
192,192,18407,1,0,0:0:0:0:
320,192,18493,1,0,0:0:0:70:hihat.wav
64,192,18579,1,0,0:0:0:0:
192,192,18665,1,8,0:0:0:0:
320,192,18665,1,0,0:0:0:70:hihat.wav
448,192,18665,1,0,0:0:0:0:
64,192,18750,1,0,0:0:0:0:
448,192,18836,1,0,0:0:0:70:hihat.wav
320,192,18922,1,0,0:0:0:0:
448,192,19007,1,0,0:0:0:70:hihat.wav
192,192,19093,1,0,0:0:0:0:
320,192,19179,1,2,0:0:0:0:
448,192,19179,1,0,0:0:0:0:
64,192,19522,1,8,0:0:0:0:
192,192,19522,1,0,0:0:0:70:hihat.wav
320,192,19522,1,0,0:0:0:0:
448,192,19607,1,0,0:0:0:0:
192,192,19693,1,0,0:0:0:70:hihat.wav
448,192,19779,1,0,0:0:0:0:
64,192,19865,1,0,0:0:0:70:hihat.wav
320,192,19950,1,0,0:0:0:0:
64,192,20036,1,8,0:0:0:0:
192,192,20036,1,0,0:0:0:70:hihat.wav
448,192,20036,1,0,0:0:0:0:
320,192,20122,1,0,0:0:0:0:
192,192,20207,1,0,0:0:0:70:hihat.wav
64,192,20293,1,0,0:0:0:0:
192,192,20379,1,0,0:0:0:70:hihat.wav
448,192,20465,1,0,0:0:0:0:
64,192,20550,1,2,0:0:0:0:
192,192,20550,1,0,0:0:0:0:
64,192,20722,1,2,0:0:0:0:
320,192,20722,1,0,0:0:0:0:
192,192,20893,1,8,0:0:0:0:
320,192,20893,1,0,0:0:0:70:hihat.wav
448,192,20893,1,0,0:0:0:0:
64,192,20979,1,0,0:0:0:0:
320,192,21065,1,0,0:0:0:70:hihat.wav
64,192,21150,1,0,0:0:0:0:
448,192,21236,1,0,0:0:0:70:hihat.wav
192,192,21322,1,0,0:0:0:0:
64,192,21407,1,8,0:0:0:0:
320,192,21407,1,0,0:0:0:70:hihat.wav
448,192,21407,1,0,0:0:0:0:
192,192,21493,1,0,0:0:0:0:
320,192,21579,1,0,0:0:0:70:hihat.wav
448,192,21665,1,0,0:0:0:0:
64,192,21750,1,8,0:0:0:0:
192,192,21750,1,0,0:0:0:70:hihat.wav
320,192,21750,1,0,0:0:0:0:
64,192,21836,1,8,0:0:0:0:
192,192,21836,1,0,0:0:0:0:
320,192,21922,1,2,0:0:0:0:
448,192,21922,1,0,0:0:0:0:
64,192,22265,1,8,0:0:0:0:
192,192,22265,1,0,0:0:0:70:hihat.wav
448,192,22265,1,0,0:0:0:0:
320,192,22350,1,0,0:0:0:0:
448,192,22436,1,0,0:0:0:70:hihat.wav
192,192,22522,1,0,0:0:0:0:
320,192,22607,1,0,0:0:0:70:hihat.wav
64,192,22693,1,0,0:0:0:0:
192,192,22779,1,8,0:0:0:0:
320,192,22779,1,0,0:0:0:70:hihat.wav
448,192,22779,1,0,0:0:0:0:
64,192,22865,1,0,0:0:0:0:
448,192,22950,1,0,0:0:0:70:hihat.wav
192,192,23036,1,0,0:0:0:0:
448,192,23122,1,0,0:0:0:70:hihat.wav
320,192,23207,1,0,0:0:0:0:
64,192,23293,1,2,0:0:0:0:
192,192,23293,1,0,0:0:0:0:
64,192,23636,1,8,0:0:0:0:
320,192,23636,1,0,0:0:0:70:hihat.wav
448,192,23636,1,0,0:0:0:0:
192,192,23722,1,0,0:0:0:0:
64,192,23807,1,0,0:0:0:70:hihat.wav
320,192,23893,1,0,0:0:0:0:
192,192,23979,1,0,0:0:0:70:hihat.wav
448,192,24065,1,0,0:0:0:0:
64,192,24150,1,8,0:0:0:0:
192,192,24150,1,0,0:0:0:70:hihat.wav
320,192,24150,1,0,0:0:0:0:
448,192,24236,1,0,0:0:0:0:
64,192,24322,1,0,0:0:0:70:hihat.wav
320,192,24407,1,0,0:0:0:0:
64,192,24493,1,0,0:0:0:70:hihat.wav
192,192,24579,1,0,0:0:0:0:
320,192,24665,1,2,0:0:0:0:
448,192,24665,1,0,0:0:0:0:
64,192,25007,1,8,0:0:0:0:
192,192,25007,1,0,0:0:0:70:hihat.wav
320,192,25007,1,0,0:0:0:0:
448,192,25093,1,0,0:0:0:0:
320,192,25179,1,0,0:0:0:70:hihat.wav
64,192,25265,1,0,0:0:0:0:
448,192,25350,1,0,0:0:0:70:hihat.wav
192,192,25436,1,0,0:0:0:0:
64,192,25522,1,8,0:0:0:0:
320,192,25522,1,0,0:0:0:70:hihat.wav
448,192,25522,1,0,0:0:0:0:
192,192,25607,1,0,0:0:0:0:
320,192,25693,1,0,0:0:0:70:hihat.wav
64,192,25779,1,0,0:0:0:0:
320,192,25865,1,0,0:0:0:70:hihat.wav
448,192,25950,1,0,0:0:0:0:
64,192,26036,1,2,0:0:0:0:
192,192,26036,1,0,0:0:0:0:
192,192,26207,1,2,0:0:0:0:
320,192,26207,1,0,0:0:0:0:
64,192,26379,1,8,0:0:0:0:
320,192,26379,1,0,0:0:0:70:hihat.wav
448,192,26379,1,0,0:0:0:0:
192,192,26465,1,0,0:0:0:0:
64,192,26550,1,0,0:0:0:70:hihat.wav
320,192,26636,1,0,0:0:0:0:
192,192,26722,1,0,0:0:0:70:hihat.wav
448,192,26807,1,0,0:0:0:0:
64,192,26893,1,8,0:0:0:0:
192,192,26893,1,0,0:0:0:70:hihat.wav
320,192,26893,1,0,0:0:0:0:
448,192,26979,1,0,0:0:0:0:
64,192,27065,1,0,0:0:0:70:hihat.wav
192,192,27150,1,0,0:0:0:0:
64,192,27236,1,8,0:0:0:0:
320,192,27236,1,0,0:0:0:70:hihat.wav
448,192,27236,1,0,0:0:0:0:
320,192,27322,1,8,0:0:0:0:
448,192,27322,1,0,0:0:0:0:
64,192,27407,128,2,27579:0:0:0:0:
192,192,27407,1,0,0:0:0:70:hihat.wav
448,192,27465,1,0,0:0:0:70:hihat.wav
320,192,27522,1,0,0:0:0:70:hihat.wav
192,192,27579,1,0,0:0:0:70:hihat.wav
320,192,27750,1,0,0:0:0:0:
320,192,27865,1,0,0:0:0:0:
192,192,28036,128,0,28150:0:0:0:0:
64,192,28093,128,0,28265:0:0:0:0:
448,192,28265,1,0,0:0:0:0:
192,192,28436,1,0,0:0:0:0:
192,192,28522,1,0,0:0:0:0:
320,192,28607,1,0,0:0:0:0:
192,192,28693,1,0,0:0:0:0:
320,192,28779,1,0,0:0:0:0:
320,192,28865,1,0,0:0:0:0:
64,192,29122,128,0,29207:0:0:0:0:
192,192,29207,128,0,29293:0:0:0:0:
64,192,29293,128,0,29379:0:0:0:0:
448,192,29379,128,0,29465:0:0:0:0:
320,192,29465,128,0,29636:0:0:0:0:
448,192,29636,1,0,0:0:0:0:
192,192,29807,1,0,0:0:0:0:
192,192,29893,1,0,0:0:0:0:
320,192,29979,1,0,0:0:0:0:
192,192,30065,1,0,0:0:0:0:
320,192,30150,1,0,0:0:0:0:
320,192,30236,1,0,0:0:0:0:
64,192,30493,128,0,30579:0:0:0:0:
192,192,30579,128,0,30665:0:0:0:0:
64,192,30665,128,0,30750:0:0:0:0:
448,192,30750,128,0,30836:0:0:0:0:
320,192,30836,128,0,31007:0:0:0:0:
448,192,31007,1,0,0:0:0:0:
192,192,31179,1,0,0:0:0:0:
192,192,31265,1,0,0:0:0:0:
320,192,31350,1,0,0:0:0:0:
192,192,31436,1,0,0:0:0:0:
320,192,31522,1,0,0:0:0:0:
320,192,31607,1,0,0:0:0:0:
64,192,31865,128,0,31950:0:0:0:0:
192,192,31950,128,0,32036:0:0:0:0:
64,192,32036,128,0,32122:0:0:0:0:
448,192,32122,128,0,32207:0:0:0:0:
192,192,32207,128,0,32465:0:0:0:0:
320,192,32207,128,0,32379:0:0:0:0:
448,192,32379,1,0,0:0:0:0:
64,192,32550,1,0,0:0:0:0:
320,192,32550,1,0,0:0:0:0:
448,192,32636,1,0,0:0:0:0:
192,192,32722,1,0,0:0:0:0:
320,192,32807,1,0,0:0:0:0:
64,192,32893,128,0,33065:0:0:0:70:hihat.wav
448,192,32893,1,0,0:0:0:0:
192,192,32950,1,0,0:0:0:70:hihat.wav
320,192,33007,1,0,0:0:0:70:hihat.wav
448,192,33065,1,0,0:0:0:70:hihat.wav
192,192,33236,1,0,0:0:0:70:hihat.wav
320,192,33236,1,0,0:0:0:0:
192,192,33350,1,0,0:0:0:0:
320,192,33407,1,0,0:0:0:70:hihat.wav
192,192,33522,128,0,33636:0:0:0:0:
64,192,33579,128,0,33750:0:0:0:70:hihat.wav
320,192,33579,1,0,0:0:0:0:
320,192,33750,1,0,0:0:0:70:hihat.wav
320,192,33922,1,0,0:0:0:70:hihat.wav
320,192,34007,1,0,0:0:0:0:
192,192,34093,1,0,0:0:0:70:hihat.wav
320,192,34179,1,0,0:0:0:0:
192,192,34265,1,0,0:0:0:70:hihat.wav
192,192,34350,1,0,0:0:0:0:
320,192,34436,1,0,0:0:0:70:hihat.wav
64,192,34607,128,0,34693:0:0:0:70:hihat.wav
320,192,34607,1,0,0:0:0:0:
192,192,34693,128,0,34779:0:0:0:0:
64,192,34779,128,0,34865:0:0:0:70:hihat.wav
320,192,34779,1,0,0:0:0:0:
448,192,34865,128,0,34950:0:0:0:0:
192,192,34950,1,0,0:0:0:70:hihat.wav
320,192,34950,128,0,35122:0:0:0:0:
448,192,35122,1,0,0:0:0:70:hihat.wav
320,192,35293,1,0,0:0:0:70:hihat.wav
320,192,35379,1,0,0:0:0:0:
192,192,35465,1,0,0:0:0:70:hihat.wav
320,192,35550,1,0,0:0:0:0:
192,192,35636,1,0,0:0:0:70:hihat.wav
192,192,35722,1,0,0:0:0:0:
320,192,35807,1,0,0:0:0:70:hihat.wav
64,192,35979,128,0,36065:0:0:0:70:hihat.wav
320,192,35979,1,0,0:0:0:0:
192,192,36065,128,0,36150:0:0:0:0:
64,192,36150,128,0,36236:0:0:0:70:hihat.wav
320,192,36150,1,0,0:0:0:0:
448,192,36236,128,0,36322:0:0:0:0:
192,192,36322,1,0,0:0:0:70:hihat.wav
320,192,36322,128,0,36493:0:0:0:0:
448,192,36493,1,0,0:0:0:70:hihat.wav
320,192,36665,1,0,0:0:0:70:hihat.wav
320,192,36750,1,0,0:0:0:0:
192,192,36836,1,0,0:0:0:70:hihat.wav
320,192,36922,1,0,0:0:0:0:
192,192,37007,1,0,0:0:0:70:hihat.wav
192,192,37093,1,0,0:0:0:0:
320,192,37179,1,0,0:0:0:0:
64,192,37350,1,0,0:0:0:0:
192,192,37436,1,0,0:0:0:0:
64,192,37522,1,0,0:0:0:0:
320,192,37607,1,0,0:0:0:0:
192,192,37693,1,0,0:0:0:0:
448,192,37865,1,0,0:0:0:0:
64,192,38036,1,0,0:0:0:0:
192,192,38122,1,0,0:0:0:0:
64,192,38207,1,0,0:0:0:0:
320,192,38293,1,0,0:0:0:0:
192,192,38379,1,0,0:0:0:0:
64,192,38465,1,0,0:0:0:0:
192,192,38550,1,0,0:0:0:0:
320,192,38636,1,0,0:0:0:0:
64,192,38722,1,0,0:0:0:0:
192,192,38807,1,0,0:0:0:0:
64,192,38893,1,0,0:0:0:0:
320,192,38979,1,0,0:0:0:0:
192,192,39065,1,0,0:0:0:0:
64,192,39150,1,0,0:0:0:0:
192,192,39236,1,0,0:0:0:0:
320,192,39322,1,0,0:0:0:0:
64,192,39407,1,0,0:0:0:0:
192,192,39493,1,0,0:0:0:0:
64,192,39579,1,0,0:0:0:0:
320,192,39665,1,0,0:0:0:0:
192,192,39750,1,0,0:0:0:0:
64,192,39836,1,0,0:0:0:0:
192,192,39922,1,0,0:0:0:0:
320,192,40007,1,0,0:0:0:0:
64,192,40093,1,0,0:0:0:0:
192,192,40179,1,0,0:0:0:0:
64,192,40265,1,0,0:0:0:0:
320,192,40350,1,0,0:0:0:0:
192,192,40436,1,0,0:0:0:0:
64,192,40522,1,0,0:0:0:0:
192,192,40607,1,0,0:0:0:0:
320,192,40693,1,0,0:0:0:0:
64,192,40779,1,0,0:0:0:0:
192,192,40865,1,0,0:0:0:0:
64,192,40950,1,0,0:0:0:0:
320,192,41036,1,0,0:0:0:0:
192,192,41122,1,0,0:0:0:0:
64,192,41207,1,0,0:0:0:0:
192,192,41293,1,0,0:0:0:0:
320,192,41379,1,0,0:0:0:0:
64,192,41465,1,0,0:0:0:0:
192,192,41550,1,0,0:0:0:0:
64,192,41636,1,0,0:0:0:0:
320,192,41722,1,0,0:0:0:0:
192,192,41807,1,0,0:0:0:0:
64,192,41893,1,0,0:0:0:0:
192,192,41979,1,0,0:0:0:0:
320,192,42065,1,0,0:0:0:0:
64,192,42150,1,0,0:0:0:0:
192,192,42236,1,0,0:0:0:0:
64,192,42322,1,0,0:0:0:0:
320,192,42407,1,0,0:0:0:0:
192,192,42493,1,0,0:0:0:0:
64,192,42579,1,0,0:0:0:0:
192,192,42665,1,0,0:0:0:0:
320,192,42750,1,0,0:0:0:0:
64,192,42836,1,0,0:0:0:0:
192,192,42922,1,0,0:0:0:0:
64,192,43007,1,0,0:0:0:0:
320,192,43093,1,0,0:0:0:0:
192,192,43179,1,0,0:0:0:0:
64,192,43265,1,0,0:0:0:0:
192,192,43350,1,0,0:0:0:0:
320,192,43436,1,0,0:0:0:0:
64,192,43522,1,0,0:0:0:0:
192,192,43607,1,0,0:0:0:0:
64,192,43693,1,0,0:0:0:0:
320,192,43779,1,0,0:0:0:0:
192,192,43865,1,8,0:0:0:0:
448,192,43865,1,0,0:0:0:0:
64,192,43950,1,0,0:0:0:0:
192,192,44036,1,8,0:0:0:0:
448,192,44036,1,0,0:0:0:0:
320,192,44122,1,0,0:0:0:0:
64,192,44207,1,0,0:0:0:0:
192,192,44293,1,0,0:0:0:0:
64,192,44379,1,8,0:0:0:0:
448,192,44379,1,0,0:0:0:0:
320,192,44465,1,0,0:0:0:0:
192,192,44550,1,8,0:0:0:0:
448,192,44550,1,0,0:0:0:0:
64,192,44636,1,0,0:0:0:0:
192,192,44722,1,0,0:0:0:0:
320,192,44807,1,0,0:0:0:0:
64,192,44893,1,8,0:0:0:0:
448,192,44893,1,0,0:0:0:0:
192,192,44979,1,0,0:0:0:0:
64,192,45065,1,8,0:0:0:0:
448,192,45065,1,0,0:0:0:0:
320,192,45150,1,0,0:0:0:0:
192,192,45236,1,0,0:0:0:0:
64,192,45322,1,0,0:0:0:0:
192,192,45407,1,8,0:0:0:0:
448,192,45407,1,0,0:0:0:0:
320,192,45493,1,0,0:0:0:0:
64,192,45579,1,0,0:0:0:0:
192,192,45665,1,0,0:0:0:0:
64,192,45750,1,8,0:0:0:0:
448,192,45750,1,0,0:0:0:0:
320,192,45836,1,0,0:0:0:0:
192,192,45922,1,0,0:0:0:0:
64,192,46007,1,0,0:0:0:0:
192,192,46093,1,8,0:0:0:0:
448,192,46093,1,0,0:0:0:0:
320,192,46179,1,0,0:0:0:0:
64,192,46265,1,8,0:0:0:0:
448,192,46265,1,0,0:0:0:0:
192,192,46350,1,0,0:0:0:0:
64,192,46436,1,8,0:0:0:0:
448,192,46436,1,0,0:0:0:0:
320,192,46522,1,0,0:0:0:0:
192,192,46607,1,8,0:0:0:0:
448,192,46607,1,0,0:0:0:0:
64,192,46693,1,0,0:0:0:0:
192,192,46779,1,8,0:0:0:0:
448,192,46779,1,0,0:0:0:0:
320,192,46865,1,0,0:0:0:0:
64,192,46950,1,0,0:0:0:0:
192,192,47036,1,0,0:0:0:0:
64,192,47122,1,8,0:0:0:0:
448,192,47122,1,0,0:0:0:0:
320,192,47207,1,0,0:0:0:0:
192,192,47293,1,8,0:0:0:0:
448,192,47293,1,0,0:0:0:0:
64,192,47379,1,0,0:0:0:0:
192,192,47465,1,0,0:0:0:0:
320,192,47550,1,0,0:0:0:0:
64,192,47636,1,8,0:0:0:0:
448,192,47636,1,0,0:0:0:0:
192,192,47722,1,0,0:0:0:0:
64,192,47807,1,8,0:0:0:0:
448,192,47807,1,0,0:0:0:0:
320,192,47893,1,0,0:0:0:0:
192,192,47979,1,0,0:0:0:0:
64,192,48065,1,0,0:0:0:0:
192,192,48150,1,8,0:0:0:0:
448,192,48150,1,0,0:0:0:0:
320,192,48236,1,0,0:0:0:0:
64,192,48322,1,0,0:0:0:0:
192,192,48407,1,0,0:0:0:0:
64,192,48493,1,8,0:0:0:0:
448,192,48493,1,0,0:0:0:0:
320,192,48579,1,0,0:0:0:0:
192,192,48665,1,0,0:0:0:0:
64,192,48750,1,0,0:0:0:0:
192,192,48836,1,8,0:0:0:0:
448,192,48836,1,0,0:0:0:0:
320,192,48922,1,0,0:0:0:0:
64,192,49007,1,8,0:0:0:0:
448,192,49007,1,0,0:0:0:0:
192,192,49093,1,0,0:0:0:0:
64,192,49179,1,8,0:0:0:0:
448,192,49179,1,0,0:0:0:0:
320,192,49265,1,0,0:0:0:0:
192,192,49350,1,8,0:0:0:0:
448,192,49350,1,0,0:0:0:0:
64,192,49436,1,0,0:0:0:0:
192,192,49522,1,0,0:0:0:0:
320,192,49607,1,0,0:0:0:0:
64,192,49693,1,0,0:0:0:0:
448,192,49865,1,0,0:0:0:0:
64,192,50036,1,0,0:0:0:0:
192,192,50036,1,0,0:0:0:0:
320,192,50122,1,0,0:0:0:0:
64,192,50207,1,0,0:0:0:0:
320,192,50293,1,0,0:0:0:0:
448,192,50293,1,0,0:0:0:0:
192,192,50379,1,0,0:0:0:0:
448,192,50465,1,0,0:0:0:0:
320,192,50550,1,0,0:0:0:0:
64,192,50636,1,0,0:0:0:0:
192,192,50722,1,0,0:0:0:0:
448,192,50722,1,0,0:0:0:0:
320,192,50807,1,0,0:0:0:0:
192,192,50893,1,0,0:0:0:0:
448,192,50979,1,0,0:0:0:0:
64,192,51065,1,0,0:0:0:0:
320,192,51065,1,0,0:0:0:0:
192,192,51150,1,0,0:0:0:0:
320,192,51236,1,0,0:0:0:0:
64,192,51322,1,0,0:0:0:0:
192,192,51407,1,0,0:0:0:0:
448,192,51407,1,0,0:0:0:0:
320,192,51493,1,0,0:0:0:0:
192,192,51579,1,0,0:0:0:0:
448,192,51665,1,0,0:0:0:0:
64,192,51750,1,0,0:0:0:0:
320,192,51750,1,0,0:0:0:0:
192,192,51836,1,0,0:0:0:0:
320,192,51922,1,0,0:0:0:0:
64,192,52007,1,0,0:0:0:0:
192,192,52093,1,0,0:0:0:0:
448,192,52093,1,0,0:0:0:0:
320,192,52179,1,0,0:0:0:0:
192,192,52265,1,0,0:0:0:0:
448,192,52350,1,0,0:0:0:0:
64,192,52436,1,0,0:0:0:0:
320,192,52436,1,0,0:0:0:0:
192,192,52522,1,0,0:0:0:0:
320,192,52607,1,0,0:0:0:0:
64,192,52693,1,0,0:0:0:0:
192,192,52779,1,0,0:0:0:0:
448,192,52779,1,0,0:0:0:0:
320,192,52865,1,0,0:0:0:0:
64,192,52950,1,0,0:0:0:0:
448,192,52950,1,0,0:0:0:0:
320,192,53036,1,0,0:0:0:0:
64,192,53122,1,0,0:0:0:0:
192,192,53122,1,0,0:0:0:0:
448,192,53207,1,0,0:0:0:0:
192,192,53293,1,0,0:0:0:0:
320,192,53293,1,0,0:0:0:0:
448,192,53379,1,0,0:0:0:0:
64,192,53465,1,0,0:0:0:0:
320,192,53465,1,0,0:0:0:0:
192,192,53550,1,0,0:0:0:0:
64,192,53636,1,0,0:0:0:0:
448,192,53636,1,0,0:0:0:0:
192,192,53722,1,0,0:0:0:0:
320,192,53807,1,0,0:0:0:0:
448,192,53807,1,0,0:0:0:0:
64,192,53893,1,0,0:0:0:0:
192,192,53893,1,0,0:0:0:0:
320,192,53979,1,0,0:0:0:0:
64,192,54065,1,0,0:0:0:0:
448,192,54065,1,0,0:0:0:0:
192,192,54150,1,0,0:0:0:0:
320,192,54150,1,0,0:0:0:0:
448,192,54236,1,0,0:0:0:0:
64,192,54322,1,0,0:0:0:0:
192,192,54322,1,0,0:0:0:0:
320,192,54407,1,0,0:0:0:0:
192,192,54493,1,0,0:0:0:0:
448,192,54493,1,0,0:0:0:0:
64,192,54579,1,0,0:0:0:0:
320,192,54579,1,0,0:0:0:0:
448,192,54665,1,0,0:0:0:0:
64,192,54750,1,0,0:0:0:0:
192,192,54750,1,0,0:0:0:0:
320,192,54836,1,0,0:0:0:0:
448,192,54836,1,0,0:0:0:0:
64,192,54922,1,0,0:0:0:0:
192,192,55007,1,0,0:0:0:0:
320,192,55007,1,0,0:0:0:0:
448,192,55093,1,0,0:0:0:0:
64,192,55179,1,0,0:0:0:0:
192,192,55179,1,0,0:0:0:0:
320,192,55265,1,0,0:0:0:0:
448,192,55265,1,0,0:0:0:0:
64,192,55350,1,0,0:0:0:0:
192,192,55436,1,0,0:0:0:0:
448,192,55436,1,0,0:0:0:0:
64,192,55522,1,0,0:0:0:0:
320,192,55522,1,0,0:0:0:0:
320,192,56550,1,0,0:0:0:0:
448,192,56593,1,0,0:0:0:0:
192,192,56636,1,0,0:0:0:0:
320,192,56679,1,0,0:0:0:0:
64,192,56722,1,0,0:0:0:0:
448,192,56765,1,0,0:0:0:0:
192,192,56807,1,0,0:0:0:0:
64,192,56850,1,0,0:0:0:0:
320,192,56893,1,0,0:0:0:0:
320,192,56979,1,0,0:0:0:0:
192,192,57065,1,0,0:0:0:0:
192,192,57150,1,0,0:0:0:0:
320,192,57236,1,0,0:0:0:0:
320,192,57322,1,0,0:0:0:0:
192,192,57407,1,0,0:0:0:0:
192,192,57493,1,0,0:0:0:0:
320,192,57579,1,2,0:0:0:0:
448,192,57579,1,0,0:0:0:0:
64,192,57622,1,0,0:0:0:0:
192,192,57750,1,0,0:0:0:0:
320,192,57807,1,0,0:0:0:0:
192,192,57865,1,0,0:0:0:0:
64,192,57922,1,8,0:0:0:0:
320,192,57922,1,0,0:0:0:70:hihat.wav
448,192,57922,1,0,0:0:0:0:
448,192,58007,1,0,0:0:0:70:hihat.wav
192,192,58093,1,0,0:0:0:70:hihat.wav
448,192,58179,1,0,0:0:0:70:hihat.wav
192,192,58265,1,0,0:0:0:70:hihat.wav
320,192,58350,1,0,0:0:0:70:hihat.wav
64,192,58436,1,8,0:0:0:0:
192,192,58436,1,0,0:0:0:70:hihat.wav
448,192,58436,1,0,0:0:0:0:
64,192,58522,1,0,0:0:0:70:hihat.wav
320,192,58607,1,0,0:0:0:70:hihat.wav
64,192,58693,1,0,0:0:0:70:hihat.wav
320,192,58779,1,2,0:0:0:0:
448,192,58779,1,0,0:0:0:70:hihat.wav
192,192,58865,1,0,0:0:0:70:hihat.wav
320,192,58950,1,2,0:0:0:0:
448,192,58950,1,0,0:0:0:70:hihat.wav
64,192,58993,1,0,0:0:0:70:hihat.wav
192,192,59036,1,0,0:0:0:70:hihat.wav
64,192,59122,1,0,0:0:0:70:hihat.wav
448,192,59165,1,0,0:0:0:70:hihat.wav
320,192,59207,1,0,0:0:0:70:hihat.wav
64,192,59293,1,8,0:0:0:0:
192,192,59293,1,0,0:0:0:70:hihat.wav
448,192,59293,1,0,0:0:0:0:
192,192,59379,1,0,0:0:0:70:hihat.wav
320,192,59465,1,0,0:0:0:70:hihat.wav
192,192,59550,1,0,0:0:0:70:hihat.wav
320,192,59636,1,0,0:0:0:70:hihat.wav
64,192,59722,1,0,0:0:0:70:hihat.wav
192,192,59807,1,8,0:0:0:0:
320,192,59807,1,0,0:0:0:70:hihat.wav
448,192,59807,1,0,0:0:0:0:
448,192,59893,1,0,0:0:0:70:hihat.wav
64,192,59979,1,0,0:0:0:70:hihat.wav
448,192,60065,1,0,0:0:0:70:hihat.wav
64,192,60150,1,2,0:0:0:0:
192,192,60150,1,0,0:0:0:70:hihat.wav
320,192,60236,1,0,0:0:0:70:hihat.wav
64,192,60322,1,2,0:0:0:0:
192,192,60322,1,0,0:0:0:0:
448,192,60493,1,0,0:0:0:0:
192,192,60550,1,0,0:0:0:0:
320,192,60607,1,0,0:0:0:0:
64,192,60665,1,8,0:0:0:0:
192,192,60665,1,0,0:0:0:70:hihat.wav
448,192,60665,1,0,0:0:0:0:
64,192,60750,1,0,0:0:0:70:hihat.wav
320,192,60836,1,0,0:0:0:70:hihat.wav
64,192,60922,1,0,0:0:0:70:hihat.wav
320,192,61007,1,0,0:0:0:70:hihat.wav
192,192,61093,1,0,0:0:0:70:hihat.wav
64,192,61179,1,8,0:0:0:0:
320,192,61179,1,0,0:0:0:70:hihat.wav
448,192,61179,1,0,0:0:0:0:
448,192,61265,1,0,0:0:0:70:hihat.wav
192,192,61350,1,0,0:0:0:70:hihat.wav
448,192,61436,1,0,0:0:0:70:hihat.wav
64,192,61522,1,2,0:0:0:0:
192,192,61522,1,0,0:0:0:70:hihat.wav
320,192,61607,1,0,0:0:0:70:hihat.wav
64,192,61693,1,2,0:0:0:0:
192,192,61693,1,0,0:0:0:70:hihat.wav
448,192,61736,1,0,0:0:0:70:hihat.wav
320,192,61779,1,0,0:0:0:70:hihat.wav
448,192,61865,1,0,0:0:0:70:hihat.wav
64,192,61907,1,0,0:0:0:70:hihat.wav
192,192,61950,1,0,0:0:0:70:hihat.wav
64,192,62036,1,8,0:0:0:0:
320,192,62036,1,0,0:0:0:70:hihat.wav
448,192,62036,1,0,0:0:0:0:
320,192,62122,1,0,0:0:0:70:hihat.wav
192,192,62207,1,0,0:0:0:70:hihat.wav
320,192,62293,1,0,0:0:0:70:hihat.wav
192,192,62379,1,0,0:0:0:70:hihat.wav
448,192,62465,1,0,0:0:0:70:hihat.wav
64,192,62550,1,8,0:0:0:0:
192,192,62550,1,0,0:0:0:70:hihat.wav
320,192,62550,1,0,0:0:0:0:
64,192,62636,1,0,0:0:0:70:hihat.wav
320,192,62722,1,0,0:0:0:70:hihat.wav
320,192,62807,1,0,0:0:0:70:hihat.wav
64,192,62893,1,8,0:0:0:0:
192,192,62893,1,0,0:0:0:70:hihat.wav
448,192,62893,1,0,0:0:0:0:
64,192,62979,1,8,0:0:0:0:
192,192,62979,1,0,0:0:0:70:hihat.wav
320,192,63065,1,2,0:0:0:0:
448,192,63065,1,0,0:0:0:0:
64,192,63150,1,0,0:0:0:0:
192,192,63236,1,0,0:0:0:0:
320,192,63293,1,0,0:0:0:0:
192,192,63350,1,0,0:0:0:0:
64,192,63407,1,8,0:0:0:0:
320,192,63407,1,0,0:0:0:70:hihat.wav
448,192,63407,1,0,0:0:0:0:
448,192,63493,1,0,0:0:0:70:hihat.wav
192,192,63579,1,0,0:0:0:70:hihat.wav
448,192,63665,1,0,0:0:0:70:hihat.wav
320,192,63750,1,0,0:0:0:70:hihat.wav
448,192,63836,1,0,0:0:0:70:hihat.wav
64,192,63922,1,8,0:0:0:0:
192,192,63922,1,0,0:0:0:70:hihat.wav
320,192,63922,1,0,0:0:0:0:
64,192,64007,1,0,0:0:0:70:hihat.wav
320,192,64093,1,0,0:0:0:70:hihat.wav
320,192,64179,1,0,0:0:0:70:hihat.wav
64,192,64265,1,2,0:0:0:0:
192,192,64265,1,0,0:0:0:70:hihat.wav
192,192,64350,1,0,0:0:0:70:hihat.wav
320,192,64436,1,2,0:0:0:0:
448,192,64436,1,0,0:0:0:70:hihat.wav
64,192,64479,1,0,0:0:0:70:hihat.wav
192,192,64522,1,0,0:0:0:70:hihat.wav
64,192,64607,1,0,0:0:0:70:hihat.wav
448,192,64650,1,0,0:0:0:70:hihat.wav
320,192,64693,1,0,0:0:0:70:hihat.wav
64,192,64779,1,8,0:0:0:0:
192,192,64779,1,0,0:0:0:70:hihat.wav
448,192,64779,1,0,0:0:0:0:
64,192,64865,1,0,0:0:0:70:hihat.wav
320,192,64950,1,0,0:0:0:70:hihat.wav
64,192,65036,1,0,0:0:0:70:hihat.wav
192,192,65122,1,0,0:0:0:70:hihat.wav
64,192,65207,1,0,0:0:0:70:hihat.wav
192,192,65293,1,8,0:0:0:0:
320,192,65293,1,0,0:0:0:70:hihat.wav
448,192,65293,1,0,0:0:0:0:
320,192,65379,1,0,0:0:0:70:hihat.wav
64,192,65465,1,0,0:0:0:70:hihat.wav
320,192,65550,1,0,0:0:0:70:hihat.wav
192,192,65636,1,2,0:0:0:0:
448,192,65636,1,0,0:0:0:70:hihat.wav
320,192,65722,1,0,0:0:0:70:hihat.wav
64,192,65807,1,2,0:0:0:0:
192,192,65807,1,0,0:0:0:0:
320,192,65979,1,0,0:0:0:0:
192,192,66036,1,0,0:0:0:0:
448,192,66093,1,0,0:0:0:0:
64,192,66150,1,8,0:0:0:0:
192,192,66150,1,0,0:0:0:70:hihat.wav
320,192,66150,1,0,0:0:0:0:
64,192,66236,1,0,0:0:0:70:hihat.wav
448,192,66322,1,0,0:0:0:70:hihat.wav
64,192,66407,1,0,0:0:0:70:hihat.wav
192,192,66493,1,0,0:0:0:70:hihat.wav
64,192,66579,1,0,0:0:0:70:hihat.wav
192,192,66665,1,8,0:0:0:0:
320,192,66665,1,0,0:0:0:70:hihat.wav
448,192,66665,1,0,0:0:0:0:
448,192,66750,1,0,0:0:0:70:hihat.wav
64,192,66836,1,0,0:0:0:70:hihat.wav
448,192,66922,1,0,0:0:0:70:hihat.wav
192,192,67007,1,2,0:0:0:0:
320,192,67007,1,0,0:0:0:70:hihat.wav
448,192,67093,1,0,0:0:0:70:hihat.wav
64,192,67179,1,2,0:0:0:0:
192,192,67179,1,0,0:0:0:70:hihat.wav
448,192,67222,1,0,0:0:0:70:hihat.wav
320,192,67265,1,0,0:0:0:70:hihat.wav
448,192,67350,1,0,0:0:0:70:hihat.wav
64,192,67393,1,0,0:0:0:70:hihat.wav
192,192,67436,1,0,0:0:0:70:hihat.wav
64,192,67522,1,8,0:0:0:0:
320,192,67522,1,0,0:0:0:70:hihat.wav
448,192,67522,1,0,0:0:0:0:
320,192,67607,1,0,0:0:0:70:hihat.wav
192,192,67693,1,0,0:0:0:70:hihat.wav
320,192,67779,1,0,0:0:0:70:hihat.wav
448,192,67865,1,0,0:0:0:70:hihat.wav
320,192,67950,1,0,0:0:0:70:hihat.wav
64,192,68036,1,8,0:0:0:0:
192,192,68036,1,0,0:0:0:70:hihat.wav
448,192,68036,1,0,0:0:0:0:
192,192,68122,1,0,0:0:0:70:hihat.wav
320,192,68207,1,0,0:0:0:70:hihat.wav
192,192,68293,1,0,0:0:0:70:hihat.wav
64,192,68379,1,8,0:0:0:0:
320,192,68379,1,0,0:0:0:70:hihat.wav
448,192,68379,1,0,0:0:0:0:
320,192,68465,1,8,0:0:0:0:
448,192,68465,1,0,0:0:0:70:hihat.wav
64,192,68550,1,2,0:0:0:0:
192,192,68550,1,0,0:0:0:0:
448,192,68636,1,0,0:0:0:0:
320,192,68722,1,0,0:0:0:0:
192,192,68779,1,0,0:0:0:0:
320,192,68836,1,0,0:0:0:0:
64,192,68893,1,8,0:0:0:0:
192,192,68893,1,0,0:0:0:70:hihat.wav
448,192,68893,1,0,0:0:0:0:
64,192,68979,1,0,0:0:0:70:hihat.wav
320,192,69065,1,0,0:0:0:70:hihat.wav
64,192,69150,1,0,0:0:0:70:hihat.wav
192,192,69236,1,0,0:0:0:70:hihat.wav
64,192,69322,1,0,0:0:0:70:hihat.wav
64,192,69407,1,8,0:0:0:0:
320,192,69407,1,0,0:0:0:70:hihat.wav
448,192,69407,1,0,0:0:0:0:
320,192,69493,1,0,0:0:0:70:hihat.wav
192,192,69579,1,0,0:0:0:70:hihat.wav
320,192,69665,1,0,0:0:0:70:hihat.wav
64,192,69750,1,2,0:0:0:0:
448,192,69750,1,0,0:0:0:70:hihat.wav
320,192,69836,1,0,0:0:0:70:hihat.wav
64,192,69922,1,2,0:0:0:0:
192,192,69922,1,0,0:0:0:70:hihat.wav
448,192,69965,1,0,0:0:0:70:hihat.wav
320,192,70007,1,0,0:0:0:70:hihat.wav
448,192,70093,1,0,0:0:0:70:hihat.wav
64,192,70136,1,0,0:0:0:70:hihat.wav
192,192,70179,1,0,0:0:0:70:hihat.wav
64,192,70265,1,8,0:0:0:0:
320,192,70265,1,0,0:0:0:70:hihat.wav
448,192,70265,1,0,0:0:0:0:
448,192,70350,1,0,0:0:0:70:hihat.wav
192,192,70436,1,0,0:0:0:70:hihat.wav
448,192,70522,1,0,0:0:0:70:hihat.wav
320,192,70607,1,0,0:0:0:70:hihat.wav
448,192,70693,1,0,0:0:0:70:hihat.wav
64,192,70779,1,8,0:0:0:0:
192,192,70779,1,0,0:0:0:70:hihat.wav
448,192,70779,1,0,0:0:0:0:
192,192,70865,1,0,0:0:0:70:hihat.wav
320,192,70950,1,0,0:0:0:70:hihat.wav
192,192,71036,1,0,0:0:0:70:hihat.wav
64,192,71122,1,2,0:0:0:0:
448,192,71122,1,0,0:0:0:70:hihat.wav
192,192,71207,1,0,0:0:0:70:hihat.wav
320,192,71293,1,2,0:0:0:0:
448,192,71293,1,0,0:0:0:0:
64,192,71465,1,0,0:0:0:0:
448,192,71522,1,0,0:0:0:0:
192,192,71579,1,0,0:0:0:0:
64,192,71636,1,8,0:0:0:0:
320,192,71636,1,0,0:0:0:70:hihat.wav
448,192,71636,1,0,0:0:0:0:
320,192,71722,1,0,0:0:0:70:hihat.wav
192,192,71807,1,0,0:0:0:70:hihat.wav
320,192,71893,1,0,0:0:0:70:hihat.wav
448,192,71979,1,0,0:0:0:70:hihat.wav
320,192,72065,1,0,0:0:0:70:hihat.wav
64,192,72150,1,8,0:0:0:0:
192,192,72150,1,0,0:0:0:70:hihat.wav
320,192,72150,1,0,0:0:0:0:
192,192,72236,1,0,0:0:0:70:hihat.wav
448,192,72322,1,0,0:0:0:70:hihat.wav
192,192,72407,1,0,0:0:0:70:hihat.wav
64,192,72493,1,2,0:0:0:0:
320,192,72493,1,0,0:0:0:70:hihat.wav
192,192,72579,1,0,0:0:0:70:hihat.wav
320,192,72665,1,2,0:0:0:0:
448,192,72665,1,0,0:0:0:70:hihat.wav
64,192,72707,1,0,0:0:0:70:hihat.wav
192,192,72750,1,0,0:0:0:70:hihat.wav
64,192,72836,1,0,0:0:0:70:hihat.wav
448,192,72879,1,0,0:0:0:70:hihat.wav
320,192,72922,1,0,0:0:0:70:hihat.wav
64,192,73007,1,8,0:0:0:0:
192,192,73007,1,0,0:0:0:70:hihat.wav
448,192,73007,1,0,0:0:0:0:
192,192,73093,1,0,0:0:0:70:hihat.wav
320,192,73179,1,0,0:0:0:70:hihat.wav
192,192,73265,1,0,0:0:0:70:hihat.wav
64,192,73350,1,0,0:0:0:70:hihat.wav
192,192,73436,1,0,0:0:0:70:hihat.wav
192,192,73522,1,8,0:0:0:0:
320,192,73522,1,0,0:0:0:70:hihat.wav
448,192,73522,1,0,0:0:0:0:
320,192,73607,1,0,0:0:0:70:hihat.wav
64,192,73693,1,0,0:0:0:70:hihat.wav
320,192,73779,1,0,0:0:0:70:hihat.wav
64,192,73865,1,8,0:0:0:0:
192,192,73865,1,0,0:0:0:70:hihat.wav
448,192,73865,1,0,0:0:0:0:
64,192,73950,1,8,0:0:0:0:
192,192,73950,1,0,0:0:0:70:hihat.wav
320,192,74036,1,2,0:0:0:0:
448,192,74036,1,0,0:0:0:0:
64,192,74207,128,0,74293:0:0:0:0:
192,192,74250,128,0,74336:0:0:0:0:
320,192,74293,128,0,74379:0:0:0:0:
64,192,74379,1,8,0:0:0:0:
192,192,74379,1,0,0:0:0:70:hihat.wav
448,192,74379,1,0,0:0:0:0:
64,192,74465,1,0,0:0:0:70:hihat.wav
192,192,74550,1,0,0:0:0:70:hihat.wav
64,192,74636,1,0,0:0:0:70:hihat.wav
320,192,74722,1,0,0:0:0:70:hihat.wav
64,192,74807,1,0,0:0:0:70:hihat.wav
64,192,74893,1,8,0:0:0:0:
320,192,74893,1,0,0:0:0:70:hihat.wav
448,192,74893,1,0,0:0:0:0:
320,192,74979,1,0,0:0:0:70:hihat.wav
448,192,75065,1,0,0:0:0:70:hihat.wav
192,192,75150,1,0,0:0:0:70:hihat.wav
64,192,75236,1,2,0:0:0:0:
192,192,75236,1,0,0:0:0:70:hihat.wav
320,192,75322,1,0,0:0:0:70:hihat.wav
64,192,75407,1,2,0:0:0:0:
192,192,75407,1,0,0:0:0:0:
64,192,75750,1,8,0:0:0:0:
320,192,75750,1,0,0:0:0:70:hihat.wav
448,192,75750,1,0,0:0:0:0:
448,192,75836,1,0,0:0:0:70:hihat.wav
320,192,75922,1,0,0:0:0:70:hihat.wav
192,192,76007,1,0,0:0:0:70:hihat.wav
192,192,76093,1,0,0:0:0:70:hihat.wav
448,192,76179,1,0,0:0:0:70:hihat.wav
64,192,76265,1,8,0:0:0:0:
192,192,76265,1,0,0:0:0:70:hihat.wav
448,192,76265,1,0,0:0:0:0:
64,192,76350,1,0,0:0:0:70:hihat.wav
192,192,76436,1,0,0:0:0:70:hihat.wav
64,192,76522,1,0,0:0:0:70:hihat.wav
320,192,76607,1,2,0:0:0:0:
448,192,76607,1,0,0:0:0:70:hihat.wav
192,192,76693,1,0,0:0:0:70:hihat.wav
320,192,76779,1,2,0:0:0:0:
448,192,76779,1,0,0:0:0:0:
64,192,76950,128,0,77036:0:0:0:0:
192,192,76993,128,0,77079:0:0:0:0:
320,192,77036,128,0,77122:0:0:0:0:
64,192,77122,1,8,0:0:0:0:
192,192,77122,1,0,0:0:0:70:hihat.wav
448,192,77122,1,0,0:0:0:0:
192,192,77207,1,0,0:0:0:70:hihat.wav
64,192,77293,1,0,0:0:0:70:hihat.wav
192,192,77379,1,0,0:0:0:70:hihat.wav
320,192,77465,1,0,0:0:0:70:hihat.wav
192,192,77550,1,0,0:0:0:70:hihat.wav
192,192,77636,1,8,0:0:0:0:
320,192,77636,1,0,0:0:0:70:hihat.wav
448,192,77636,1,0,0:0:0:0:
448,192,77722,1,0,0:0:0:70:hihat.wav
320,192,77807,1,0,0:0:0:70:hihat.wav
64,192,77893,1,0,0:0:0:70:hihat.wav
64,192,77979,1,2,0:0:0:0:
192,192,77979,1,0,0:0:0:70:hihat.wav
448,192,78065,1,0,0:0:0:70:hihat.wav
64,192,78150,1,2,0:0:0:0:
192,192,78150,1,0,0:0:0:0:
64,192,78493,1,8,0:0:0:0:
320,192,78493,1,0,0:0:0:70:hihat.wav
448,192,78493,1,0,0:0:0:0:
320,192,78579,1,0,0:0:0:70:hihat.wav
448,192,78665,1,0,0:0:0:70:hihat.wav
192,192,78750,1,0,0:0:0:70:hihat.wav
192,192,78836,1,0,0:0:0:70:hihat.wav
320,192,78922,1,0,0:0:0:70:hihat.wav
64,192,79007,1,8,0:0:0:0:
192,192,79007,1,0,0:0:0:70:hihat.wav
320,192,79007,1,0,0:0:0:0:
64,192,79093,1,0,0:0:0:70:hihat.wav
192,192,79179,1,0,0:0:0:70:hihat.wav
64,192,79265,1,0,0:0:0:70:hihat.wav
192,192,79350,1,8,0:0:0:0:
320,192,79350,1,0,0:0:0:70:hihat.wav
448,192,79350,1,0,0:0:0:0:
320,192,79436,1,8,0:0:0:0:
448,192,79436,1,0,0:0:0:70:hihat.wav
64,192,79522,1,2,0:0:0:0:
192,192,79522,1,0,0:0:0:0:
448,192,79693,128,0,79779:0:0:0:0:
320,192,79736,128,0,79822:0:0:0:0:
192,192,79779,128,0,79865:0:0:0:0:
64,192,79865,1,8,0:0:0:0:
320,192,79865,1,0,0:0:0:70:hihat.wav
448,192,79865,1,0,0:0:0:0:
448,192,79950,1,0,0:0:0:70:hihat.wav
192,192,80036,1,2,0:0:0:0:
320,192,80036,1,0,0:0:0:70:hihat.wav
448,192,80122,1,0,0:0:0:70:hihat.wav
192,192,80207,1,0,0:0:0:70:hihat.wav
448,192,80293,1,0,0:0:0:70:hihat.wav
64,192,80379,1,8,0:0:0:0:
192,192,80379,1,0,0:0:0:70:hihat.wav
448,192,80379,1,0,0:0:0:0:
64,192,80465,1,0,0:0:0:70:hihat.wav
320,192,80550,1,2,0:0:0:0:
448,192,80550,1,0,0:0:0:70:hihat.wav
320,192,80636,1,2,0:0:0:0:
448,192,80636,1,0,0:0:0:70:hihat.wav
64,192,80722,1,2,0:0:0:0:
192,192,80722,1,0,0:0:0:70:hihat.wav
64,192,80807,1,2,0:0:0:0:
192,192,80807,1,0,0:0:0:70:hihat.wav
320,192,80893,1,2,0:0:0:0:
448,192,80893,1,0,0:0:0:0:
64,192,81236,1,8,0:0:0:0:
192,192,81236,1,0,0:0:0:70:hihat.wav
448,192,81236,1,0,0:0:0:0:
64,192,81322,1,0,0:0:0:70:hihat.wav
192,192,81407,1,0,0:0:0:70:hihat.wav
320,192,81493,1,0,0:0:0:70:hihat.wav
320,192,81579,1,0,0:0:0:70:hihat.wav
64,192,81665,1,0,0:0:0:70:hihat.wav
64,192,81750,1,8,0:0:0:0:
320,192,81750,1,0,0:0:0:70:hihat.wav
448,192,81750,1,0,0:0:0:0:
448,192,81836,1,0,0:0:0:70:hihat.wav
320,192,81922,1,0,0:0:0:70:hihat.wav
448,192,82007,1,0,0:0:0:70:hihat.wav
64,192,82093,1,2,0:0:0:0:
192,192,82093,1,0,0:0:0:70:hihat.wav
448,192,82179,1,0,0:0:0:70:hihat.wav
64,192,82265,1,2,0:0:0:0:
192,192,82265,1,0,0:0:0:0:
320,192,82436,128,0,82522:0:0:0:0:
448,192,82436,128,0,82522:0:0:0:0:
64,192,82607,1,8,0:0:0:0:
192,192,82607,1,0,0:0:0:70:hihat.wav
448,192,82607,1,0,0:0:0:0:
192,192,82693,1,0,0:0:0:70:hihat.wav
64,192,82779,1,0,0:0:0:70:hihat.wav
192,192,82865,1,0,0:0:0:70:hihat.wav
320,192,82950,1,0,0:0:0:70:hihat.wav
192,192,83036,1,0,0:0:0:70:hihat.wav
192,192,83122,1,8,0:0:0:0:
320,192,83122,1,0,0:0:0:70:hihat.wav
448,192,83122,1,0,0:0:0:0:
448,192,83207,1,0,0:0:0:70:hihat.wav
64,192,83293,1,2,0:0:0:0:
192,192,83293,1,0,0:0:0:70:hihat.wav
64,192,83379,1,2,0:0:0:0:
192,192,83379,1,0,0:0:0:70:hihat.wav
320,192,83465,1,2,0:0:0:0:
448,192,83465,1,0,0:0:0:70:hihat.wav
320,192,83550,1,2,0:0:0:0:
448,192,83550,1,0,0:0:0:70:hihat.wav
64,192,83636,1,2,0:0:0:0:
192,192,83636,1,0,0:0:0:0:
64,192,83979,1,8,0:0:0:0:
320,192,83979,1,0,0:0:0:70:hihat.wav
448,192,83979,1,0,0:0:0:0:
320,192,84065,1,0,0:0:0:70:hihat.wav
448,192,84150,1,0,0:0:0:70:hihat.wav
192,192,84236,1,0,0:0:0:70:hihat.wav
192,192,84322,1,0,0:0:0:70:hihat.wav
320,192,84407,1,0,0:0:0:70:hihat.wav
64,192,84493,1,8,0:0:0:0:
192,192,84493,1,0,0:0:0:70:hihat.wav
320,192,84493,1,0,0:0:0:0:
64,192,84579,1,0,0:0:0:70:hihat.wav
192,192,84665,1,0,0:0:0:70:hihat.wav
64,192,84750,1,0,0:0:0:70:hihat.wav
192,192,84836,1,8,0:0:0:0:
320,192,84836,1,0,0:0:0:70:hihat.wav
448,192,84836,1,0,0:0:0:0:
320,192,84922,1,8,0:0:0:0:
448,192,84922,1,0,0:0:0:70:hihat.wav
64,192,85007,1,8,0:0:0:0:
192,192,85007,128,2,85179:0:0:0:0:
448,192,85179,1,0,0:0:0:0:
320,192,85265,128,0,85350:0:0:0:0:
192,192,85350,1,0,0:0:0:0:
448,192,85436,1,0,0:0:0:0:
64,192,85522,1,8,0:0:0:0:
320,192,85522,1,2,0:0:0:0:
448,192,85607,1,0,0:0:0:0:
192,192,85693,1,0,0:0:0:0:
192,192,85865,1,0,0:0:0:0:
64,192,85950,1,0,0:0:0:0:
320,192,86036,1,8,0:0:0:0:
448,192,86036,128,2,86122:0:0:0:0:
192,192,86122,128,0,86207:0:0:0:0:
448,192,86207,1,0,0:0:0:0:
320,192,86293,128,0,86379:0:0:0:0:
64,192,86379,128,8,86722:0:0:0:0:
192,192,86379,1,2,0:0:0:0:
320,192,86550,1,0,0:0:0:0:
192,192,86636,1,0,0:0:0:0:
448,192,86722,128,0,86807:0:0:0:0:
192,192,86807,128,0,86893:0:0:0:0:
64,192,86893,1,8,0:0:0:0:
448,192,86893,1,2,0:0:0:0:
320,192,86979,128,0,87065:0:0:0:0:
64,192,87065,128,0,87407:0:0:0:0:
448,192,87236,1,0,0:0:0:0:
320,192,87322,128,0,87493:0:0:0:0:
192,192,87407,1,8,0:0:0:0:
448,192,87407,128,2,87493:0:0:0:0:
64,192,87579,128,0,87665:0:0:0:0:
320,192,87665,128,0,87750:0:0:0:0:
64,192,87750,1,2,0:0:0:0:
192,192,87750,128,8,87922:0:0:0:0:
448,192,87922,1,0,0:0:0:0:
320,192,88007,128,0,88093:0:0:0:0:
192,192,88093,1,0,0:0:0:0:
448,192,88179,1,0,0:0:0:0:
64,192,88265,1,2,0:0:0:0:
320,192,88265,1,8,0:0:0:0:
448,192,88350,1,0,0:0:0:0:
192,192,88436,1,0,0:0:0:0:
192,192,88607,1,0,0:0:0:0:
64,192,88693,1,0,0:0:0:0:
320,192,88779,1,2,0:0:0:0:
448,192,88779,128,8,88865:0:0:0:0:
192,192,88865,128,0,88950:0:0:0:0:
448,192,88950,1,0,0:0:0:0:
320,192,89036,128,0,89122:0:0:0:0:
64,192,89122,128,8,89465:0:0:0:0:
192,192,89122,1,2,0:0:0:0:
320,192,89293,1,0,0:0:0:0:
192,192,89379,1,0,0:0:0:0:
448,192,89465,128,0,89550:0:0:0:0:
192,192,89550,128,0,89636:0:0:0:0:
64,192,89636,1,8,0:0:0:0:
448,192,89636,1,2,0:0:0:0:
320,192,89722,128,0,89807:0:0:0:0:
64,192,89807,128,0,90150:0:0:0:0:
448,192,89979,1,0,0:0:0:0:
320,192,90065,128,0,90236:0:0:0:0:
192,192,90150,1,8,0:0:0:0:
448,192,90150,128,2,90236:0:0:0:0:
64,192,90322,128,0,90407:0:0:0:0:
320,192,90407,128,0,90493:0:0:0:0:
64,192,90493,1,2,0:0:0:0:
192,192,90493,128,8,90665:0:0:0:0:
448,192,90665,1,0,0:0:0:0:
320,192,90750,128,0,90836:0:0:0:0:
192,192,90836,1,0,0:0:0:0:
448,192,90922,1,0,0:0:0:0:
64,192,91007,1,2,0:0:0:0:
320,192,91007,1,8,0:0:0:0:
448,192,91093,1,0,0:0:0:0:
192,192,91179,1,0,0:0:0:0:
192,192,91350,1,0,0:0:0:0:
64,192,91436,1,0,0:0:0:0:
320,192,91522,1,2,0:0:0:0:
448,192,91522,128,8,91607:0:0:0:0:
192,192,91607,128,0,91693:0:0:0:0:
448,192,91693,1,0,0:0:0:0:
320,192,91779,128,0,91865:0:0:0:0:
64,192,91865,128,8,92207:0:0:0:0:
192,192,91865,1,2,0:0:0:0:
320,192,92036,1,0,0:0:0:0:
192,192,92122,1,0,0:0:0:0:
448,192,92207,128,0,92293:0:0:0:0:
192,192,92293,128,0,92379:0:0:0:0:
64,192,92379,1,8,0:0:0:0:
448,192,92379,1,2,0:0:0:0:
320,192,92465,128,0,92550:0:0:0:0:
64,192,92550,128,0,92893:0:0:0:0:
448,192,92722,1,0,0:0:0:0:
320,192,92807,128,0,92979:0:0:0:0:
192,192,92893,1,8,0:0:0:0:
448,192,92893,128,2,92979:0:0:0:0:
64,192,93065,128,0,93150:0:0:0:0:
320,192,93150,128,0,93236:0:0:0:0:
64,192,93236,1,2,0:0:0:0:
192,192,93236,128,8,93407:0:0:0:0:
448,192,93407,1,0,0:0:0:0:
320,192,93493,128,0,93579:0:0:0:0:
192,192,93579,1,0,0:0:0:0:
448,192,93665,1,0,0:0:0:0:
64,192,93750,1,2,0:0:0:0:
320,192,93750,1,8,0:0:0:0:
448,192,93836,1,0,0:0:0:0:
192,192,93922,1,0,0:0:0:0:
192,192,94093,1,0,0:0:0:0:
64,192,94179,1,0,0:0:0:0:
320,192,94265,1,2,0:0:0:0:
448,192,94265,128,8,94350:0:0:0:0:
192,192,94350,128,0,94436:0:0:0:0:
448,192,94436,1,0,0:0:0:0:
320,192,94522,128,0,94607:0:0:0:0:
64,192,94607,128,0,94950:0:0:0:0:
192,192,94950,128,0,95036:0:0:0:0:
448,192,95036,128,0,95122:0:0:0:0:
320,192,95207,128,0,95293:0:0:0:0:
64,192,95293,128,0,95636:0:0:0:0:
320,192,95550,128,0,95722:0:0:0:0:
448,192,95636,128,0,95722:0:0:0:0:
64,192,95807,128,0,95893:0:0:0:0:
320,192,95893,128,0,95979:0:0:0:0:
64,192,95979,1,2,0:0:0:0:
192,192,95979,128,0,96236:0:0:0:0:
320,192,96236,128,0,96322:0:0:0:0:
64,192,96322,1,8,0:0:0:0:
448,192,96322,1,0,0:0:0:70:hihat.wav
192,192,96379,1,0,0:0:0:0:
320,192,96436,1,0,0:0:0:0:
192,192,96522,1,0,0:0:0:0:
64,192,96607,1,0,0:0:0:0:
448,192,96665,1,0,0:0:0:70:hihat.wav
320,192,96722,1,0,0:0:0:0:
192,192,96779,1,0,0:0:0:0:
64,192,96836,1,2,0:0:0:0:
448,192,96836,1,0,0:0:0:70:hihat.wav
192,192,96922,1,0,0:0:0:70:hihat.wav
320,192,97007,1,8,0:0:0:0:
448,192,97007,1,0,0:0:0:70:hihat.wav
64,192,97093,1,0,0:0:0:70:hihat.wav
320,192,97179,1,0,0:0:0:70:hihat.wav
192,192,97265,1,0,0:0:0:70:hihat.wav
64,192,97350,1,2,0:0:0:0:
448,192,97350,1,0,0:0:0:70:hihat.wav
320,192,97393,1,0,0:0:0:70:hihat.wav
192,192,97436,1,0,0:0:0:70:hihat.wav
64,192,97522,1,2,0:0:0:0:
448,192,97522,1,0,0:0:0:70:hihat.wav
192,192,97565,1,0,0:0:0:70:hihat.wav
320,192,97607,1,0,0:0:0:70:hihat.wav
64,192,97693,1,8,0:0:0:0:
448,192,97693,1,0,0:0:0:70:hihat.wav
192,192,97750,1,0,0:0:0:0:
64,192,97807,1,0,0:0:0:0:
320,192,97865,1,0,0:0:0:70:hihat.wav
192,192,97922,1,0,0:0:0:0:
448,192,97950,1,2,0:0:0:0:
320,192,97979,1,0,0:0:0:0:
64,192,98036,1,0,0:0:0:70:hihat.wav
192,192,98093,1,0,0:0:0:0:
320,192,98150,1,0,0:0:0:0:
64,192,98207,1,2,0:0:0:0:
448,192,98207,1,0,0:0:0:70:hihat.wav
320,192,98293,1,0,0:0:0:70:hihat.wav
64,192,98379,1,8,0:0:0:0:
192,192,98379,1,0,0:0:0:70:hihat.wav
448,192,98465,1,0,0:0:0:70:hihat.wav
64,192,98550,1,2,0:0:0:0:
192,192,98550,1,0,0:0:0:70:hihat.wav
64,192,98636,1,2,0:0:0:0:
192,192,98636,1,0,0:0:0:70:hihat.wav
320,192,98722,1,2,0:0:0:0:
448,192,98722,1,0,0:0:0:0:
64,192,98807,1,0,0:0:0:0:
192,192,98893,1,0,0:0:0:0:
320,192,98950,1,0,0:0:0:0:
192,192,99007,1,0,0:0:0:0:
64,192,99065,1,8,0:0:0:0:
448,192,99065,1,0,0:0:0:70:hihat.wav
448,192,99150,1,0,0:0:0:70:hihat.wav
192,192,99236,1,0,0:0:0:70:hihat.wav
320,192,99293,1,0,0:0:0:0:
448,192,99350,1,0,0:0:0:0:
64,192,99407,1,0,0:0:0:70:hihat.wav
192,192,99465,1,0,0:0:0:0:
64,192,99522,1,0,0:0:0:0:
320,192,99579,1,2,0:0:0:0:
448,192,99579,1,0,0:0:0:70:hihat.wav
448,192,99665,1,0,0:0:0:70:hihat.wav
192,192,99750,1,8,0:0:0:0:
320,192,99750,1,0,0:0:0:70:hihat.wav
64,192,99807,1,0,0:0:0:0:
448,192,99865,1,0,0:0:0:0:
192,192,99922,1,0,0:0:0:70:hihat.wav
320,192,99979,1,0,0:0:0:0:
192,192,100036,1,0,0:0:0:0:
64,192,100093,1,2,0:0:0:0:
448,192,100093,1,0,0:0:0:70:hihat.wav
320,192,100136,1,0,0:0:0:70:hihat.wav
192,192,100179,1,0,0:0:0:70:hihat.wav
64,192,100265,1,2,0:0:0:0:
448,192,100265,1,0,0:0:0:70:hihat.wav
192,192,100307,1,0,0:0:0:70:hihat.wav
320,192,100350,1,0,0:0:0:70:hihat.wav
64,192,100436,1,8,0:0:0:0:
448,192,100436,1,0,0:0:0:70:hihat.wav
192,192,100493,1,0,0:0:0:0:
64,192,100550,1,0,0:0:0:0:
320,192,100607,1,0,0:0:0:70:hihat.wav
320,192,100693,1,2,0:0:0:0:
448,192,100693,1,0,0:0:0:70:hihat.wav
64,192,100779,1,0,0:0:0:70:hihat.wav
192,192,100836,1,0,0:0:0:0:
448,192,100893,1,0,0:0:0:0:
64,192,100950,1,2,0:0:0:0:
320,192,100950,1,0,0:0:0:70:hihat.wav
448,192,101036,1,0,0:0:0:70:hihat.wav
64,192,101122,1,8,0:0:0:0:
192,192,101122,1,0,0:0:0:70:hihat.wav
320,192,101207,1,0,0:0:0:70:hihat.wav
64,192,101293,1,2,0:0:0:0:
192,192,101293,1,0,0:0:0:70:hihat.wav
64,192,101379,1,2,0:0:0:0:
192,192,101379,1,0,0:0:0:70:hihat.wav
320,192,101465,1,2,0:0:0:0:
448,192,101465,1,0,0:0:0:70:hihat.wav
64,192,101507,1,0,0:0:0:70:hihat.wav
192,192,101550,1,0,0:0:0:70:hihat.wav
64,192,101636,1,0,0:0:0:70:hihat.wav
448,192,101679,1,0,0:0:0:70:hihat.wav
320,192,101722,1,0,0:0:0:70:hihat.wav
64,192,101807,1,8,0:0:0:0:
448,192,101807,1,0,0:0:0:70:hihat.wav
192,192,101865,1,0,0:0:0:0:
64,192,101922,1,0,0:0:0:0:
320,192,101979,1,0,0:0:0:70:hihat.wav
448,192,102036,1,0,0:0:0:0:
192,192,102065,1,0,0:0:0:70:hihat.wav
448,192,102150,1,0,0:0:0:70:hihat.wav
320,192,102207,1,0,0:0:0:0:
192,192,102265,1,0,0:0:0:0:
64,192,102322,1,2,0:0:0:0:
448,192,102322,1,0,0:0:0:70:hihat.wav
192,192,102407,1,0,0:0:0:70:hihat.wav
320,192,102493,1,8,0:0:0:0:
448,192,102493,1,0,0:0:0:70:hihat.wav
64,192,102579,1,0,0:0:0:70:hihat.wav
320,192,102665,1,0,0:0:0:70:hihat.wav
192,192,102750,1,0,0:0:0:70:hihat.wav
64,192,102836,1,2,0:0:0:0:
448,192,102836,1,0,0:0:0:70:hihat.wav
320,192,102879,1,0,0:0:0:70:hihat.wav
192,192,102922,1,0,0:0:0:70:hihat.wav
64,192,103007,1,2,0:0:0:0:
448,192,103007,1,0,0:0:0:70:hihat.wav
192,192,103050,1,0,0:0:0:70:hihat.wav
320,192,103093,1,0,0:0:0:70:hihat.wav
64,192,103179,1,8,0:0:0:0:
448,192,103179,1,0,0:0:0:70:hihat.wav
192,192,103236,1,0,0:0:0:0:
64,192,103293,1,0,0:0:0:0:
320,192,103350,1,0,0:0:0:70:hihat.wav
320,192,103436,1,2,0:0:0:0:
448,192,103436,1,0,0:0:0:70:hihat.wav
64,192,103522,1,0,0:0:0:70:hihat.wav
192,192,103579,1,0,0:0:0:0:
320,192,103636,1,0,0:0:0:0:
64,192,103693,1,2,0:0:0:0:
448,192,103693,1,0,0:0:0:70:hihat.wav
320,192,103779,1,0,0:0:0:70:hihat.wav
64,192,103865,1,8,0:0:0:0:
192,192,103865,1,0,0:0:0:70:hihat.wav
448,192,103922,1,0,0:0:0:0:
192,192,103979,1,0,0:0:0:0:
320,192,104036,1,2,0:0:0:0:
448,192,104036,1,0,0:0:0:70:hihat.wav
320,192,104122,1,2,0:0:0:0:
448,192,104122,1,0,0:0:0:70:hihat.wav
64,192,104207,1,2,0:0:0:0:
192,192,104207,1,0,0:0:0:0:
448,192,104293,1,0,0:0:0:0:
320,192,104379,1,0,0:0:0:0:
192,192,104436,1,0,0:0:0:0:
320,192,104493,1,0,0:0:0:0:
64,192,104550,1,8,0:0:0:0:
448,192,104550,1,0,0:0:0:70:hihat.wav
192,192,104607,1,0,0:0:0:0:
64,192,104665,1,0,0:0:0:0:
320,192,104722,1,0,0:0:0:70:hihat.wav
448,192,104779,1,0,0:0:0:0:
192,192,104836,1,0,0:0:0:0:
448,192,104893,1,0,0:0:0:70:hihat.wav
320,192,104950,1,0,0:0:0:0:
64,192,105007,1,0,0:0:0:0:
192,192,105065,1,2,0:0:0:0:
448,192,105065,1,0,0:0:0:70:hihat.wav
64,192,105150,1,0,0:0:0:70:hihat.wav
320,192,105236,1,8,0:0:0:0:
448,192,105236,1,0,0:0:0:70:hihat.wav
448,192,105322,1,0,0:0:0:70:hihat.wav
64,192,105407,1,0,0:0:0:70:hihat.wav
320,192,105465,1,0,0:0:0:0:
192,192,105522,1,0,0:0:0:0:
64,192,105579,1,2,0:0:0:0:
448,192,105579,1,0,0:0:0:70:hihat.wav
320,192,105622,1,0,0:0:0:70:hihat.wav
192,192,105665,1,0,0:0:0:70:hihat.wav
64,192,105750,1,2,0:0:0:0:
448,192,105750,1,0,0:0:0:70:hihat.wav
192,192,105793,1,0,0:0:0:70:hihat.wav
320,192,105836,1,0,0:0:0:70:hihat.wav
64,192,105922,1,8,0:0:0:0:
448,192,105922,1,0,0:0:0:70:hihat.wav
192,192,105979,1,0,0:0:0:0:
64,192,106036,1,0,0:0:0:0:
320,192,106093,1,0,0:0:0:70:hihat.wav
320,192,106179,1,2,0:0:0:0:
448,192,106179,1,0,0:0:0:70:hihat.wav
64,192,106265,1,0,0:0:0:70:hihat.wav
192,192,106322,1,0,0:0:0:0:
448,192,106379,1,0,0:0:0:0:
64,192,106436,1,2,0:0:0:0:
320,192,106436,1,0,0:0:0:70:hihat.wav
448,192,106522,1,0,0:0:0:70:hihat.wav
64,192,106607,1,8,0:0:0:0:
192,192,106607,1,0,0:0:0:70:hihat.wav
320,192,106693,1,0,0:0:0:70:hihat.wav
64,192,106779,1,2,0:0:0:0:
192,192,106779,1,0,0:0:0:70:hihat.wav
64,192,106865,1,2,0:0:0:0:
192,192,106865,1,0,0:0:0:70:hihat.wav
320,192,106950,1,2,0:0:0:0:
448,192,106950,1,0,0:0:0:70:hihat.wav
