osu file format v14

[General]
AudioFilename: rumble.ogg
AudioLeadIn: 0
PreviewTime: 56550
Countdown: 0
SampleSet: Soft
StackLeniency: 0.7
Mode: 3
LetterboxInBreaks: 0
SpecialStyle: 0
WidescreenStoryboard: 1

[Editor]
DistanceSpacing: 0.6
BeatDivisor: 4
GridSize: 4
TimelineZoom: 2.250011

[Metadata]
Title:Rumble (sarochi Flip)
TitleUnicode:Rumble (sarochi Flip)
Artist:Skrillex, Fred again.. & Flowdan
ArtistUnicode:Skrillex, Fred again.. & Flowdan
Creator:KinoHimari
Version:Avel's Advanced
Source:
Tags:Ainer ERA Bengeut reihynn disguise danar zutu azkifanboy revv- kironojr edm instrumental english electronic drum and n bass dnb d&b d'n'b drumnbass drum'n'bass trance quest for fire mixed rice technical tech jack dump remix sarochisa
BeatmapID:4518038
BeatmapSetID:2123290

[Difficulty]
HPDrainRate:7.5
CircleSize:4
OverallDifficulty:7.5
ApproachRate:5
SliderMultiplier:1.4
SliderTickRate:1

[Events]
//Background and Video events
0,0,"bg.jpg",0,0
//Break Periods
//Storyboard Layer 0 (Background)
//Storyboard Layer 1 (Fail)
//Storyboard Layer 2 (Pass)
//Storyboard Layer 3 (Foreground)
//Storyboard Layer 4 (Overlay)
//Storyboard Sound Samples
Sample,21750,0,"hihat.wav",70
Sample,27236,0,"hihat.wav",70
Sample,62893,0,"hihat.wav",70
Sample,62979,0,"hihat.wav",70
Sample,64265,0,"hihat.wav",70
Sample,68379,0,"hihat.wav",70
Sample,68465,0,"hihat.wav",70
Sample,73865,0,"hihat.wav",70
Sample,73950,0,"hihat.wav",70
Sample,79350,0,"hihat.wav",70
Sample,79436,0,"hihat.wav",70
Sample,80036,0,"hihat.wav",70
Sample,80550,0,"hihat.wav",70
Sample,80636,0,"hihat.wav",70
Sample,80722,0,"hihat.wav",70
Sample,80807,0,"hihat.wav",70
Sample,83293,0,"hihat.wav",70
Sample,83379,0,"hihat.wav",70
Sample,83465,0,"hihat.wav",70
Sample,83550,0,"hihat.wav",70
Sample,84836,0,"hihat.wav",70
Sample,84922,0,"hihat.wav",70
Sample,98636,0,"hihat.wav",70
Sample,101293,0,"hihat.wav",70
Sample,101379,0,"hihat.wav",70
Sample,104122,0,"hihat.wav",70
Sample,106779,0,"hihat.wav",70
Sample,106865,0,"hihat.wav",70
Sample,106950,0,"hihat.wav",70

[TimingPoints]
5465,342.857142857143,4,2,1,50,1,0
12665,-100.0,4,2,1,40,0,0
14036,-100.0,4,2,1,30,0,0
15407,-100.0,4,2,1,50,0,0
50036,-100.0,4,2,1,30,0,0
51407,-100.0,4,2,1,35,0,0
52779,-100.0,4,2,1,40,0,0
53807,-100.0,4,2,1,45,0,0
54836,-100.0,4,2,1,50,0,0
96322,-100.0,4,2,1,50,0,1
106950,-100.0,4,2,1,50,0,0

[HitObjects]
320,192,4950,1,0,0:0:0:0:
448,192,5064,1,0,0:0:0:0:
192,192,5293,1,0,0:0:0:0:
320,192,5464,1,0,0:0:0:0:
64,192,5693,1,0,0:0:0:0:
320,192,5807,1,0,0:0:0:0:
192,192,6064,1,0,0:0:0:0:
448,192,6322,1,0,0:0:0:0:
64,192,6493,128,0,6665:0:0:0:0:
320,192,6665,128,0,6836:0:0:0:0:
192,192,6836,128,0,7007:0:0:0:0:
448,192,7007,1,0,0:0:0:0:
448,192,7865,128,0,8036:0:0:0:0:
192,192,8036,128,0,8207:0:0:0:0:
320,192,8207,128,0,8379:0:0:0:0:
64,192,8379,1,0,0:0:0:0:
64,192,9236,128,0,9407:0:0:0:0:
320,192,9407,128,0,9579:0:0:0:0:
192,192,9579,128,0,9750:0:0:0:0:
448,192,9750,1,0,0:0:0:0:
64,192,10093,128,0,10265:0:0:0:0:
320,192,10265,1,0,0:0:0:0:
192,192,10436,1,0,0:0:0:0:
448,192,10522,1,0,0:0:0:0:
64,192,10693,1,0,0:0:0:0:
320,192,10950,1,0,0:0:0:0:
64,192,11207,1,0,0:0:0:0:
448,192,11465,1,0,0:0:0:0:
192,192,11636,1,0,0:0:0:0:
448,192,11807,1,0,0:0:0:0:
64,192,11979,128,0,12150:0:0:0:0:
320,192,12150,128,0,12322:0:0:0:0:
192,192,12322,128,0,12493:0:0:0:0:
448,192,12493,1,0,0:0:0:0:
448,192,13350,128,0,13522:0:0:0:0:
192,192,13522,128,0,13693:0:0:0:0:
320,192,13693,128,0,13865:0:0:0:0:
64,192,13865,1,0,0:0:0:0:
64,192,14722,1,0,0:0:0:0:
320,192,14893,1,0,0:0:0:0:
192,192,15065,1,0,0:0:0:0:
448,192,15236,1,0,0:0:0:0:
320,192,15922,1,0,0:0:0:0:
192,192,16036,1,0,0:0:0:0:
448,192,16265,1,0,0:0:0:0:
64,192,16436,1,2,0:0:0:0:
192,192,16436,1,0,0:0:0:0:
320,192,16779,1,8,0:0:0:0:
448,192,16779,1,0,0:0:0:70:hihat.wav
64,192,16865,1,0,0:0:0:0:
192,192,16950,1,0,0:0:0:70:hihat.wav
448,192,17036,1,0,0:0:0:0:
192,192,17122,1,0,0:0:0:70:hihat.wav
320,192,17293,1,8,0:0:0:0:
448,192,17293,1,0,0:0:0:70:hihat.wav
64,192,17379,1,0,0:0:0:0:
192,192,17465,1,0,0:0:0:70:hihat.wav
448,192,17550,1,0,0:0:0:0:
192,192,17636,1,0,0:0:0:70:hihat.wav
320,192,17807,1,2,0:0:0:0:
448,192,17807,1,0,0:0:0:0:
64,192,18150,1,8,0:0:0:0:
192,192,18150,1,0,0:0:0:70:hihat.wav
448,192,18236,1,0,0:0:0:0:
320,192,18322,1,0,0:0:0:70:hihat.wav
64,192,18407,1,0,0:0:0:0:
320,192,18493,1,0,0:0:0:70:hihat.wav
64,192,18665,1,8,0:0:0:0:
192,192,18665,1,0,0:0:0:70:hihat.wav
448,192,18750,1,0,0:0:0:0:
320,192,18836,1,0,0:0:0:70:hihat.wav
64,192,18922,1,0,0:0:0:0:
320,192,19007,1,0,0:0:0:70:hihat.wav
64,192,19179,1,2,0:0:0:0:
192,192,19179,1,0,0:0:0:0:
320,192,19522,1,8,0:0:0:0:
448,192,19522,1,0,0:0:0:70:hihat.wav
64,192,19607,1,0,0:0:0:0:
192,192,19693,1,0,0:0:0:70:hihat.wav
448,192,19779,1,0,0:0:0:0:
192,192,19865,1,0,0:0:0:70:hihat.wav
320,192,20036,1,8,0:0:0:0:
448,192,20036,1,0,0:0:0:70:hihat.wav
64,192,20122,1,0,0:0:0:0:
192,192,20207,1,0,0:0:0:70:hihat.wav
448,192,20293,1,0,0:0:0:0:
192,192,20379,1,0,0:0:0:70:hihat.wav
320,192,20550,1,2,0:0:0:0:
448,192,20550,1,0,0:0:0:0:
64,192,20722,1,2,0:0:0:0:
192,192,20722,1,0,0:0:0:0:
320,192,20893,1,8,0:0:0:0:
448,192,20893,1,0,0:0:0:70:hihat.wav
64,192,20979,1,0,0:0:0:0:
192,192,21065,1,0,0:0:0:70:hihat.wav
320,192,21150,1,0,0:0:0:0:
192,192,21236,1,0,0:0:0:70:hihat.wav
320,192,21407,1,8,0:0:0:0:
448,192,21407,1,0,0:0:0:70:hihat.wav
64,192,21493,1,0,0:0:0:0:
320,192,21579,1,0,0:0:0:70:hihat.wav
192,192,21750,1,8,0:0:0:0:
64,192,21836,1,8,0:0:0:0:
320,192,21922,1,2,0:0:0:0:
448,192,21922,1,0,0:0:0:0:
64,192,22265,1,8,0:0:0:0:
192,192,22265,1,0,0:0:0:70:hihat.wav
448,192,22350,1,0,0:0:0:0:
320,192,22436,1,0,0:0:0:70:hihat.wav
64,192,22522,1,0,0:0:0:0:
320,192,22607,1,0,0:0:0:70:hihat.wav
64,192,22779,1,8,0:0:0:0:
192,192,22779,1,0,0:0:0:70:hihat.wav
448,192,22865,1,0,0:0:0:0:
320,192,22950,1,0,0:0:0:70:hihat.wav
64,192,23036,1,0,0:0:0:0:
320,192,23122,1,0,0:0:0:70:hihat.wav
64,192,23293,1,2,0:0:0:0:
192,192,23293,1,0,0:0:0:0:
320,192,23636,1,8,0:0:0:0:
448,192,23636,1,0,0:0:0:70:hihat.wav
64,192,23722,1,0,0:0:0:0:
192,192,23807,1,0,0:0:0:70:hihat.wav
448,192,23893,1,0,0:0:0:0:
192,192,23979,1,0,0:0:0:70:hihat.wav
320,192,24150,1,8,0:0:0:0:
448,192,24150,1,0,0:0:0:70:hihat.wav
64,192,24236,1,0,0:0:0:0:
192,192,24322,1,0,0:0:0:70:hihat.wav
448,192,24407,1,0,0:0:0:0:
192,192,24493,1,0,0:0:0:70:hihat.wav
320,192,24665,1,2,0:0:0:0:
448,192,24665,1,0,0:0:0:0:
64,192,25007,1,8,0:0:0:0:
192,192,25007,1,0,0:0:0:70:hihat.wav
448,192,25093,1,0,0:0:0:0:
320,192,25179,1,0,0:0:0:70:hihat.wav
64,192,25265,1,0,0:0:0:0:
320,192,25350,1,0,0:0:0:70:hihat.wav
64,192,25522,1,8,0:0:0:0:
192,192,25522,1,0,0:0:0:70:hihat.wav
448,192,25607,1,0,0:0:0:0:
320,192,25693,1,0,0:0:0:70:hihat.wav
64,192,25779,1,0,0:0:0:0:
320,192,25865,1,0,0:0:0:70:hihat.wav
64,192,26036,1,2,0:0:0:0:
192,192,26036,1,0,0:0:0:0:
320,192,26207,1,2,0:0:0:0:
448,192,26207,1,0,0:0:0:0:
64,192,26379,1,8,0:0:0:0:
192,192,26379,1,0,0:0:0:70:hihat.wav
448,192,26465,1,0,0:0:0:0:
320,192,26550,1,0,0:0:0:70:hihat.wav
192,192,26636,1,0,0:0:0:0:
320,192,26722,1,0,0:0:0:70:hihat.wav
64,192,26893,1,8,0:0:0:0:
192,192,26893,1,0,0:0:0:70:hihat.wav
448,192,26979,1,0,0:0:0:0:
192,192,27065,1,0,0:0:0:70:hihat.wav
320,192,27236,1,8,0:0:0:0:
448,192,27322,1,8,0:0:0:0:
64,192,27407,1,2,0:0:0:0:
192,192,27407,1,0,0:0:0:70:hihat.wav
320,192,27750,1,0,0:0:0:0:
64,192,27865,1,0,0:0:0:0:
192,192,28036,1,0,0:0:0:0:
320,192,28150,1,0,0:0:0:0:
448,192,28265,1,0,0:0:0:0:
64,192,28436,1,0,0:0:0:0:
192,192,28522,1,0,0:0:0:0:
448,192,28607,1,0,0:0:0:0:
320,192,28693,1,0,0:0:0:0:
64,192,28779,1,0,0:0:0:0:
192,192,28865,1,0,0:0:0:0:
448,192,29122,1,0,0:0:0:0:
320,192,29207,1,0,0:0:0:0:
192,192,29293,1,0,0:0:0:0:
64,192,29379,1,0,0:0:0:0:
320,192,29465,1,0,0:0:0:0:
192,192,29636,1,0,0:0:0:0:
320,192,29807,1,0,0:0:0:0:
448,192,29893,1,0,0:0:0:0:
192,192,29979,1,0,0:0:0:0:
64,192,30065,1,0,0:0:0:0:
320,192,30150,1,0,0:0:0:0:
448,192,30236,1,0,0:0:0:0:
64,192,30493,1,0,0:0:0:0:
192,192,30579,1,0,0:0:0:0:
320,192,30665,1,0,0:0:0:0:
448,192,30750,1,0,0:0:0:0:
192,192,30836,1,0,0:0:0:0:
320,192,31007,1,0,0:0:0:0:
192,192,31179,1,0,0:0:0:0:
64,192,31265,1,0,0:0:0:0:
320,192,31350,1,0,0:0:0:0:
448,192,31436,1,0,0:0:0:0:
192,192,31522,1,0,0:0:0:0:
64,192,31607,1,0,0:0:0:0:
448,192,31865,1,0,0:0:0:0:
320,192,31950,1,0,0:0:0:0:
192,192,32036,1,0,0:0:0:0:
64,192,32122,1,0,0:0:0:0:
320,192,32207,1,0,0:0:0:0:
192,192,32379,1,0,0:0:0:0:
448,192,32550,1,0,0:0:0:0:
320,192,32893,1,0,0:0:0:70:hihat.wav
448,192,32893,1,0,0:0:0:0:
64,192,33065,1,0,0:0:0:70:hihat.wav
192,192,33236,1,0,0:0:0:70:hihat.wav
448,192,33350,1,0,0:0:0:0:
320,192,33522,1,0,0:0:0:0:
192,192,33636,1,0,0:0:0:0:
64,192,33750,1,0,0:0:0:70:hihat.wav
320,192,33922,1,0,0:0:0:70:hihat.wav
448,192,34007,1,0,0:0:0:0:
64,192,34093,1,0,0:0:0:70:hihat.wav
192,192,34179,1,0,0:0:0:0:
448,192,34265,1,0,0:0:0:70:hihat.wav
320,192,34350,1,0,0:0:0:0:
64,192,34436,1,0,0:0:0:70:hihat.wav
192,192,34607,1,0,0:0:0:70:hihat.wav
64,192,34693,1,0,0:0:0:0:
320,192,34779,1,0,0:0:0:70:hihat.wav
448,192,34865,1,0,0:0:0:0:
192,192,34950,1,0,0:0:0:70:hihat.wav
320,192,35122,1,0,0:0:0:70:hihat.wav
192,192,35293,1,0,0:0:0:70:hihat.wav
64,192,35379,1,0,0:0:0:0:
448,192,35465,1,0,0:0:0:70:hihat.wav
320,192,35550,1,0,0:0:0:0:
64,192,35636,1,0,0:0:0:70:hihat.wav
192,192,35722,1,0,0:0:0:0:
448,192,35807,1,0,0:0:0:70:hihat.wav
320,192,35979,1,0,0:0:0:70:hihat.wav
448,192,36065,1,0,0:0:0:0:
192,192,36150,1,0,0:0:0:70:hihat.wav
64,192,36236,1,0,0:0:0:0:
320,192,36322,1,0,0:0:0:70:hihat.wav
192,192,36493,1,0,0:0:0:70:hihat.wav
320,192,36665,1,0,0:0:0:70:hihat.wav
448,192,36750,1,0,0:0:0:0:
64,192,36836,1,0,0:0:0:70:hihat.wav
192,192,36922,1,0,0:0:0:0:
448,192,37007,1,0,0:0:0:70:hihat.wav
320,192,37093,1,0,0:0:0:0:
64,192,37179,1,0,0:0:0:0:
448,192,37350,1,0,0:0:0:0:
320,192,37436,1,0,0:0:0:0:
192,192,37522,1,0,0:0:0:0:
64,192,37607,1,0,0:0:0:0:
320,192,37693,1,0,0:0:0:0:
192,192,37865,1,0,0:0:0:0:
448,192,38036,1,0,0:0:0:0:
320,192,38122,1,0,0:0:0:0:
64,192,38207,1,0,0:0:0:0:
320,192,38379,1,0,0:0:0:0:
448,192,38465,1,0,0:0:0:0:
192,192,38550,1,0,0:0:0:0:
448,192,38722,1,0,0:0:0:0:
320,192,38807,1,0,0:0:0:0:
64,192,38893,1,0,0:0:0:0:
320,192,39065,1,0,0:0:0:0:
448,192,39150,1,0,0:0:0:0:
192,192,39236,1,0,0:0:0:0:
448,192,39407,1,0,0:0:0:0:
320,192,39493,1,0,0:0:0:0:
64,192,39579,1,0,0:0:0:0:
320,192,39750,1,0,0:0:0:0:
448,192,39836,1,0,0:0:0:0:
192,192,39922,1,0,0:0:0:0:
448,192,40093,1,0,0:0:0:0:
320,192,40179,1,0,0:0:0:0:
64,192,40265,1,0,0:0:0:0:
320,192,40436,1,0,0:0:0:0:
448,192,40522,1,0,0:0:0:0:
192,192,40607,1,0,0:0:0:0:
64,192,40779,1,0,0:0:0:0:
192,192,40865,1,0,0:0:0:0:
448,192,40950,1,0,0:0:0:0:
192,192,41122,1,0,0:0:0:0:
64,192,41207,1,0,0:0:0:0:
320,192,41293,1,0,0:0:0:0:
64,192,41465,1,0,0:0:0:0:
192,192,41550,1,0,0:0:0:0:
448,192,41636,1,0,0:0:0:0:
192,192,41807,1,0,0:0:0:0:
64,192,41893,1,0,0:0:0:0:
320,192,41979,1,0,0:0:0:0:
64,192,42150,1,0,0:0:0:0:
192,192,42236,1,0,0:0:0:0:
448,192,42322,1,0,0:0:0:0:
192,192,42493,1,0,0:0:0:0:
64,192,42579,1,0,0:0:0:0:
320,192,42665,1,0,0:0:0:0:
64,192,42836,1,0,0:0:0:0:
192,192,42922,1,0,0:0:0:0:
448,192,43007,1,0,0:0:0:0:
192,192,43179,1,0,0:0:0:0:
64,192,43265,1,0,0:0:0:0:
320,192,43350,1,0,0:0:0:0:
64,192,43522,1,0,0:0:0:0:
192,192,43607,1,0,0:0:0:0:
448,192,43693,1,0,0:0:0:0:
64,192,43865,1,8,0:0:0:0:
320,192,43865,1,0,0:0:0:0:
192,192,44036,1,8,0:0:0:0:
448,192,44036,1,0,0:0:0:0:
320,192,44207,1,0,0:0:0:0:
448,192,44293,1,0,0:0:0:0:
64,192,44379,1,8,0:0:0:0:
192,192,44379,1,0,0:0:0:0:
320,192,44550,1,8,0:0:0:0:
448,192,44550,1,0,0:0:0:0:
192,192,44722,1,0,0:0:0:0:
64,192,44807,1,0,0:0:0:0:
320,192,44893,1,8,0:0:0:0:
448,192,44893,1,0,0:0:0:0:
64,192,45065,1,8,0:0:0:0:
192,192,45065,1,0,0:0:0:0:
320,192,45236,1,0,0:0:0:0:
448,192,45322,1,0,0:0:0:0:
64,192,45407,1,8,0:0:0:0:
192,192,45407,1,0,0:0:0:0:
448,192,45579,1,0,0:0:0:0:
320,192,45665,1,0,0:0:0:0:
64,192,45750,1,8,0:0:0:0:
192,192,45750,1,0,0:0:0:0:
320,192,45922,1,0,0:0:0:0:
448,192,46007,1,0,0:0:0:0:
64,192,46093,1,8,0:0:0:0:
192,192,46093,1,0,0:0:0:0:
320,192,46265,1,8,0:0:0:0:
448,192,46265,1,0,0:0:0:0:
64,192,46436,1,8,0:0:0:0:
192,192,46436,1,0,0:0:0:0:
192,192,46607,1,8,0:0:0:0:
320,192,46607,1,0,0:0:0:0:
320,192,46779,1,8,0:0:0:0:
448,192,46779,1,0,0:0:0:0:
192,192,46950,1,0,0:0:0:0:
64,192,47036,1,0,0:0:0:0:
320,192,47122,1,8,0:0:0:0:
448,192,47122,1,0,0:0:0:0:
64,192,47293,1,8,0:0:0:0:
192,192,47293,1,0,0:0:0:0:
320,192,47465,1,0,0:0:0:0:
448,192,47550,1,0,0:0:0:0:
64,192,47636,1,8,0:0:0:0:
192,192,47636,1,0,0:0:0:0:
320,192,47807,1,8,0:0:0:0:
448,192,47807,1,0,0:0:0:0:
192,192,47979,1,0,0:0:0:0:
64,192,48065,1,0,0:0:0:0:
320,192,48150,1,8,0:0:0:0:
448,192,48150,1,0,0:0:0:0:
64,192,48322,1,0,0:0:0:0:
192,192,48407,1,0,0:0:0:0:
320,192,48493,1,8,0:0:0:0:
448,192,48493,1,0,0:0:0:0:
192,192,48665,1,0,0:0:0:0:
64,192,48750,1,0,0:0:0:0:
320,192,48836,1,8,0:0:0:0:
448,192,48836,1,0,0:0:0:0:
64,192,49007,1,8,0:0:0:0:
192,192,49007,1,0,0:0:0:0:
320,192,49179,1,8,0:0:0:0:
448,192,49179,1,0,0:0:0:0:
192,192,49350,1,8,0:0:0:0:
320,192,49350,1,0,0:0:0:0:
64,192,49522,1,0,0:0:0:0:
320,192,49607,1,0,0:0:0:0:
192,192,49693,1,0,0:0:0:0:
448,192,49865,1,0,0:0:0:0:
320,192,50036,1,0,0:0:0:0:
320,192,50265,1,0,0:0:0:0:
64,192,50379,1,0,0:0:0:0:
192,192,50550,1,0,0:0:0:0:
320,192,50722,1,0,0:0:0:0:
64,192,50807,1,0,0:0:0:0:
320,192,51065,1,0,0:0:0:0:
64,192,51150,1,0,0:0:0:0:
320,192,51407,1,0,0:0:0:0:
64,192,51493,1,0,0:0:0:0:
320,192,51750,1,0,0:0:0:0:
64,192,51836,1,0,0:0:0:0:
192,192,52093,1,0,0:0:0:0:
448,192,52179,1,0,0:0:0:0:
192,192,52436,1,0,0:0:0:0:
448,192,52522,1,0,0:0:0:0:
192,192,52779,1,0,0:0:0:0:
448,192,52865,1,0,0:0:0:0:
64,192,52950,128,0,53122:0:0:0:0:
320,192,53122,128,0,53293:0:0:0:0:
64,192,53293,128,0,53465:0:0:0:0:
448,192,53465,128,0,53636:0:0:0:0:
192,192,53636,128,0,53807:0:0:0:0:
320,192,53807,1,0,0:0:0:0:
64,192,53893,1,0,0:0:0:0:
448,192,53979,1,0,0:0:0:0:
192,192,54065,1,0,0:0:0:0:
320,192,54150,1,0,0:0:0:0:
64,192,54236,1,0,0:0:0:0:
448,192,54322,1,0,0:0:0:0:
192,192,54407,1,0,0:0:0:0:
320,192,54493,1,0,0:0:0:0:
64,192,54579,1,0,0:0:0:0:
448,192,54665,1,0,0:0:0:0:
192,192,54750,1,0,0:0:0:0:
64,192,54836,1,0,0:0:0:0:
320,192,54922,1,0,0:0:0:0:
448,192,55007,1,0,0:0:0:0:
192,192,55093,1,0,0:0:0:0:
64,192,55179,1,0,0:0:0:0:
320,192,55265,1,0,0:0:0:0:
448,192,55350,1,0,0:0:0:0:
192,192,55436,1,0,0:0:0:0:
64,192,55522,1,0,0:0:0:0:
192,192,56550,128,0,56893:0:0:0:0:
448,192,56893,1,0,0:0:0:0:
320,192,56979,1,0,0:0:0:0:
64,192,57065,1,0,0:0:0:0:
192,192,57150,1,0,0:0:0:0:
448,192,57236,1,0,0:0:0:0:
320,192,57322,1,0,0:0:0:0:
64,192,57407,1,0,0:0:0:0:
192,192,57493,1,0,0:0:0:0:
320,192,57579,1,2,0:0:0:0:
448,192,57579,1,0,0:0:0:0:
64,192,57922,1,8,0:0:0:0:
192,192,57922,1,0,0:0:0:70:hihat.wav
448,192,58007,1,0,0:0:0:70:hihat.wav
320,192,58093,1,0,0:0:0:70:hihat.wav
64,192,58179,1,0,0:0:0:70:hihat.wav
320,192,58265,1,0,0:0:0:70:hihat.wav
448,192,58350,1,0,0:0:0:70:hihat.wav
64,192,58436,1,8,0:0:0:0:
192,192,58436,1,0,0:0:0:70:hihat.wav
192,192,58607,1,0,0:0:0:70:hihat.wav
64,192,58693,1,0,0:0:0:70:hihat.wav
320,192,58779,1,2,0:0:0:0:
448,192,58779,1,0,0:0:0:70:hihat.wav
64,192,58950,1,2,0:0:0:0:
192,192,58950,1,0,0:0:0:70:hihat.wav
320,192,59293,1,8,0:0:0:0:
448,192,59293,1,0,0:0:0:70:hihat.wav
64,192,59379,1,0,0:0:0:70:hihat.wav
192,192,59465,1,0,0:0:0:70:hihat.wav
448,192,59550,1,0,0:0:0:70:hihat.wav
192,192,59636,1,0,0:0:0:70:hihat.wav
64,192,59722,1,0,0:0:0:70:hihat.wav
320,192,59807,1,8,0:0:0:0:
448,192,59807,1,0,0:0:0:70:hihat.wav
320,192,59979,1,0,0:0:0:70:hihat.wav
448,192,60065,1,0,0:0:0:70:hihat.wav
64,192,60150,1,2,0:0:0:0:
192,192,60150,1,0,0:0:0:70:hihat.wav
320,192,60322,1,2,0:0:0:0:
448,192,60322,1,0,0:0:0:0:
64,192,60665,1,8,0:0:0:0:
192,192,60665,1,0,0:0:0:70:hihat.wav
448,192,60750,1,0,0:0:0:70:hihat.wav
320,192,60836,1,0,0:0:0:70:hihat.wav
64,192,60922,1,0,0:0:0:70:hihat.wav
320,192,61007,1,0,0:0:0:70:hihat.wav
448,192,61093,1,0,0:0:0:70:hihat.wav
64,192,61179,1,8,0:0:0:0:
192,192,61179,1,0,0:0:0:70:hihat.wav
192,192,61350,1,0,0:0:0:70:hihat.wav
64,192,61436,1,0,0:0:0:70:hihat.wav
320,192,61522,1,2,0:0:0:0:
448,192,61522,1,0,0:0:0:70:hihat.wav
64,192,61693,1,2,0:0:0:0:
192,192,61693,1,0,0:0:0:70:hihat.wav
320,192,62036,1,8,0:0:0:0:
448,192,62036,1,0,0:0:0:70:hihat.wav
64,192,62122,1,0,0:0:0:70:hihat.wav
192,192,62207,1,0,0:0:0:70:hihat.wav
448,192,62293,1,0,0:0:0:70:hihat.wav
192,192,62379,1,0,0:0:0:70:hihat.wav
64,192,62550,1,8,0:0:0:0:
320,192,62550,1,0,0:0:0:70:hihat.wav
448,192,62636,1,0,0:0:0:70:hihat.wav
192,192,62722,1,0,0:0:0:70:hihat.wav
64,192,62807,1,0,0:0:0:70:hihat.wav
320,192,62893,1,8,0:0:0:0:
448,192,62979,1,8,0:0:0:0:
64,192,63065,1,2,0:0:0:0:
192,192,63065,1,0,0:0:0:0:
320,192,63407,1,8,0:0:0:0:
448,192,63407,1,0,0:0:0:70:hihat.wav
64,192,63493,1,0,0:0:0:70:hihat.wav
192,192,63579,1,0,0:0:0:70:hihat.wav
448,192,63665,1,0,0:0:0:70:hihat.wav
192,192,63750,1,0,0:0:0:70:hihat.wav
64,192,63836,1,0,0:0:0:70:hihat.wav
320,192,63922,1,8,0:0:0:0:
448,192,63922,1,0,0:0:0:70:hihat.wav
320,192,64093,1,0,0:0:0:70:hihat.wav
448,192,64179,1,0,0:0:0:70:hihat.wav
192,192,64265,1,2,0:0:0:0:
64,192,64350,1,0,0:0:0:70:hihat.wav
320,192,64436,1,2,0:0:0:0:
448,192,64436,1,0,0:0:0:70:hihat.wav
64,192,64779,1,8,0:0:0:0:
192,192,64779,1,0,0:0:0:70:hihat.wav
448,192,64865,1,0,0:0:0:70:hihat.wav
320,192,64950,1,0,0:0:0:70:hihat.wav
64,192,65036,1,0,0:0:0:70:hihat.wav
320,192,65122,1,0,0:0:0:70:hihat.wav
448,192,65207,1,0,0:0:0:70:hihat.wav
64,192,65293,1,8,0:0:0:0:
192,192,65293,1,0,0:0:0:70:hihat.wav
192,192,65465,1,0,0:0:0:70:hihat.wav
64,192,65550,1,0,0:0:0:70:hihat.wav
320,192,65636,1,2,0:0:0:0:
448,192,65636,1,0,0:0:0:70:hihat.wav
64,192,65807,1,2,0:0:0:0:
192,192,65807,1,0,0:0:0:0:
320,192,66150,1,8,0:0:0:0:
448,192,66150,1,0,0:0:0:70:hihat.wav
64,192,66236,1,0,0:0:0:70:hihat.wav
192,192,66322,1,0,0:0:0:70:hihat.wav
448,192,66407,1,0,0:0:0:70:hihat.wav
192,192,66493,1,0,0:0:0:70:hihat.wav
64,192,66579,1,0,0:0:0:70:hihat.wav
320,192,66665,1,8,0:0:0:0:
448,192,66665,1,0,0:0:0:70:hihat.wav
320,192,66836,1,0,0:0:0:70:hihat.wav
448,192,66922,1,0,0:0:0:70:hihat.wav
64,192,67007,1,2,0:0:0:0:
192,192,67007,1,0,0:0:0:70:hihat.wav
320,192,67179,1,2,0:0:0:0:
448,192,67179,1,0,0:0:0:70:hihat.wav
64,192,67522,1,8,0:0:0:0:
192,192,67522,1,0,0:0:0:70:hihat.wav
448,192,67607,1,0,0:0:0:70:hihat.wav
320,192,67693,1,0,0:0:0:70:hihat.wav
64,192,67779,1,0,0:0:0:70:hihat.wav
320,192,67865,1,0,0:0:0:70:hihat.wav
448,192,67950,1,0,0:0:0:70:hihat.wav
64,192,68036,1,8,0:0:0:0:
192,192,68036,1,0,0:0:0:70:hihat.wav
448,192,68207,1,0,0:0:0:70:hihat.wav
320,192,68379,1,8,0:0:0:0:
448,192,68465,1,8,0:0:0:0:
64,192,68550,1,2,0:0:0:0:
192,192,68550,1,0,0:0:0:0:
64,192,68893,1,8,0:0:0:0:
448,192,68893,1,0,0:0:0:70:hihat.wav
192,192,68979,1,0,0:0:0:70:hihat.wav
320,192,69065,1,0,0:0:0:70:hihat.wav
64,192,69150,1,0,0:0:0:70:hihat.wav
320,192,69236,1,0,0:0:0:70:hihat.wav
192,192,69322,1,0,0:0:0:70:hihat.wav
64,192,69407,1,8,0:0:0:0:
448,192,69407,1,0,0:0:0:70:hihat.wav
192,192,69579,1,0,0:0:0:70:hihat.wav
320,192,69665,1,0,0:0:0:70:hihat.wav
64,192,69750,1,2,0:0:0:0:
448,192,69750,1,0,0:0:0:70:hihat.wav
192,192,69922,1,2,0:0:0:0:
320,192,69922,1,0,0:0:0:70:hihat.wav
64,192,70265,1,8,0:0:0:0:
448,192,70265,1,0,0:0:0:70:hihat.wav
320,192,70350,1,0,0:0:0:70:hihat.wav
192,192,70436,1,0,0:0:0:70:hihat.wav
448,192,70522,1,0,0:0:0:70:hihat.wav
192,192,70607,1,0,0:0:0:70:hihat.wav
320,192,70693,1,0,0:0:0:70:hihat.wav
64,192,70779,1,8,0:0:0:0:
448,192,70779,1,0,0:0:0:70:hihat.wav
320,192,70950,1,0,0:0:0:70:hihat.wav
192,192,71036,1,0,0:0:0:70:hihat.wav
64,192,71122,1,2,0:0:0:0:
448,192,71122,1,0,0:0:0:70:hihat.wav
192,192,71293,1,2,0:0:0:0:
320,192,71293,1,0,0:0:0:0:
64,192,71636,1,8,0:0:0:0:
448,192,71636,1,0,0:0:0:70:hihat.wav
192,192,71722,1,0,0:0:0:70:hihat.wav
320,192,71807,1,0,0:0:0:70:hihat.wav
64,192,71893,1,0,0:0:0:70:hihat.wav
320,192,71979,1,0,0:0:0:70:hihat.wav
192,192,72065,1,0,0:0:0:70:hihat.wav
64,192,72150,1,8,0:0:0:0:
448,192,72150,1,0,0:0:0:70:hihat.wav
192,192,72322,1,0,0:0:0:70:hihat.wav
320,192,72407,1,0,0:0:0:70:hihat.wav
64,192,72493,1,2,0:0:0:0:
448,192,72493,1,0,0:0:0:70:hihat.wav
192,192,72665,1,2,0:0:0:0:
320,192,72665,1,0,0:0:0:70:hihat.wav
64,192,73007,1,8,0:0:0:0:
448,192,73007,1,0,0:0:0:70:hihat.wav
320,192,73093,1,0,0:0:0:70:hihat.wav
192,192,73179,1,0,0:0:0:70:hihat.wav
448,192,73265,1,0,0:0:0:70:hihat.wav
192,192,73350,1,0,0:0:0:70:hihat.wav
320,192,73436,1,0,0:0:0:70:hihat.wav
64,192,73522,1,8,0:0:0:0:
448,192,73522,1,0,0:0:0:70:hihat.wav
320,192,73693,1,0,0:0:0:70:hihat.wav
448,192,73693,1,0,0:0:0:0:
192,192,73865,1,8,0:0:0:0:
64,192,73950,1,8,0:0:0:0:
320,192,74036,1,2,0:0:0:0:
448,192,74036,1,0,0:0:0:0:
192,192,74207,1,0,0:0:0:0:
320,192,74293,1,0,0:0:0:0:
64,192,74379,1,8,0:0:0:0:
448,192,74379,1,0,0:0:0:70:hihat.wav
192,192,74465,1,0,0:0:0:70:hihat.wav
320,192,74550,1,0,0:0:0:70:hihat.wav
64,192,74636,1,0,0:0:0:70:hihat.wav
320,192,74722,1,0,0:0:0:70:hihat.wav
192,192,74807,1,0,0:0:0:70:hihat.wav
64,192,74893,1,8,0:0:0:0:
448,192,74893,1,0,0:0:0:70:hihat.wav
192,192,75065,1,0,0:0:0:70:hihat.wav
320,192,75150,1,0,0:0:0:70:hihat.wav
64,192,75236,1,2,0:0:0:0:
448,192,75236,1,0,0:0:0:70:hihat.wav
192,192,75407,1,2,0:0:0:0:
320,192,75407,1,0,0:0:0:0:
64,192,75750,1,8,0:0:0:0:
448,192,75750,1,0,0:0:0:70:hihat.wav
320,192,75836,1,0,0:0:0:70:hihat.wav
192,192,75922,1,0,0:0:0:70:hihat.wav
448,192,76007,1,0,0:0:0:70:hihat.wav
192,192,76093,1,0,0:0:0:70:hihat.wav
320,192,76179,1,0,0:0:0:70:hihat.wav
64,192,76265,1,8,0:0:0:0:
448,192,76265,1,0,0:0:0:70:hihat.wav
320,192,76436,1,0,0:0:0:70:hihat.wav
448,192,76522,1,0,0:0:0:70:hihat.wav
64,192,76607,1,2,0:0:0:0:
192,192,76607,1,0,0:0:0:70:hihat.wav
320,192,76779,1,2,0:0:0:0:
448,192,76779,1,0,0:0:0:0:
192,192,76950,1,0,0:0:0:0:
320,192,77036,1,0,0:0:0:0:
64,192,77122,1,8,0:0:0:0:
448,192,77122,1,0,0:0:0:70:hihat.wav
192,192,77207,1,0,0:0:0:70:hihat.wav
320,192,77293,1,0,0:0:0:70:hihat.wav
64,192,77379,1,0,0:0:0:70:hihat.wav
320,192,77465,1,0,0:0:0:70:hihat.wav
192,192,77550,1,0,0:0:0:70:hihat.wav
64,192,77636,1,8,0:0:0:0:
448,192,77636,1,0,0:0:0:70:hihat.wav
192,192,77807,1,0,0:0:0:70:hihat.wav
320,192,77893,1,0,0:0:0:70:hihat.wav
64,192,77979,1,2,0:0:0:0:
448,192,77979,1,0,0:0:0:70:hihat.wav
192,192,78150,1,2,0:0:0:0:
320,192,78150,1,0,0:0:0:0:
64,192,78493,1,8,0:0:0:0:
448,192,78493,1,0,0:0:0:70:hihat.wav
320,192,78579,1,0,0:0:0:70:hihat.wav
192,192,78665,1,0,0:0:0:70:hihat.wav
448,192,78750,1,0,0:0:0:70:hihat.wav
192,192,78836,1,0,0:0:0:70:hihat.wav
320,192,78922,1,0,0:0:0:70:hihat.wav
64,192,79007,1,8,0:0:0:0:
448,192,79007,1,0,0:0:0:70:hihat.wav
320,192,79179,1,0,0:0:0:70:hihat.wav
192,192,79350,1,8,0:0:0:0:
448,192,79436,1,8,0:0:0:0:
64,192,79522,1,2,0:0:0:0:
320,192,79522,1,0,0:0:0:0:
448,192,79693,1,0,0:0:0:0:
320,192,79779,1,0,0:0:0:0:
64,192,79865,1,8,0:0:0:0:
192,192,79865,1,0,0:0:0:70:hihat.wav
448,192,79950,1,0,0:0:0:70:hihat.wav
320,192,80036,1,2,0:0:0:0:
192,192,80122,1,0,0:0:0:70:hihat.wav
320,192,80207,1,0,0:0:0:70:hihat.wav
448,192,80293,1,0,0:0:0:70:hihat.wav
64,192,80379,1,8,0:0:0:0:
192,192,80379,1,0,0:0:0:70:hihat.wav
192,192,80550,1,2,0:0:0:0:
64,192,80636,1,2,0:0:0:0:
320,192,80722,1,2,0:0:0:0:
448,192,80807,1,2,0:0:0:0:
64,192,80893,1,2,0:0:0:0:
192,192,80893,1,0,0:0:0:0:
320,192,81236,1,8,0:0:0:0:
448,192,81236,1,0,0:0:0:70:hihat.wav
64,192,81322,1,0,0:0:0:70:hihat.wav
192,192,81407,1,0,0:0:0:70:hihat.wav
320,192,81493,1,0,0:0:0:70:hihat.wav
192,192,81579,1,0,0:0:0:70:hihat.wav
64,192,81665,1,0,0:0:0:70:hihat.wav
320,192,81750,1,8,0:0:0:0:
448,192,81750,1,0,0:0:0:70:hihat.wav
320,192,81922,1,0,0:0:0:70:hihat.wav
448,192,82007,1,0,0:0:0:70:hihat.wav
64,192,82093,1,2,0:0:0:0:
192,192,82093,1,0,0:0:0:70:hihat.wav
320,192,82265,1,2,0:0:0:0:
448,192,82265,1,0,0:0:0:0:
192,192,82436,1,0,0:0:0:0:
64,192,82607,1,8,0:0:0:0:
192,192,82607,1,0,0:0:0:70:hihat.wav
448,192,82693,1,0,0:0:0:70:hihat.wav
320,192,82779,1,0,0:0:0:70:hihat.wav
192,192,82865,1,0,0:0:0:70:hihat.wav
320,192,82950,1,0,0:0:0:70:hihat.wav
448,192,83036,1,0,0:0:0:70:hihat.wav
64,192,83122,1,8,0:0:0:0:
192,192,83122,1,0,0:0:0:70:hihat.wav
192,192,83293,1,2,0:0:0:0:
64,192,83379,1,2,0:0:0:0:
320,192,83465,1,2,0:0:0:0:
448,192,83550,1,2,0:0:0:0:
64,192,83636,1,2,0:0:0:0:
192,192,83636,1,0,0:0:0:0:
320,192,83979,1,8,0:0:0:0:
448,192,83979,1,0,0:0:0:70:hihat.wav
64,192,84065,1,0,0:0:0:70:hihat.wav
192,192,84150,1,0,0:0:0:70:hihat.wav
320,192,84236,1,0,0:0:0:70:hihat.wav
192,192,84322,1,0,0:0:0:70:hihat.wav
64,192,84407,1,0,0:0:0:70:hihat.wav
320,192,84493,1,8,0:0:0:0:
448,192,84493,1,0,0:0:0:70:hihat.wav
64,192,84665,1,0,0:0:0:70:hihat.wav
192,192,84836,1,8,0:0:0:0:
64,192,84922,1,8,0:0:0:0:
320,192,85007,1,8,0:0:0:0:
448,192,85007,1,2,0:0:0:0:
320,192,85265,1,0,0:0:0:0:
64,192,85436,1,0,0:0:0:0:
320,192,85522,1,10,0:0:0:0:
192,192,85693,1,0,0:0:0:0:
192,192,85950,1,0,0:0:0:0:
448,192,86036,1,10,0:0:0:0:
320,192,86122,1,0,0:0:0:0:
320,192,86293,1,0,0:0:0:0:
64,192,86379,1,8,0:0:0:0:
448,192,86379,1,2,0:0:0:0:
320,192,86636,1,0,0:0:0:0:
64,192,86722,1,0,0:0:0:0:
192,192,86807,1,0,0:0:0:0:
192,192,86979,1,0,0:0:0:0:
64,192,87065,1,0,0:0:0:0:
448,192,87065,1,0,0:0:0:0:
192,192,87322,1,0,0:0:0:0:
448,192,87407,1,10,0:0:0:0:
320,192,87579,1,0,0:0:0:0:
448,192,87665,1,0,0:0:0:0:
64,192,87750,1,2,0:0:0:0:
192,192,87750,1,8,0:0:0:0:
192,192,88007,1,0,0:0:0:0:
448,192,88179,1,0,0:0:0:0:
192,192,88265,1,10,0:0:0:0:
320,192,88436,1,0,0:0:0:0:
320,192,88693,1,0,0:0:0:0:
64,192,88779,1,10,0:0:0:0:
192,192,88865,1,0,0:0:0:0:
192,192,89036,1,0,0:0:0:0:
64,192,89122,1,8,0:0:0:0:
448,192,89122,1,2,0:0:0:0:
192,192,89379,1,0,0:0:0:0:
448,192,89465,1,0,0:0:0:0:
320,192,89550,1,0,0:0:0:0:
320,192,89722,1,0,0:0:0:0:
64,192,89807,1,0,0:0:0:0:
448,192,89807,1,0,0:0:0:0:
320,192,90065,1,0,0:0:0:0:
64,192,90150,1,10,0:0:0:0:
192,192,90322,1,0,0:0:0:0:
64,192,90407,1,0,0:0:0:0:
320,192,90493,1,2,0:0:0:0:
448,192,90493,1,8,0:0:0:0:
448,192,90750,1,0,0:0:0:0:
192,192,90922,1,0,0:0:0:0:
448,192,91007,1,10,0:0:0:0:
320,192,91179,1,0,0:0:0:0:
192,192,91436,1,0,0:0:0:0:
64,192,91522,1,10,0:0:0:0:
320,192,91607,1,0,0:0:0:0:
320,192,91779,1,0,0:0:0:0:
64,192,91865,1,8,0:0:0:0:
448,192,91865,1,2,0:0:0:0:
320,192,92122,1,0,0:0:0:0:
448,192,92207,1,0,0:0:0:0:
192,192,92293,1,0,0:0:0:0:
192,192,92465,1,0,0:0:0:0:
64,192,92550,1,0,0:0:0:0:
448,192,92550,1,0,0:0:0:0:
320,192,92807,1,0,0:0:0:0:
64,192,92893,1,10,0:0:0:0:
320,192,93065,1,0,0:0:0:0:
448,192,93150,1,0,0:0:0:0:
64,192,93236,1,2,0:0:0:0:
192,192,93236,1,8,0:0:0:0:
64,192,93493,1,0,0:0:0:0:
320,192,93665,1,0,0:0:0:0:
64,192,93750,1,10,0:0:0:0:
192,192,93922,1,0,0:0:0:0:
320,192,94179,1,0,0:0:0:0:
448,192,94265,1,10,0:0:0:0:
192,192,94350,1,0,0:0:0:0:
192,192,94522,1,0,0:0:0:0:
64,192,94607,1,0,0:0:0:0:
448,192,94607,1,0,0:0:0:0:
64,192,94950,1,0,0:0:0:0:
320,192,95036,1,0,0:0:0:0:
320,192,95207,1,0,0:0:0:0:
64,192,95293,1,0,0:0:0:0:
192,192,95550,1,0,0:0:0:0:
448,192,95636,1,0,0:0:0:0:
192,192,95807,1,0,0:0:0:0:
64,192,95893,1,0,0:0:0:0:
320,192,95979,1,2,0:0:0:0:
448,192,95979,1,0,0:0:0:0:
448,192,96236,1,0,0:0:0:0:
64,192,96322,1,8,0:0:0:0:
192,192,96322,1,0,0:0:0:70:hihat.wav
320,192,96407,1,0,0:0:0:70:hihat.wav
320,192,96579,1,0,0:0:0:70:hihat.wav
448,192,96665,1,0,0:0:0:70:hihat.wav
64,192,96836,1,2,0:0:0:0:
192,192,96836,1,0,0:0:0:70:hihat.wav
320,192,97007,1,8,0:0:0:0:
448,192,97007,1,0,0:0:0:70:hihat.wav
192,192,97093,1,0,0:0:0:70:hihat.wav
448,192,97179,1,0,0:0:0:70:hihat.wav
64,192,97350,1,2,0:0:0:0:
192,192,97350,1,0,0:0:0:70:hihat.wav
64,192,97522,1,2,0:0:0:0:
192,192,97522,1,0,0:0:0:70:hihat.wav
320,192,97693,1,8,0:0:0:0:
448,192,97693,1,0,0:0:0:70:hihat.wav
64,192,97865,1,0,0:0:0:70:hihat.wav
320,192,97950,1,2,0:0:0:0:
448,192,97950,1,0,0:0:0:70:hihat.wav
192,192,98036,1,0,0:0:0:70:hihat.wav
320,192,98207,1,2,0:0:0:0:
448,192,98207,1,0,0:0:0:70:hihat.wav
64,192,98379,1,8,0:0:0:0:
192,192,98379,1,0,0:0:0:70:hihat.wav
192,192,98550,1,2,0:0:0:0:
320,192,98550,1,0,0:0:0:70:hihat.wav
64,192,98636,1,2,0:0:0:0:
320,192,98722,1,2,0:0:0:0:
448,192,98722,1,0,0:0:0:0:
64,192,99065,1,8,0:0:0:0:
192,192,99065,1,0,0:0:0:70:hihat.wav
320,192,99150,1,0,0:0:0:70:hihat.wav
64,192,99236,1,0,0:0:0:70:hihat.wav
320,192,99407,1,0,0:0:0:70:hihat.wav
320,192,99579,1,2,0:0:0:0:
448,192,99579,1,0,0:0:0:70:hihat.wav
64,192,99665,1,0,0:0:0:70:hihat.wav
192,192,99750,1,8,0:0:0:0:
448,192,99750,1,0,0:0:0:70:hihat.wav
64,192,99922,1,0,0:0:0:70:hihat.wav
320,192,100007,1,0,0:0:0:70:hihat.wav
64,192,100093,1,2,0:0:0:0:
192,192,100093,1,0,0:0:0:70:hihat.wav
64,192,100265,1,2,0:0:0:0:
192,192,100265,1,0,0:0:0:70:hihat.wav
320,192,100436,1,8,0:0:0:0:
448,192,100436,1,0,0:0:0:70:hihat.wav
64,192,100607,1,0,0:0:0:70:hihat.wav
320,192,100693,1,2,0:0:0:0:
448,192,100693,1,0,0:0:0:70:hihat.wav
192,192,100779,1,0,0:0:0:70:hihat.wav
192,192,100950,1,2,0:0:0:0:
448,192,100950,1,0,0:0:0:70:hihat.wav
64,192,101122,1,8,0:0:0:0:
320,192,101122,1,0,0:0:0:70:hihat.wav
320,192,101293,1,2,0:0:0:0:
448,192,101379,1,2,0:0:0:0:
64,192,101465,1,2,0:0:0:0:
192,192,101465,1,0,0:0:0:70:hihat.wav
64,192,101722,1,0,0:0:0:70:hihat.wav
320,192,101807,1,8,0:0:0:0:
448,192,101807,1,0,0:0:0:70:hihat.wav
192,192,101893,1,0,0:0:0:70:hihat.wav
192,192,102065,1,0,0:0:0:70:hihat.wav
64,192,102150,1,0,0:0:0:70:hihat.wav
320,192,102322,1,2,0:0:0:0:
448,192,102322,1,0,0:0:0:70:hihat.wav
64,192,102493,1,8,0:0:0:0:
192,192,102493,1,0,0:0:0:70:hihat.wav
320,192,102579,1,0,0:0:0:70:hihat.wav
64,192,102665,1,0,0:0:0:70:hihat.wav
320,192,102836,1,2,0:0:0:0:
448,192,102836,1,0,0:0:0:70:hihat.wav
320,192,103007,1,2,0:0:0:0:
448,192,103007,1,0,0:0:0:70:hihat.wav
64,192,103179,1,8,0:0:0:0:
192,192,103179,1,0,0:0:0:70:hihat.wav
448,192,103350,1,0,0:0:0:70:hihat.wav
64,192,103436,1,2,0:0:0:0:
192,192,103436,1,0,0:0:0:70:hihat.wav
320,192,103522,1,0,0:0:0:70:hihat.wav
64,192,103693,1,2,0:0:0:0:
192,192,103693,1,0,0:0:0:70:hihat.wav
320,192,103865,1,8,0:0:0:0:
448,192,103865,1,0,0:0:0:70:hihat.wav
192,192,104036,1,2,0:0:0:0:
320,192,104036,1,0,0:0:0:70:hihat.wav
448,192,104122,1,2,0:0:0:0:
64,192,104207,1,2,0:0:0:0:
192,192,104207,1,0,0:0:0:0:
320,192,104550,1,8,0:0:0:0:
448,192,104550,1,0,0:0:0:70:hihat.wav
192,192,104636,1,0,0:0:0:70:hihat.wav
448,192,104722,1,0,0:0:0:70:hihat.wav
192,192,104893,1,0,0:0:0:70:hihat.wav
64,192,105065,1,2,0:0:0:0:
192,192,105065,1,0,0:0:0:70:hihat.wav
64,192,105236,1,8,0:0:0:0:
320,192,105236,1,0,0:0:0:70:hihat.wav
448,192,105322,1,0,0:0:0:70:hihat.wav
192,192,105407,1,0,0:0:0:70:hihat.wav
320,192,105579,1,2,0:0:0:0:
448,192,105579,1,0,0:0:0:70:hihat.wav
320,192,105750,1,2,0:0:0:0:
448,192,105750,1,0,0:0:0:70:hihat.wav
64,192,105922,1,8,0:0:0:0:
192,192,105922,1,0,0:0:0:70:hihat.wav
448,192,106093,1,0,0:0:0:70:hihat.wav
64,192,106179,1,2,0:0:0:0:
192,192,106179,1,0,0:0:0:70:hihat.wav
320,192,106265,1,0,0:0:0:70:hihat.wav
64,192,106436,1,2,0:0:0:0:
320,192,106436,1,0,0:0:0:70:hihat.wav
192,192,106607,1,8,0:0:0:0:
448,192,106607,1,0,0:0:0:70:hihat.wav
192,192,106779,1,2,0:0:0:0:
64,192,106865,1,2,0:0:0:0:
320,192,106950,1,2,0:0:0:0:
