osu file format v14

[General]
AudioFilename: rumble.ogg
AudioLeadIn: 0
PreviewTime: 56550
Countdown: 0
SampleSet: Soft
StackLeniency: 0.7
Mode: 3
LetterboxInBreaks: 0
SpecialStyle: 0
WidescreenStoryboard: 1

[Editor]
DistanceSpacing: 0.6
BeatDivisor: 4
GridSize: 4
TimelineZoom: 0.7500108

[Metadata]
Title:Rumble (sarochi Flip)
TitleUnicode:Rumble (sarochi Flip)
Artist:Skrillex, Fred again.. & Flowdan
ArtistUnicode:Skrillex, Fred again.. & Flowdan
Creator:KinoHimari
Version:AZKi's Normal
Source:
Tags:Ainer ERA Bengeut reihynn disguise danar zutu azkifanboy revv- kironojr edm instrumental english electronic drum and n bass dnb d&b d'n'b drumnbass drum'n'bass trance quest for fire mixed rice technical tech jack dump remix sarochisa
BeatmapID:4466716
BeatmapSetID:2123290

[Difficulty]
HPDrainRate:7
CircleSize:4
OverallDifficulty:7
ApproachRate:5
SliderMultiplier:1.4
SliderTickRate:1

[Events]
//Background and Video events
0,0,"bg.jpg",0,0
//Break Periods
//Storyboard Layer 0 (Background)
//Storyboard Layer 1 (Fail)
//Storyboard Layer 2 (Pass)
//Storyboard Layer 3 (Foreground)
//Storyboard Layer 4 (Overlay)
//Storyboard Sound Samples
Sample,21750,0,"hihat.wav",70
Sample,27236,0,"hihat.wav",70
Sample,62893,0,"hihat.wav",70
Sample,62979,0,"hihat.wav",70
Sample,68379,0,"hihat.wav",70
Sample,68465,0,"hihat.wav",70
Sample,73865,0,"hihat.wav",70
Sample,73950,0,"hihat.wav",70
Sample,79350,0,"hihat.wav",70
Sample,79436,0,"hihat.wav",70
Sample,80722,0,"hihat.wav",70
Sample,83465,0,"hihat.wav",70
Sample,84836,0,"hihat.wav",70
Sample,84922,0,"hihat.wav",70
Sample,97522,0,"hihat.wav",70
Sample,98550,0,"hihat.wav",70
Sample,98636,0,"hihat.wav",70
Sample,100265,0,"hihat.wav",70
Sample,101293,0,"hihat.wav",70
Sample,101379,0,"hihat.wav",70
Sample,103007,0,"hihat.wav",70
Sample,104036,0,"hihat.wav",70
Sample,104122,0,"hihat.wav",70
Sample,105750,0,"hihat.wav",70
Sample,106779,0,"hihat.wav",70
Sample,106865,0,"hihat.wav",70

[TimingPoints]
5465,342.857142857143,4,2,1,50,1,0
12665,-100.0,4,2,1,40,0,0
14036,-100.0,4,2,1,30,0,0
15407,-100.0,4,2,1,50,0,0
50036,-100.0,4,2,1,30,0,0
51407,-100.0,4,2,1,35,0,0
52779,-100.0,4,2,1,40,0,0
53807,-100.0,4,2,1,45,0,0
54836,-100.0,4,2,1,50,0,0
96322,-100.0,4,2,1,50,0,1
106950,-100.0,4,2,1,50,0,0

[HitObjects]
448,192,4950,128,0,5293:0:0:0:0:
192,192,5293,128,0,5464:0:0:0:0:
320,192,5464,128,0,5722:0:0:0:0:
64,192,5722,1,0,0:0:0:0:
448,192,6493,1,0,0:0:0:0:
320,192,6665,1,0,0:0:0:0:
64,192,6836,1,0,0:0:0:0:
192,192,7007,1,0,0:0:0:0:
448,192,7865,1,0,0:0:0:0:
320,192,8036,1,0,0:0:0:0:
64,192,8207,1,0,0:0:0:0:
192,192,8379,1,0,0:0:0:0:
448,192,9236,1,0,0:0:0:0:
320,192,9407,1,0,0:0:0:0:
64,192,9579,1,0,0:0:0:0:
192,192,9750,1,0,0:0:0:0:
320,192,10265,1,0,0:0:0:0:
448,192,10436,128,0,10693:0:0:0:0:
192,192,10693,128,0,10950:0:0:0:0:
320,192,10950,128,0,11207:0:0:0:0:
64,192,11207,128,0,11465:0:0:0:0:
448,192,11465,128,0,11722:0:0:0:0:
192,192,11722,1,0,0:0:0:0:
448,192,11979,1,0,0:0:0:0:
320,192,12150,1,0,0:0:0:0:
64,192,12322,1,0,0:0:0:0:
192,192,12493,1,0,0:0:0:0:
448,192,13350,1,0,0:0:0:0:
320,192,13522,1,0,0:0:0:0:
64,192,13693,1,0,0:0:0:0:
192,192,13865,1,0,0:0:0:0:
448,192,14722,1,0,0:0:0:0:
320,192,14893,1,0,0:0:0:0:
64,192,15065,1,0,0:0:0:0:
192,192,15236,1,0,0:0:0:0:
448,192,15922,128,0,16265:0:0:0:0:
192,192,16265,128,0,16436:0:0:0:0:
320,192,16436,1,2,0:0:0:0:
448,192,16436,1,0,0:0:0:0:
64,192,16779,1,8,0:0:0:0:
192,192,16779,1,0,0:0:0:70:hihat.wav
320,192,16950,1,0,0:0:0:70:hihat.wav
192,192,17122,1,0,0:0:0:70:hihat.wav
64,192,17293,1,8,0:0:0:0:
448,192,17293,1,0,0:0:0:70:hihat.wav
320,192,17465,1,0,0:0:0:70:hihat.wav
192,192,17636,1,0,0:0:0:70:hihat.wav
320,192,17807,1,2,0:0:0:0:
448,192,17807,1,0,0:0:0:0:
64,192,18150,1,8,0:0:0:0:
192,192,18150,1,0,0:0:0:70:hihat.wav
448,192,18322,1,0,0:0:0:70:hihat.wav
320,192,18493,1,0,0:0:0:70:hihat.wav
64,192,18665,1,8,0:0:0:0:
448,192,18665,1,0,0:0:0:70:hihat.wav
192,192,18836,1,0,0:0:0:70:hihat.wav
320,192,19007,1,0,0:0:0:70:hihat.wav
64,192,19179,1,2,0:0:0:0:
192,192,19179,1,0,0:0:0:0:
320,192,19522,1,8,0:0:0:0:
448,192,19522,1,0,0:0:0:70:hihat.wav
192,192,19693,1,0,0:0:0:70:hihat.wav
320,192,19865,1,0,0:0:0:70:hihat.wav
64,192,20036,1,8,0:0:0:0:
448,192,20036,1,0,0:0:0:70:hihat.wav
192,192,20207,1,0,0:0:0:70:hihat.wav
320,192,20379,1,0,0:0:0:70:hihat.wav
64,192,20550,1,2,0:0:0:0:
192,192,20550,1,0,0:0:0:0:
64,192,20722,1,2,0:0:0:0:
320,192,20893,1,8,0:0:0:0:
448,192,20893,1,0,0:0:0:70:hihat.wav
192,192,21065,1,0,0:0:0:70:hihat.wav
448,192,21236,1,0,0:0:0:70:hihat.wav
64,192,21407,1,8,0:0:0:0:
192,192,21407,1,0,0:0:0:70:hihat.wav
320,192,21579,1,0,0:0:0:70:hihat.wav
64,192,21750,1,8,0:0:0:0:
192,192,21836,1,8,0:0:0:0:
320,192,21922,1,2,0:0:0:0:
448,192,21922,1,0,0:0:0:0:
64,192,22265,1,8,0:0:0:0:
192,192,22265,1,0,0:0:0:70:hihat.wav
320,192,22436,1,0,0:0:0:70:hihat.wav
192,192,22607,1,0,0:0:0:70:hihat.wav
64,192,22779,1,8,0:0:0:0:
448,192,22779,1,0,0:0:0:70:hihat.wav
320,192,22950,1,0,0:0:0:70:hihat.wav
192,192,23122,1,0,0:0:0:70:hihat.wav
320,192,23293,1,2,0:0:0:0:
448,192,23293,1,0,0:0:0:0:
64,192,23636,1,8,0:0:0:0:
192,192,23636,1,0,0:0:0:70:hihat.wav
448,192,23807,1,0,0:0:0:70:hihat.wav
320,192,23979,1,0,0:0:0:70:hihat.wav
64,192,24150,1,8,0:0:0:0:
448,192,24150,1,0,0:0:0:70:hihat.wav
192,192,24322,1,0,0:0:0:70:hihat.wav
320,192,24493,1,0,0:0:0:70:hihat.wav
64,192,24665,1,2,0:0:0:0:
192,192,24665,1,0,0:0:0:0:
320,192,25007,1,8,0:0:0:0:
448,192,25007,1,0,0:0:0:70:hihat.wav
192,192,25179,1,0,0:0:0:70:hihat.wav
320,192,25350,1,0,0:0:0:70:hihat.wav
64,192,25522,1,8,0:0:0:0:
448,192,25522,1,0,0:0:0:70:hihat.wav
192,192,25693,1,0,0:0:0:70:hihat.wav
320,192,25865,1,0,0:0:0:70:hihat.wav
64,192,26036,1,2,0:0:0:0:
192,192,26036,1,0,0:0:0:0:
64,192,26207,1,2,0:0:0:0:
320,192,26379,1,8,0:0:0:0:
448,192,26379,1,0,0:0:0:70:hihat.wav
192,192,26550,1,0,0:0:0:70:hihat.wav
448,192,26722,1,0,0:0:0:70:hihat.wav
64,192,26893,1,8,0:0:0:0:
192,192,26893,1,0,0:0:0:70:hihat.wav
320,192,27065,1,0,0:0:0:70:hihat.wav
64,192,27236,1,8,0:0:0:0:
192,192,27322,1,8,0:0:0:0:
320,192,27407,1,2,0:0:0:0:
448,192,27407,1,0,0:0:0:70:hihat.wav
448,192,27750,1,0,0:0:0:0:
320,192,27865,1,0,0:0:0:0:
64,192,28093,128,0,28265:0:0:0:0:
192,192,28265,1,0,0:0:0:0:
448,192,28436,1,0,0:0:0:0:
320,192,28607,1,0,0:0:0:0:
64,192,28779,1,0,0:0:0:0:
448,192,28865,1,0,0:0:0:0:
192,192,29122,128,0,29293:0:0:0:0:
320,192,29293,128,0,29465:0:0:0:0:
64,192,29465,128,0,29636:0:0:0:0:
192,192,29636,1,0,0:0:0:0:
448,192,29807,1,0,0:0:0:0:
320,192,29979,1,0,0:0:0:0:
64,192,30150,1,0,0:0:0:0:
448,192,30236,1,0,0:0:0:0:
192,192,30493,128,0,30665:0:0:0:0:
320,192,30665,128,0,30836:0:0:0:0:
64,192,30836,128,0,31007:0:0:0:0:
192,192,31007,1,0,0:0:0:0:
448,192,31179,1,0,0:0:0:0:
320,192,31350,1,0,0:0:0:0:
64,192,31522,1,0,0:0:0:0:
448,192,31607,1,0,0:0:0:0:
192,192,31865,128,0,32036:0:0:0:0:
320,192,32036,128,0,32207:0:0:0:0:
64,192,32207,128,0,32379:0:0:0:0:
192,192,32379,1,0,0:0:0:0:
448,192,32550,128,0,32893:0:0:0:0:
192,192,32893,128,0,33065:0:0:0:70:hihat.wav
320,192,33065,1,0,0:0:0:70:hihat.wav
64,192,33236,1,0,0:0:0:70:hihat.wav
192,192,33350,1,0,0:0:0:0:
448,192,33579,128,0,33750:0:0:0:70:hihat.wav
320,192,33750,1,0,0:0:0:70:hihat.wav
64,192,33922,1,0,0:0:0:70:hihat.wav
192,192,34007,1,0,0:0:0:0:
448,192,34093,1,0,0:0:0:70:hihat.wav
320,192,34265,1,0,0:0:0:70:hihat.wav
192,192,34350,1,0,0:0:0:0:
64,192,34436,1,0,0:0:0:70:hihat.wav
448,192,34607,128,0,34779:0:0:0:70:hihat.wav
192,192,34779,128,0,34950:0:0:0:70:hihat.wav
320,192,34950,128,0,35122:0:0:0:70:hihat.wav
448,192,35122,1,0,0:0:0:70:hihat.wav
64,192,35293,1,0,0:0:0:70:hihat.wav
192,192,35379,1,0,0:0:0:0:
448,192,35465,1,0,0:0:0:70:hihat.wav
320,192,35636,1,0,0:0:0:70:hihat.wav
192,192,35722,1,0,0:0:0:0:
64,192,35807,1,0,0:0:0:70:hihat.wav
448,192,35979,128,0,36150:0:0:0:70:hihat.wav
192,192,36150,128,0,36322:0:0:0:70:hihat.wav
320,192,36322,128,0,36493:0:0:0:70:hihat.wav
448,192,36493,1,0,0:0:0:70:hihat.wav
64,192,36665,1,0,0:0:0:70:hihat.wav
192,192,36750,1,0,0:0:0:0:
448,192,36836,1,0,0:0:0:70:hihat.wav
320,192,37007,1,0,0:0:0:70:hihat.wav
192,192,37093,1,0,0:0:0:0:
64,192,37179,1,0,0:0:0:0:
448,192,37350,128,0,37522:0:0:0:0:
192,192,37522,128,0,37693:0:0:0:0:
320,192,37693,128,0,37865:0:0:0:0:
448,192,37865,1,0,0:0:0:0:
192,192,38036,1,0,0:0:0:0:
320,192,38207,1,0,0:0:0:0:
192,192,38379,1,0,0:0:0:0:
320,192,38550,1,0,0:0:0:0:
192,192,38722,1,0,0:0:0:0:
320,192,38893,1,0,0:0:0:0:
192,192,39065,1,0,0:0:0:0:
320,192,39236,1,0,0:0:0:0:
192,192,39407,1,0,0:0:0:0:
320,192,39579,1,0,0:0:0:0:
192,192,39750,1,0,0:0:0:0:
320,192,39922,1,0,0:0:0:0:
192,192,40093,1,0,0:0:0:0:
320,192,40265,1,0,0:0:0:0:
192,192,40436,1,0,0:0:0:0:
320,192,40607,1,0,0:0:0:0:
192,192,40779,1,0,0:0:0:0:
320,192,40950,1,0,0:0:0:0:
192,192,41122,1,0,0:0:0:0:
320,192,41293,1,0,0:0:0:0:
192,192,41465,1,0,0:0:0:0:
320,192,41636,1,0,0:0:0:0:
192,192,41807,1,0,0:0:0:0:
320,192,41979,1,0,0:0:0:0:
192,192,42150,1,0,0:0:0:0:
320,192,42322,1,0,0:0:0:0:
192,192,42493,1,0,0:0:0:0:
320,192,42665,1,0,0:0:0:0:
192,192,42836,1,0,0:0:0:0:
320,192,43007,1,0,0:0:0:0:
192,192,43179,1,0,0:0:0:0:
320,192,43350,1,0,0:0:0:0:
192,192,43522,1,0,0:0:0:0:
320,192,43693,1,0,0:0:0:0:
64,192,43865,1,8,0:0:0:0:
192,192,43865,1,0,0:0:0:0:
320,192,44036,1,8,0:0:0:0:
448,192,44036,1,0,0:0:0:0:
64,192,44379,1,8,0:0:0:0:
448,192,44379,1,0,0:0:0:0:
192,192,44550,1,8,0:0:0:0:
320,192,44550,1,0,0:0:0:0:
64,192,44893,1,8,0:0:0:0:
192,192,44893,1,0,0:0:0:0:
320,192,45065,1,8,0:0:0:0:
448,192,45065,1,0,0:0:0:0:
192,192,45407,1,8,0:0:0:0:
448,192,45407,1,0,0:0:0:0:
64,192,45750,1,8,0:0:0:0:
320,192,45750,1,0,0:0:0:0:
64,192,46093,1,8,0:0:0:0:
192,192,46093,1,0,0:0:0:0:
320,192,46265,1,8,0:0:0:0:
448,192,46265,1,0,0:0:0:0:
64,192,46436,1,8,0:0:0:0:
192,192,46436,1,0,0:0:0:0:
320,192,46607,1,8,0:0:0:0:
448,192,46607,1,0,0:0:0:0:
64,192,46779,1,8,0:0:0:0:
192,192,46779,1,0,0:0:0:0:
64,192,47122,1,8,0:0:0:0:
448,192,47122,1,0,0:0:0:0:
192,192,47293,1,8,0:0:0:0:
320,192,47293,1,0,0:0:0:0:
320,192,47636,1,8,0:0:0:0:
448,192,47636,1,0,0:0:0:0:
64,192,47807,1,8,0:0:0:0:
192,192,47807,1,0,0:0:0:0:
64,192,48150,1,8,0:0:0:0:
320,192,48150,1,0,0:0:0:0:
192,192,48493,1,8,0:0:0:0:
448,192,48493,1,0,0:0:0:0:
64,192,48836,1,8,0:0:0:0:
192,192,48836,1,0,0:0:0:0:
320,192,49007,1,8,0:0:0:0:
448,192,49007,1,0,0:0:0:0:
64,192,49179,1,8,0:0:0:0:
192,192,49179,1,0,0:0:0:0:
320,192,49350,1,8,0:0:0:0:
448,192,49350,1,0,0:0:0:0:
64,192,49522,128,0,49779:0:0:0:0:
320,192,49779,128,0,50036:0:0:0:0:
192,192,50036,128,0,50293:0:0:0:0:
448,192,50293,1,0,0:0:0:0:
448,192,50722,1,0,0:0:0:0:
448,192,51065,1,0,0:0:0:0:
64,192,51407,1,0,0:0:0:0:
64,192,51750,1,0,0:0:0:0:
448,192,52093,1,0,0:0:0:0:
448,192,52436,1,0,0:0:0:0:
64,192,52779,1,0,0:0:0:0:
192,192,52950,1,0,0:0:0:0:
448,192,53122,1,0,0:0:0:0:
320,192,53293,1,0,0:0:0:0:
192,192,53465,1,0,0:0:0:0:
64,192,53636,1,0,0:0:0:0:
320,192,53807,1,0,0:0:0:0:
192,192,53979,1,0,0:0:0:0:
320,192,54150,1,0,0:0:0:0:
192,192,54322,1,0,0:0:0:0:
448,192,54493,1,0,0:0:0:0:
64,192,54665,1,0,0:0:0:0:
448,192,54836,1,0,0:0:0:0:
64,192,55007,1,0,0:0:0:0:
448,192,55179,1,0,0:0:0:0:
320,192,55265,1,0,0:0:0:0:
64,192,55350,1,0,0:0:0:0:
192,192,55436,1,0,0:0:0:0:
320,192,55522,1,0,0:0:0:0:
192,192,56550,128,0,56893:0:0:0:0:
320,192,56893,1,0,0:0:0:0:
192,192,57065,1,0,0:0:0:0:
320,192,57236,1,0,0:0:0:0:
192,192,57407,1,0,0:0:0:0:
320,192,57579,1,2,0:0:0:0:
448,192,57579,1,0,0:0:0:0:
64,192,57922,1,8,0:0:0:0:
192,192,57922,1,0,0:0:0:70:hihat.wav
320,192,58093,1,0,0:0:0:70:hihat.wav
64,192,58265,1,0,0:0:0:70:hihat.wav
192,192,58436,1,8,0:0:0:0:
320,192,58436,1,0,0:0:0:70:hihat.wav
448,192,58607,1,0,0:0:0:70:hihat.wav
64,192,58779,1,2,0:0:0:0:
192,192,58779,1,0,0:0:0:70:hihat.wav
320,192,58950,1,2,0:0:0:0:
448,192,58950,1,0,0:0:0:70:hihat.wav
64,192,59293,1,8,0:0:0:0:
192,192,59293,1,0,0:0:0:70:hihat.wav
448,192,59465,1,0,0:0:0:70:hihat.wav
320,192,59636,1,0,0:0:0:70:hihat.wav
64,192,59807,1,8,0:0:0:0:
448,192,59807,1,0,0:0:0:70:hihat.wav
192,192,59979,1,0,0:0:0:70:hihat.wav
320,192,60150,1,2,0:0:0:0:
448,192,60150,1,0,0:0:0:70:hihat.wav
64,192,60322,1,2,0:0:0:0:
192,192,60322,1,0,0:0:0:0:
320,192,60665,1,8,0:0:0:0:
448,192,60665,1,0,0:0:0:70:hihat.wav
192,192,60836,1,0,0:0:0:70:hihat.wav
448,192,61007,1,0,0:0:0:70:hihat.wav
192,192,61179,1,8,0:0:0:0:
320,192,61179,1,0,0:0:0:70:hihat.wav
64,192,61350,1,0,0:0:0:70:hihat.wav
320,192,61522,1,2,0:0:0:0:
448,192,61522,1,0,0:0:0:70:hihat.wav
64,192,61693,1,2,0:0:0:0:
192,192,61693,1,0,0:0:0:70:hihat.wav
320,192,62036,1,8,0:0:0:0:
448,192,62036,1,0,0:0:0:70:hihat.wav
64,192,62207,1,0,0:0:0:70:hihat.wav
192,192,62379,1,0,0:0:0:70:hihat.wav
64,192,62550,1,8,0:0:0:0:
448,192,62550,1,0,0:0:0:70:hihat.wav
320,192,62722,1,0,0:0:0:70:hihat.wav
64,192,62893,1,8,0:0:0:0:
192,192,62979,1,8,0:0:0:0:
320,192,63065,1,2,0:0:0:0:
448,192,63065,1,0,0:0:0:0:
64,192,63407,1,8,0:0:0:0:
192,192,63407,1,0,0:0:0:70:hihat.wav
320,192,63579,1,0,0:0:0:70:hihat.wav
448,192,63750,1,0,0:0:0:70:hihat.wav
64,192,63922,1,8,0:0:0:0:
320,192,63922,1,0,0:0:0:70:hihat.wav
192,192,64093,1,0,0:0:0:70:hihat.wav
320,192,64265,1,2,0:0:0:0:
448,192,64265,1,0,0:0:0:70:hihat.wav
64,192,64436,1,2,0:0:0:0:
192,192,64436,1,0,0:0:0:70:hihat.wav
320,192,64779,1,8,0:0:0:0:
448,192,64779,1,0,0:0:0:70:hihat.wav
192,192,64950,1,0,0:0:0:70:hihat.wav
64,192,65122,1,0,0:0:0:70:hihat.wav
192,192,65293,1,8,0:0:0:0:
448,192,65293,1,0,0:0:0:70:hihat.wav
320,192,65465,1,0,0:0:0:70:hihat.wav
64,192,65636,1,2,0:0:0:0:
192,192,65636,1,0,0:0:0:70:hihat.wav
320,192,65807,1,2,0:0:0:0:
448,192,65807,1,0,0:0:0:0:
64,192,66150,1,8,0:0:0:0:
192,192,66150,1,0,0:0:0:70:hihat.wav
320,192,66322,1,0,0:0:0:70:hihat.wav
192,192,66493,1,0,0:0:0:70:hihat.wav
64,192,66665,1,8,0:0:0:0:
320,192,66665,1,0,0:0:0:70:hihat.wav
448,192,66836,1,0,0:0:0:70:hihat.wav
64,192,67007,1,2,0:0:0:0:
192,192,67007,1,0,0:0:0:70:hihat.wav
320,192,67179,1,2,0:0:0:0:
448,192,67179,1,0,0:0:0:70:hihat.wav
64,192,67522,1,8,0:0:0:0:
192,192,67522,1,0,0:0:0:70:hihat.wav
448,192,67693,1,0,0:0:0:70:hihat.wav
320,192,67865,1,0,0:0:0:70:hihat.wav
192,192,68036,1,8,0:0:0:0:
448,192,68036,1,0,0:0:0:70:hihat.wav
64,192,68207,1,0,0:0:0:70:hihat.wav
448,192,68379,1,8,0:0:0:0:
320,192,68465,1,8,0:0:0:0:
64,192,68550,1,2,0:0:0:0:
192,192,68550,1,0,0:0:0:0:
320,192,68893,1,8,0:0:0:0:
448,192,68893,1,0,0:0:0:70:hihat.wav
192,192,69065,1,0,0:0:0:70:hihat.wav
320,192,69236,1,0,0:0:0:70:hihat.wav
64,192,69407,1,8,0:0:0:0:
192,192,69407,1,0,0:0:0:70:hihat.wav
320,192,69579,1,0,0:0:0:70:hihat.wav
64,192,69750,1,2,0:0:0:0:
192,192,69750,1,0,0:0:0:70:hihat.wav
320,192,69922,1,2,0:0:0:0:
448,192,69922,1,0,0:0:0:70:hihat.wav
64,192,70265,1,8,0:0:0:0:
192,192,70265,1,0,0:0:0:70:hihat.wav
320,192,70436,1,0,0:0:0:70:hihat.wav
64,192,70607,1,0,0:0:0:70:hihat.wav
320,192,70779,1,8,0:0:0:0:
448,192,70779,1,0,0:0:0:70:hihat.wav
64,192,70950,1,0,0:0:0:70:hihat.wav
320,192,71122,1,2,0:0:0:0:
448,192,71122,1,0,0:0:0:70:hihat.wav
64,192,71293,1,2,0:0:0:0:
192,192,71293,1,0,0:0:0:0:
320,192,71636,1,8,0:0:0:0:
448,192,71636,1,0,0:0:0:70:hihat.wav
192,192,71807,1,0,0:0:0:70:hihat.wav
448,192,71979,1,0,0:0:0:70:hihat.wav
64,192,72150,1,8,0:0:0:0:
192,192,72150,1,0,0:0:0:70:hihat.wav
448,192,72322,1,0,0:0:0:70:hihat.wav
64,192,72493,1,2,0:0:0:0:
192,192,72493,1,0,0:0:0:70:hihat.wav
320,192,72665,1,2,0:0:0:0:
448,192,72665,1,0,0:0:0:70:hihat.wav
64,192,73007,1,8,0:0:0:0:
192,192,73007,1,0,0:0:0:70:hihat.wav
320,192,73179,1,0,0:0:0:70:hihat.wav
192,192,73350,1,0,0:0:0:70:hihat.wav
320,192,73522,1,8,0:0:0:0:
448,192,73522,1,0,0:0:0:70:hihat.wav
192,192,73693,1,0,0:0:0:70:hihat.wav
448,192,73865,1,8,0:0:0:0:
320,192,73950,1,8,0:0:0:0:
64,192,74036,1,2,0:0:0:0:
192,192,74036,128,0,74379:0:0:0:0:
320,192,74379,1,8,0:0:0:0:
448,192,74379,1,0,0:0:0:70:hihat.wav
64,192,74550,1,0,0:0:0:70:hihat.wav
320,192,74722,1,0,0:0:0:70:hihat.wav
64,192,74893,1,8,0:0:0:0:
448,192,74893,1,0,0:0:0:70:hihat.wav
192,192,75065,1,0,0:0:0:70:hihat.wav
320,192,75236,1,2,0:0:0:0:
448,192,75236,1,0,0:0:0:70:hihat.wav
64,192,75407,1,2,0:0:0:0:
192,192,75407,1,0,0:0:0:0:
320,192,75750,1,8,0:0:0:0:
448,192,75750,1,0,0:0:0:70:hihat.wav
192,192,75922,1,0,0:0:0:70:hihat.wav
320,192,76093,1,0,0:0:0:70:hihat.wav
64,192,76265,1,8,0:0:0:0:
192,192,76265,1,0,0:0:0:70:hihat.wav
320,192,76436,1,0,0:0:0:70:hihat.wav
64,192,76607,1,2,0:0:0:0:
192,192,76607,1,0,0:0:0:70:hihat.wav
320,192,76779,128,2,77122:0:0:0:0:
448,192,76779,1,0,0:0:0:0:
64,192,77122,1,8,0:0:0:0:
192,192,77122,1,0,0:0:0:70:hihat.wav
448,192,77293,1,0,0:0:0:70:hihat.wav
192,192,77465,1,0,0:0:0:70:hihat.wav
64,192,77636,1,8,0:0:0:0:
448,192,77636,1,0,0:0:0:70:hihat.wav
320,192,77807,1,0,0:0:0:70:hihat.wav
64,192,77979,1,2,0:0:0:0:
192,192,77979,1,0,0:0:0:70:hihat.wav
320,192,78150,1,2,0:0:0:0:
448,192,78150,1,0,0:0:0:0:
64,192,78493,1,8,0:0:0:0:
192,192,78493,1,0,0:0:0:70:hihat.wav
320,192,78665,1,0,0:0:0:70:hihat.wav
192,192,78836,1,0,0:0:0:70:hihat.wav
320,192,79007,1,8,0:0:0:0:
448,192,79007,1,0,0:0:0:70:hihat.wav
192,192,79179,1,0,0:0:0:70:hihat.wav
448,192,79350,1,8,0:0:0:0:
320,192,79436,1,8,0:0:0:0:
64,192,79522,1,2,0:0:0:0:
192,192,79522,128,0,79865:0:0:0:0:
320,192,79865,1,8,0:0:0:0:
448,192,79865,1,0,0:0:0:70:hihat.wav
64,192,80036,1,2,0:0:0:0:
192,192,80036,1,0,0:0:0:70:hihat.wav
448,192,80207,1,0,0:0:0:70:hihat.wav
64,192,80379,1,8,0:0:0:0:
320,192,80379,1,0,0:0:0:70:hihat.wav
192,192,80550,1,2,0:0:0:0:
448,192,80550,128,0,80722:0:0:0:70:hihat.wav
64,192,80722,128,2,80893:0:0:0:0:
320,192,80893,1,2,0:0:0:0:
448,192,80893,1,0,0:0:0:0:
64,192,81236,1,8,0:0:0:0:
192,192,81236,1,0,0:0:0:70:hihat.wav
320,192,81407,1,0,0:0:0:70:hihat.wav
192,192,81579,1,0,0:0:0:70:hihat.wav
64,192,81750,1,8,0:0:0:0:
320,192,81750,1,0,0:0:0:70:hihat.wav
192,192,81922,1,0,0:0:0:70:hihat.wav
320,192,82093,1,2,0:0:0:0:
448,192,82093,1,0,0:0:0:70:hihat.wav
64,192,82265,1,2,0:0:0:0:
192,192,82265,128,0,82607:0:0:0:0:
320,192,82607,1,8,0:0:0:0:
448,192,82607,1,0,0:0:0:70:hihat.wav
64,192,82779,1,0,0:0:0:70:hihat.wav
448,192,82950,1,0,0:0:0:70:hihat.wav
64,192,83122,1,8,0:0:0:0:
320,192,83122,1,0,0:0:0:70:hihat.wav
192,192,83293,1,2,0:0:0:0:
448,192,83293,128,0,83465:0:0:0:70:hihat.wav
64,192,83465,128,2,83636:0:0:0:0:
320,192,83636,1,2,0:0:0:0:
448,192,83636,1,0,0:0:0:0:
64,192,83979,1,8,0:0:0:0:
192,192,83979,1,0,0:0:0:70:hihat.wav
320,192,84150,1,0,0:0:0:70:hihat.wav
192,192,84322,1,0,0:0:0:70:hihat.wav
64,192,84493,1,8,0:0:0:0:
320,192,84493,1,0,0:0:0:70:hihat.wav
192,192,84665,1,0,0:0:0:70:hihat.wav
448,192,84836,1,8,0:0:0:0:
320,192,84922,1,8,0:0:0:0:
64,192,85007,1,8,0:0:0:0:
192,192,85007,1,2,0:0:0:0:
320,192,85350,1,0,0:0:0:0:
64,192,85522,1,8,0:0:0:0:
192,192,85522,1,2,0:0:0:0:
448,192,85693,1,0,0:0:0:0:
192,192,86036,1,8,0:0:0:0:
320,192,86036,1,2,0:0:0:0:
64,192,86207,1,0,0:0:0:0:
320,192,86379,1,8,0:0:0:0:
448,192,86379,1,2,0:0:0:0:
64,192,86722,1,0,0:0:0:0:
320,192,86893,1,8,0:0:0:0:
448,192,86893,1,2,0:0:0:0:
192,192,87065,1,0,0:0:0:0:
64,192,87407,1,8,0:0:0:0:
448,192,87407,1,2,0:0:0:0:
320,192,87579,1,0,0:0:0:0:
64,192,87750,1,2,0:0:0:0:
192,192,87750,1,8,0:0:0:0:
448,192,88093,1,0,0:0:0:0:
64,192,88265,1,2,0:0:0:0:
192,192,88265,1,8,0:0:0:0:
320,192,88436,1,0,0:0:0:0:
192,192,88779,1,2,0:0:0:0:
448,192,88779,1,8,0:0:0:0:
64,192,88950,1,0,0:0:0:0:
320,192,89122,1,8,0:0:0:0:
448,192,89122,1,2,0:0:0:0:
192,192,89465,1,0,0:0:0:0:
320,192,89636,1,8,0:0:0:0:
448,192,89636,1,2,0:0:0:0:
64,192,89807,1,0,0:0:0:0:
192,192,90150,1,8,0:0:0:0:
320,192,90150,1,2,0:0:0:0:
448,192,90322,1,0,0:0:0:0:
64,192,90493,1,2,0:0:0:0:
192,192,90493,1,8,0:0:0:0:
320,192,90836,1,0,0:0:0:0:
64,192,91007,1,2,0:0:0:0:
192,192,91007,1,8,0:0:0:0:
448,192,91179,1,0,0:0:0:0:
64,192,91522,1,2,0:0:0:0:
320,192,91522,1,8,0:0:0:0:
192,192,91693,1,0,0:0:0:0:
320,192,91865,1,8,0:0:0:0:
448,192,91865,1,2,0:0:0:0:
64,192,92207,1,0,0:0:0:0:
320,192,92379,1,8,0:0:0:0:
448,192,92379,1,2,0:0:0:0:
192,192,92550,1,0,0:0:0:0:
64,192,92893,1,8,0:0:0:0:
448,192,92893,1,2,0:0:0:0:
320,192,93065,1,0,0:0:0:0:
64,192,93236,1,2,0:0:0:0:
192,192,93236,1,8,0:0:0:0:
448,192,93579,1,0,0:0:0:0:
64,192,93750,1,2,0:0:0:0:
192,192,93750,1,8,0:0:0:0:
320,192,93922,1,0,0:0:0:0:
192,192,94265,1,2,0:0:0:0:
448,192,94265,1,8,0:0:0:0:
64,192,94436,1,0,0:0:0:0:
320,192,94607,128,0,94950:0:0:0:0:
64,192,94950,1,0,0:0:0:0:
192,192,95122,1,0,0:0:0:0:
448,192,95293,128,0,95636:0:0:0:0:
64,192,95636,1,0,0:0:0:0:
320,192,95807,1,0,0:0:0:0:
64,192,95979,1,2,0:0:0:0:
192,192,95979,1,0,0:0:0:0:
320,192,96322,1,8,0:0:0:0:
448,192,96322,1,0,0:0:0:70:hihat.wav
64,192,96493,1,0,0:0:0:70:hihat.wav
320,192,96665,1,0,0:0:0:70:hihat.wav
192,192,96836,1,2,0:0:0:0:
448,192,96836,1,0,0:0:0:70:hihat.wav
64,192,97007,1,8,0:0:0:0:
320,192,97007,1,0,0:0:0:70:hihat.wav
448,192,97179,1,0,0:0:0:70:hihat.wav
64,192,97350,1,2,0:0:0:0:
192,192,97350,1,0,0:0:0:70:hihat.wav
64,192,97522,1,2,0:0:0:0:
320,192,97693,1,8,0:0:0:0:
448,192,97693,1,0,0:0:0:70:hihat.wav
192,192,97950,1,2,0:0:0:0:
320,192,97950,1,0,0:0:0:70:hihat.wav
64,192,98207,1,2,0:0:0:0:
192,192,98207,1,0,0:0:0:70:hihat.wav
320,192,98379,1,8,0:0:0:0:
448,192,98379,1,0,0:0:0:70:hihat.wav
64,192,98550,1,2,0:0:0:0:
192,192,98636,1,2,0:0:0:0:
320,192,98722,1,2,0:0:0:0:
448,192,98722,1,0,0:0:0:0:
64,192,99065,1,8,0:0:0:0:
192,192,99065,1,0,0:0:0:70:hihat.wav
320,192,99236,1,0,0:0:0:70:hihat.wav
192,192,99407,1,0,0:0:0:70:hihat.wav
64,192,99579,1,2,0:0:0:0:
448,192,99579,1,0,0:0:0:70:hihat.wav
192,192,99750,1,8,0:0:0:0:
320,192,99750,1,0,0:0:0:70:hihat.wav
64,192,99922,1,0,0:0:0:70:hihat.wav
320,192,100093,1,2,0:0:0:0:
448,192,100093,1,0,0:0:0:70:hihat.wav
320,192,100265,1,2,0:0:0:0:
64,192,100436,1,8,0:0:0:0:
192,192,100436,1,0,0:0:0:70:hihat.wav
192,192,100693,1,2,0:0:0:0:
320,192,100693,1,0,0:0:0:70:hihat.wav
320,192,100950,1,2,0:0:0:0:
448,192,100950,1,0,0:0:0:70:hihat.wav
64,192,101122,1,8,0:0:0:0:
192,192,101122,1,0,0:0:0:70:hihat.wav
448,192,101293,1,2,0:0:0:0:
320,192,101379,1,2,0:0:0:0:
64,192,101465,1,2,0:0:0:0:
192,192,101465,1,0,0:0:0:70:hihat.wav
320,192,101807,1,8,0:0:0:0:
448,192,101807,1,0,0:0:0:70:hihat.wav
64,192,101979,1,0,0:0:0:70:hihat.wav
320,192,102150,1,0,0:0:0:70:hihat.wav
192,192,102322,1,2,0:0:0:0:
448,192,102322,1,0,0:0:0:70:hihat.wav
64,192,102493,1,8,0:0:0:0:
320,192,102493,1,0,0:0:0:70:hihat.wav
448,192,102665,1,0,0:0:0:70:hihat.wav
64,192,102836,1,2,0:0:0:0:
192,192,102836,1,0,0:0:0:70:hihat.wav
64,192,103007,1,2,0:0:0:0:
320,192,103179,1,8,0:0:0:0:
448,192,103179,1,0,0:0:0:70:hihat.wav
192,192,103436,1,2,0:0:0:0:
320,192,103436,1,0,0:0:0:70:hihat.wav
64,192,103693,1,2,0:0:0:0:
192,192,103693,1,0,0:0:0:70:hihat.wav
320,192,103865,1,8,0:0:0:0:
448,192,103865,1,0,0:0:0:70:hihat.wav
64,192,104036,1,2,0:0:0:0:
192,192,104122,1,2,0:0:0:0:
320,192,104207,1,2,0:0:0:0:
448,192,104207,1,0,0:0:0:0:
64,192,104550,1,8,0:0:0:0:
192,192,104550,1,0,0:0:0:70:hihat.wav
320,192,104722,1,0,0:0:0:70:hihat.wav
192,192,104893,1,0,0:0:0:70:hihat.wav
64,192,105065,1,2,0:0:0:0:
448,192,105065,1,0,0:0:0:70:hihat.wav
192,192,105236,1,8,0:0:0:0:
320,192,105236,1,0,0:0:0:70:hihat.wav
64,192,105407,1,0,0:0:0:70:hihat.wav
320,192,105579,1,2,0:0:0:0:
448,192,105579,1,0,0:0:0:70:hihat.wav
320,192,105750,1,2,0:0:0:0:
64,192,105922,1,8,0:0:0:0:
192,192,105922,1,0,0:0:0:70:hihat.wav
192,192,106179,1,2,0:0:0:0:
320,192,106179,1,0,0:0:0:70:hihat.wav
320,192,106436,1,2,0:0:0:0:
448,192,106436,1,0,0:0:0:70:hihat.wav
64,192,106607,1,8,0:0:0:0:
192,192,106607,1,0,0:0:0:70:hihat.wav
448,192,106779,1,2,0:0:0:0:
320,192,106865,1,2,0:0:0:0:
64,192,106950,1,2,0:0:0:0:
192,192,106950,1,0,0:0:0:70:hihat.wav
