osu file format v14

[General]
AudioFilename: audio.mp3
AudioLeadIn: 0
PreviewTime: -1
Countdown: 0
SampleSet: Normal
StackLeniency: 0.7
Mode: 0
LetterboxInBreaks: 0
WidescreenStoryboard: 0

[Editor]
DistanceSpacing: 0.8
BeatDivisor: 8
GridSize: 4
TimelineZoom: 1.4

[Metadata]
Title:Zoology
TitleUnicode:Zoology
Artist:Skrillex Ft. Knife Party
ArtistUnicode:Skrillex Ft. Knife Party
Creator:john-XD
Version:normal_1
Source:knife party
Tags:
BeatmapID:1174165
BeatmapSetID:554648

[Difficulty]
HPDrainRate:4
CircleSize:3
OverallDifficulty:6
ApproachRate:6
SliderMultiplier:1.6
SliderTickRate:1

[Events]
//Background and Video events
0,0,"maxresdefault.jpg",0,0
//Break Periods
2,60365,61487
//Storyboard Layer 0 (Background)
//Storyboard Layer 1 (Fail)
//Storyboard Layer 2 (Pass)
//Storyboard Layer 3 (Foreground)
//Storyboard Sound Samples

[TimingPoints]
0,499.3,4,1,0,100,1,0

[Colours]
Combo1 : 121,0,0
Combo2 : 15,0,147
Combo3 : 26,81,30
Combo4 : 47,43,98
Combo5 : 136,102,0

[HitObjects]
108,152,1435,6,10,P|152:116|172:144,1,100
260,120,2246,1,10,0:0:0:0:
380,76,2746,2,0,L|440:232,1,160
188,196,3557,2,10,P|180:148|128:176,1,120
280,176,4368,5,10,0:0:0:0:
380,96,4868,2,0,L|96:44,1,280
164,164,6116,2,10,P|196:128|244:172,1,120
184,192,6865,2,10,P|216:212|272:192,2,100
244,200,7926,5,10,0:0:0:0:
272,108,8300,2,0,L|376:40,1,120
228,156,9361,1,10,0:0:0:0:
248,232,9673,1,10,0:0:0:0:
236,208,10048,2,10,P|216:168|160:208,2,120
328,100,11359,2,0,P|400:176|316:308,1,280
152,188,12732,2,10,P|172:148|204:148,2,80
40,208,13668,2,0,L|288:108,1,260
192,132,14979,2,0,P|232:132|296:184,1,120
96,208,15852,1,0,0:0:0:0:
136,92,16227,2,0,L|240:68,1,100
368,120,16976,6,0,P|312:112|296:160,1,100
296,144,17600,1,0,0:0:0:0:
364,136,17912,2,0,P|336:180|284:176,1,100
96,208,18536,1,0,0:0:0:0:
80,180,18910,2,8,L|140:180,1,60
144,176,19347,6,8,L|216:176,1,60
212,176,19722,2,8,L|212:236,1,60
212,236,20096,2,8,L|280:236,1,60
272,236,20471,2,8,L|272:168,1,60
268,180,20845,6,8,L|344:180,2,60
268,180,21407,2,8,L|192:180,2,60
268,184,21969,2,8,L|268:244,2,60
256,188,22530,1,8,0:0:0:0:
256,188,22717,1,8,0:0:0:0:
256,188,22905,21,8,0:0:0:0:
316,188,23279,2,8,L|316:124,1,60
256,128,23654,2,8,L|256:188,1,60
196,128,24028,2,0,L|196:200,1,60
320,308,24403,2,0,L|320:244,1,60
264,312,24777,2,8,L|264:248,1,60
204,312,25152,6,8,L|204:244,1,60
204,88,25589,2,8,L|204:164,1,60
268,88,26026,6,8,P|268:152|212:52,1,340
84,96,27586,5,8,0:0:0:0:
168,260,28709,1,8,0:0:0:0:
240,112,29770,1,8,0:0:0:0:
276,268,30894,1,8,0:0:0:0:
68,236,31955,1,0,0:0:0:0:
392,208,33016,5,4,0:0:0:0:
176,116,34139,1,4,0:0:0:0:
132,280,35200,1,4,0:0:0:0:
104,216,36324,2,10,P|116:176|248:160,2,180
168,180,38820,1,10,0:0:0:0:
164,264,39631,2,10,L|240:212,2,80
200,172,40380,38,10,L|120:228,2,80
140,196,41254,1,10,0:0:0:0:
192,196,42128,2,10,P|208:180|264:208,1,80
258,193,42627,2,10,L|260:128,1,60
104,136,44937,2,10,B|120:120|160:160|200:160|256:144|292:108|368:100|440:160|412:244|412:248|272:264,2,460
120,136,48307,2,10,P|200:116|240:144,2,120
224,132,49430,1,10,0:0:0:0:
100,168,49867,6,10,B|128:224|240:240|312:200|368:180|392:136,1,320
224,164,51178,2,10,L|184:208,2,60
256,192,51927,12,10,53362,0:0:0:0:
56,176,53799,6,10,B|88:244|180:200|180:200|232:240|312:200|320:180|328:180,1,300
324,184,54985,2,10,P|344:200|320:256,2,80
328,192,55796,1,10,0:0:0:0:
256,192,56233,12,10,57606,0:0:0:0:
144,144,58168,6,10,B|128:172|216:216|376:176|384:168|384:168|396:64|396:64|292:56|116:96,1,640
80,104,62537,6,10,P|168:80|180:128,2,160
80,104,63785,2,10,L|120:176,2,80
116,176,64596,2,0,L|300:80,1,200
152,36,65782,2,10,P|252:96|244:136,2,160
256,192,67155,12,10,68092,0:0:0:0:
92,176,68528,6,10,P|124:148|156:152,3,60
228,124,69340,1,10,0:0:0:0:
332,84,69714,2,10,P|240:88|232:104,2,120
256,128,70900,1,0,0:0:0:0:
256,192,71212,12,10,88251,0:0:0:0:
156,88,88688,5,10,0:0:0:0:
156,88,89000,2,10,L|204:92,1,40
204,140,89437,2,10,L|256:152,1,40
320,124,89874,6,10,L|332:168,1,40
252,160,90310,2,10,L|200:144,1,40
213,148,90747,2,10,L|256:120,1,40
288,176,91184,2,10,L|308:224,1,40
260,148,91621,2,10,L|236:112,1,40
192,48,92058,2,10,L|236:76,1,40
204,148,92495,6,10,L|192:196,2,40
276,180,93057,5,0,0:0:0:0:
332,96,93306,6,10,L|384:88,1,40
356,168,93743,2,10,L|332:128,1,40
276,156,94180,2,10,L|236:120,1,40
324,104,94617,2,10,L|368:88,1,40
308,124,95054,6,10,L|264:156,1,40
284,212,95491,2,10,L|284:260,1,40
212,260,95928,2,10,L|256:252,1,40
292,184,96364,2,10,L|240:168,1,40
200,208,96801,2,10,L|160:248,4,40
164,212,98486,5,10,0:0:0:0:
312,44,99610,1,10,0:0:0:0:
344,304,100671,1,10,0:0:0:0:
144,104,101794,1,10,0:0:0:0:
412,120,102855,1,10,0:0:0:0:
164,264,103979,1,10,0:0:0:0:
108,40,104915,1,10,0:0:0:0:
256,152,105539,2,10,P|308:132|336:108,2,80
136,108,106538,1,10,0:0:0:0:
164,208,106787,2,10,L|192:172,1,40
256,192,107224,12,10,108098,0:0:0:0:
140,136,108348,6,10,P|244:88|368:248,2,340
140,136,110907,2,10,L|164:164,3,20
153,151,111343,1,10,0:0:0:0:
192,68,111593,2,10,L|216:120,5,40
192,68,112404,1,10,0:0:0:0:
256,192,112716,12,10,113528,0:0:0:0:
124,148,113840,6,10,L|196:180,2,60
128,100,114839,2,10,B|212:200|332:152|332:152|416:56|280:320,2,480
128,100,118146,2,10,P|180:96|208:136,2,100
128,100,119020,1,10,0:0:0:0:
80,160,119270,2,10,B|152:116|168:140|320:108,1,240
212,144,120331,2,10,P|160:172|144:184,2,80
212,144,121080,1,10,0:0:0:0:
92,104,121392,2,10,L|256:116,2,160
