osu file format v14

[General]
AudioFilename: audio.mp3
AudioLeadIn: 0
PreviewTime: -1
Countdown: 1
SampleSet: None
StackLeniency: 0.7
Mode: 0
LetterboxInBreaks: 0
WidescreenStoryboard: 1

[Editor]
DistanceSpacing: 0.8
BeatDivisor: 4
GridSize: 32
TimelineZoom: 1

[Metadata]
Title:Summit (Anki remix)
TitleUnicode:Summit (Anki remix)
Artist:Skrillex
ArtistUnicode:Skrillex
Creator:MamaFroyo
Version:succ
Source:
Tags:
BeatmapID:1492837
BeatmapSetID:605694

[Difficulty]
HPDrainRate:5
CircleSize:4
OverallDifficulty:5
ApproachRate:10
SliderMultiplier:1.4
SliderTickRate:1

[Events]
//Background and Video events
0,0,"deja_vu_by_nanomortis-d8r99jv.png",0,0
//Break Periods
//Storyboard Layer 0 (Background)
//Storyboard Layer 1 (Fail)
//Storyboard Layer 2 (Pass)
//Storyboard Layer 3 (Foreground)
//Storyboard Sound Samples

[TimingPoints]
9488.74682350775,399.936842105264,4,1,0,100,1,0

[HitObjects]
256,192,83477,5,0,0:0:0:0:
256,64,83677,1,0,0:0:0:0:
256,288,83876,1,0,0:0:0:0:
256,288,84276,2,0,L|256:192,1,70
256,96,84676,1,0,0:0:0:0:
256,96,85076,1,0,0:0:0:0:
128,160,85476,5,0,0:0:0:0:
352,96,85676,1,0,0:0:0:0:
128,256,85876,1,0,0:0:0:0:
352,160,86076,1,0,0:0:0:0:
192,352,86276,1,0,0:0:0:0:
148,290,86476,5,0,0:0:0:0:
138,264,86576,1,0,0:0:0:0:
148,232,86676,1,0,0:0:0:0:
188,211,86776,1,0,0:0:0:0:
215,200,86876,1,0,0:0:0:0:
247,192,86976,1,0,0:0:0:0:
295,181,87076,1,0,0:0:0:0:
341,174,87176,1,0,0:0:0:0:
371,131,87276,1,0,0:0:0:0:
372,87,87376,1,0,0:0:0:0:
344,62,87476,1,0,0:0:0:0:
302,44,87576,1,0,0:0:0:0:
248,51,87676,1,0,0:0:0:0:
209,91,87776,1,0,0:0:0:0:
198,128,87876,1,0,0:0:0:0:
187,167,87976,1,0,0:0:0:0:
172,198,88076,1,0,0:0:0:0:
138,211,88176,1,0,0:0:0:0:
114,179,88276,1,0,0:0:0:0:
114,138,88376,1,0,0:0:0:0:
117,92,88476,1,0,0:0:0:0:
131,61,88576,1,0,0:0:0:0:
170,36,88676,1,0,0:0:0:0:
207,39,88776,1,0,0:0:0:0:
236,55,88876,1,0,0:0:0:0:
257,75,88976,1,0,0:0:0:0:
284,98,89076,1,0,0:0:0:0:
310,133,89176,1,0,0:0:0:0:
338,171,89276,1,0,0:0:0:0:
339,221,89376,1,0,0:0:0:0:
321,247,89476,1,0,0:0:0:0:
315,257,89576,1,0,0:0:0:0:
308,259,89676,1,0,0:0:0:0:
128,128,89876,5,0,0:0:0:0:
128,224,90076,2,0,L|224:224,1,70
256,224,90675,1,0,0:0:0:0:
352,224,90875,2,0,L|352:128,1,70
352,96,91475,1,0,0:0:0:0:
256,288,91875,1,0,0:0:0:0:
160,96,92075,5,0,0:0:0:0:
96,224,92275,1,0,0:0:0:0:
256,160,92475,1,0,0:0:0:0:
64,64,92675,1,0,0:0:0:0:
416,64,92875,5,0,0:0:0:0:
288,192,93008,1,0,0:0:0:0:
288,64,93142,1,0,0:0:0:0:
416,192,93275,1,0,0:0:0:0:
320,256,93408,1,0,0:0:0:0:
320,128,93542,1,0,0:0:0:0:
416,288,93675,1,0,0:0:0:0:
288,256,93808,1,0,0:0:0:0:
352,160,93942,1,0,0:0:0:0:
192,160,94075,1,0,0:0:0:0:
288,96,94208,1,0,0:0:0:0:
320,224,94342,1,0,0:0:0:0:
96,64,94675,6,0,L|192:64,1,70
192,64,95075,1,0,0:0:0:0:
96,160,95475,6,0,L|192:160,1,70
224,160,95875,1,0,0:0:0:0:
416,64,96075,5,0,0:0:0:0:
416,192,96275,1,0,0:0:0:0:
416,320,96475,2,0,L|320:320,1,70
320,320,97074,5,0,0:0:0:0:
192,320,97274,1,0,0:0:0:0:
96,256,97474,1,0,0:0:0:0:
192,128,97874,1,0,0:0:0:0:
416,128,98274,5,0,0:0:0:0:
288,64,98474,1,0,0:0:0:0:
320,224,98674,1,0,0:0:0:0:
416,64,98874,1,0,0:0:0:0:
192,192,99074,1,0,0:0:0:0:
65,47,99274,5,0,0:0:0:0:
97,44,99374,1,0,0:0:0:0:
130,38,99474,1,0,0:0:0:0:
163,38,99574,1,0,0:0:0:0:
197,42,99674,1,0,0:0:0:0:
228,46,99774,1,0,0:0:0:0:
261,53,99874,1,0,0:0:0:0:
294,50,99974,1,0,0:0:0:0:
323,48,100074,1,0,0:0:0:0:
358,47,100174,1,0,0:0:0:0:
390,48,100274,1,0,0:0:0:0:
419,57,100374,1,0,0:0:0:0:
446,73,100474,1,0,0:0:0:0:
464,100,100574,1,0,0:0:0:0:
469,133,100674,1,0,0:0:0:0:
464,166,100774,1,0,0:0:0:0:
434,189,100874,5,0,0:0:0:0:
399,192,100974,1,0,0:0:0:0:
363,186,101074,1,0,0:0:0:0:
334,165,101174,1,0,0:0:0:0:
301,151,101274,1,0,0:0:0:0:
270,142,101374,1,0,0:0:0:0:
235,138,101474,1,0,0:0:0:0:
203,140,101574,1,0,0:0:0:0:
168,142,101674,1,0,0:0:0:0:
134,145,101774,1,0,0:0:0:0:
101,157,101874,1,0,0:0:0:0:
70,170,101974,1,0,0:0:0:0:
41,189,102074,1,0,0:0:0:0:
37,222,102174,1,0,0:0:0:0:
59,249,102274,1,0,0:0:0:0:
88,264,102374,1,0,0:0:0:0:
117,282,102474,1,0,0:0:0:0:
256,288,102674,5,0,0:0:0:0:
352,288,102873,2,0,L|416:256,1,70
416,160,103473,5,0,0:0:0:0:
320,96,103673,1,0,0:0:0:0:
192,64,103873,1,0,0:0:0:0:
64,128,104273,1,0,0:0:0:0:
224,192,104673,6,0,L|288:256,1,70
416,224,105073,2,0,L|352:288,1,70
288,320,105473,1,0,0:0:0:0:
256,192,105773,12,0,108873,0:0:0:0:
