osu file format v14

[General]
AudioFilename: audio.mp3
AudioLeadIn: 0
PreviewTime: -1
Countdown: 1
SampleSet: Normal
StackLeniency: 0.7
Mode: 0
LetterboxInBreaks: 0
WidescreenStoryboard: 0

[Editor]
DistanceSpacing: 0.8
BeatDivisor: 4
GridSize: 32
TimelineZoom: 1

[Metadata]
Title:Summit (Anki remix)
TitleUnicode:Summit (Anki remix)
Artist:Skrillex
ArtistUnicode:Skrillex
Creator:MamaFroyo
Version:Hard
Source:
Tags:
BeatmapID:1279677
BeatmapSetID:605694

[Difficulty]
HPDrainRate:5
CircleSize:4
OverallDifficulty:5
ApproachRate:10
SliderMultiplier:1.4
SliderTickRate:1

[Events]
//Background and Video events
0,0,"deja_vu_by_nanomortis-d8r99jv.png",0,0
//Break Periods
//Storyboard Layer 0 (Background)
//Storyboard Layer 1 (Fail)
//Storyboard Layer 2 (Pass)
//Storyboard Layer 3 (Foreground)
//Storyboard Sound Samples

[TimingPoints]
9488.74682350775,399.936842105264,4,1,0,100,1,0

[HitObjects]
64,64,6489,5,0,0:0:0:0:
64,64,6689,1,0,0:0:0:0:
64,64,6889,1,0,0:0:0:0:
64,64,7089,1,0,0:0:0:0:
192,64,7489,5,0,0:0:0:0:
192,64,7689,1,0,0:0:0:0:
192,64,7888,1,0,0:0:0:0:
192,64,8288,1,0,0:0:0:0:
192,160,8488,5,0,0:0:0:0:
192,160,8688,1,0,0:0:0:0:
192,160,8888,1,0,0:0:0:0:
192,160,9088,1,0,0:0:0:0:
192,160,9488,1,0,0:0:0:0:
160,64,12888,5,0,0:0:0:0:
352,64,13088,1,0,0:0:0:0:
352,64,13288,1,0,0:0:0:0:
160,64,13488,1,0,0:0:0:0:
352,64,13888,5,0,0:0:0:0:
352,224,14088,1,0,0:0:0:0:
352,64,14287,1,0,0:0:0:0:
352,64,14687,1,0,0:0:0:0:
352,64,14887,1,0,0:0:0:0:
352,64,15087,1,0,0:0:0:0:
64,96,15287,5,0,0:0:0:0:
128,160,15487,1,0,0:0:0:0:
64,96,15887,1,0,0:0:0:0:
160,128,19287,5,0,0:0:0:0:
224,192,19487,1,0,0:0:0:0:
288,128,19687,1,0,0:0:0:0:
352,192,19887,1,0,0:0:0:0:
160,128,20287,5,0,0:0:0:0:
224,192,20487,1,0,0:0:0:0:
288,128,20686,1,0,0:0:0:0:
352,192,21086,1,0,0:0:0:0:
352,288,21286,1,0,0:0:0:0:
352,96,21486,1,0,0:0:0:0:
352,192,21686,1,0,0:0:0:0:
352,288,21886,1,0,0:0:0:0:
352,96,22286,1,0,0:0:0:0:
256,192,22686,12,0,25686,0:0:0:0:
128,96,26686,6,0,L|224:96,1,70
224,96,27085,1,0,0:0:0:0:
384,96,28285,6,0,L|288:96,1,70
288,96,28685,1,0,0:0:0:0:
256,32,29885,6,0,L|256:128,1,70
256,128,30285,1,0,0:0:0:0:
256,192,30861,1,0,0:0:0:0:
256,320,31085,1,0,0:0:0:0:
256,192,31485,1,0,0:0:0:0:
256,64,31885,1,0,0:0:0:0:
256,64,32285,1,0,0:0:0:0:
160,96,33085,6,0,L|256:96,1,70
352,96,33484,1,0,0:0:0:0:
352,192,34684,6,0,L|256:192,1,70
160,192,35084,1,0,0:0:0:0:
384,96,36284,6,0,L|320:128,1,70
160,160,36684,1,0,0:0:0:0:
352,224,37284,5,0,0:0:0:0:
192,128,37484,1,0,0:0:0:0:
352,128,37884,1,0,0:0:0:0:
128,256,38284,1,0,0:0:0:0:
352,288,38684,1,0,0:0:0:0:
352,96,39484,5,0,0:0:0:0:
320,128,39683,1,0,0:0:0:0:
288,160,39883,1,0,0:0:0:0:
288,288,41083,5,0,0:0:0:0:
256,256,41283,1,0,0:0:0:0:
224,224,41483,1,0,0:0:0:0:
128,96,42683,5,0,0:0:0:0:
288,128,42883,1,0,0:0:0:0:
192,224,43083,1,0,0:0:0:0:
320,128,43683,2,0,L|352:192,1,70
384,256,44283,5,0,0:0:0:0:
256,224,44683,1,0,0:0:0:0:
384,128,45083,1,0,0:0:0:0:
160,96,45882,6,0,L|256:128,1,70
192,256,46282,1,0,0:0:0:0:
416,160,47482,6,0,L|352:128,1,70
416,288,47882,1,0,0:0:0:0:
192,64,49082,5,0,0:0:0:0:
320,160,49282,1,0,0:0:0:0:
192,224,49482,1,0,0:0:0:0:
256,320,50082,1,0,0:0:0:0:
352,128,50282,1,0,0:0:0:0:
192,64,50682,1,0,0:0:0:0:
320,256,51082,1,0,0:0:0:0:
256,192,51482,12,0,56081,0:0:0:0:
160,128,56481,6,0,L|224:160,1,70
416,192,56881,2,0,L|320:256,1,105
192,256,57481,1,0,0:0:0:0:
192,96,57681,5,0,0:0:0:0:
288,160,57881,1,0,0:0:0:0:
192,192,58081,1,0,0:0:0:0:
256,96,58281,1,0,0:0:0:0:
256,96,58680,1,0,0:0:0:0:
320,160,58880,1,0,0:0:0:0:
384,224,59080,1,0,0:0:0:0:
256,96,59480,1,0,0:0:0:0:
96,256,59880,5,0,0:0:0:0:
224,224,60080,1,0,0:0:0:0:
96,160,60280,1,0,0:0:0:0:
224,128,60480,1,0,0:0:0:0:
96,64,60680,1,0,0:0:0:0:
96,64,60880,1,0,0:0:0:0:
128,192,61080,5,0,0:0:0:0:
288,128,61280,1,0,0:0:0:0:
352,192,61480,1,0,0:0:0:0:
224,256,61680,1,0,0:0:0:0:
352,320,61880,1,0,0:0:0:0:
352,320,62080,1,0,0:0:0:0:
288,160,62280,1,0,0:0:0:0:
288,160,62480,1,0,0:0:0:0:
160,96,62680,6,0,L|160:192,1,70
160,288,63080,1,0,0:0:0:0:
160,288,63280,1,0,0:0:0:0:
160,288,63580,1,0,0:0:0:0:
160,288,63880,1,0,0:0:0:0:
160,64,64080,5,0,0:0:0:0:
288,128,64280,1,0,0:0:0:0:
160,128,64480,1,0,0:0:0:0:
288,64,64680,1,0,0:0:0:0:
288,64,65079,5,0,0:0:0:0:
160,128,65279,1,0,0:0:0:0:
160,256,65479,1,0,0:0:0:0:
288,160,65879,1,0,0:0:0:0:
288,160,66279,5,0,0:0:0:0:
160,160,66479,1,0,0:0:0:0:
288,160,66679,1,0,0:0:0:0:
160,160,66879,2,0,L|256:160,1,70
288,160,67279,1,0,0:0:0:0:
128,96,67479,6,0,L|224:96,1,70
352,128,67879,2,0,L|288:160,1,70
160,160,68279,2,0,L|128:224,1,70
96,288,68679,1,0,0:0:0:0:
96,288,68879,1,0,0:0:0:0:
320,128,69079,6,0,L|224:128,1,70
192,192,69479,2,0,L|256:256,1,70
320,320,69979,1,0,0:0:0:0:
320,320,70279,1,0,0:0:0:0:
128,96,70479,5,0,0:0:0:0:
224,128,70679,1,0,0:0:0:0:
160,192,70879,1,0,0:0:0:0:
128,96,71079,1,0,0:0:0:0:
224,64,71278,1,0,0:0:0:0:
288,128,71478,1,0,0:0:0:0:
192,160,71678,1,0,0:0:0:0:
160,96,71878,1,0,0:0:0:0:
288,128,72078,1,0,0:0:0:0:
224,192,72278,1,0,0:0:0:0:
192,128,72478,1,0,0:0:0:0:
288,96,72678,1,0,0:0:0:0:
288,192,72878,1,0,0:0:0:0:
192,160,73078,1,0,0:0:0:0:
256,96,73278,1,0,0:0:0:0:
288,224,73478,1,0,0:0:0:0:
224,256,73678,1,0,0:0:0:0:
192,192,73878,1,0,0:0:0:0:
288,128,74078,1,0,0:0:0:0:
320,224,74278,1,0,0:0:0:0:
224,224,74478,1,0,0:0:0:0:
288,160,74678,1,0,0:0:0:0:
352,256,74878,1,0,0:0:0:0:
256,224,75078,1,0,0:0:0:0:
352,160,75278,1,0,0:0:0:0:
416,288,75478,1,0,0:0:0:0:
288,288,75678,1,0,0:0:0:0:
320,192,75878,1,0,0:0:0:0:
352,320,76078,1,0,0:0:0:0:
224,288,76278,1,0,0:0:0:0:
288,224,76478,1,0,0:0:0:0:
288,320,76678,1,0,0:0:0:0:
192,320,76878,1,0,0:0:0:0:
224,256,77078,1,0,0:0:0:0:
288,352,77278,1,0,0:0:0:0:
160,352,77478,1,0,0:0:0:0:
96,224,77677,1,0,0:0:0:0:
192,160,77877,1,0,0:0:0:0:
224,256,78077,1,0,0:0:0:0:
96,192,78277,1,0,0:0:0:0:
192,128,78477,1,0,0:0:0:0:
256,224,78677,1,0,0:0:0:0:
128,288,78877,1,0,0:0:0:0:
160,160,79077,1,0,0:0:0:0:
288,160,79277,1,0,0:0:0:0:
224,256,79477,1,0,0:0:0:0:
160,128,79677,1,0,0:0:0:0:
288,64,79877,1,0,0:0:0:0:
288,192,80077,1,0,0:0:0:0:
128,192,80277,1,0,0:0:0:0:
256,96,80477,1,0,0:0:0:0:
288,224,80677,1,0,0:0:0:0:
160,160,80877,1,0,0:0:0:0:
288,64,81077,1,0,0:0:0:0:
256,224,81277,1,0,0:0:0:0:
160,128,81477,1,0,0:0:0:0:
256,192,81677,12,0,83277,0:0:0:0:
256,192,83477,5,0,0:0:0:0:
256,64,83677,1,0,0:0:0:0:
256,288,83876,1,0,0:0:0:0:
256,288,84276,2,0,L|256:192,1,70
256,96,84676,1,0,0:0:0:0:
256,96,85076,1,0,0:0:0:0:
128,160,85476,5,0,0:0:0:0:
352,96,85676,1,0,0:0:0:0:
128,256,85876,1,0,0:0:0:0:
352,160,86076,1,0,0:0:0:0:
192,352,86276,1,0,0:0:0:0:
156,309,86476,5,0,0:0:0:0:
135,268,86576,1,0,0:0:0:0:
147,226,86676,1,0,0:0:0:0:
171,202,86776,1,0,0:0:0:0:
202,182,86876,1,0,0:0:0:0:
235,169,86976,1,0,0:0:0:0:
273,160,87076,1,0,0:0:0:0:
303,163,87176,1,0,0:0:0:0:
339,180,87276,1,0,0:0:0:0:
362,201,87376,1,0,0:0:0:0:
398,209,87476,1,0,0:0:0:0:
426,192,87576,1,0,0:0:0:0:
449,164,87676,1,0,0:0:0:0:
459,130,87776,1,0,0:0:0:0:
444,98,87876,1,0,0:0:0:0:
414,78,87976,1,0,0:0:0:0:
379,70,88076,5,0,0:0:0:0:
347,66,88176,1,0,0:0:0:0:
312,55,88276,1,0,0:0:0:0:
281,51,88376,1,0,0:0:0:0:
246,51,88476,1,0,0:0:0:0:
213,55,88576,1,0,0:0:0:0:
181,63,88676,1,0,0:0:0:0:
165,97,88776,1,0,0:0:0:0:
172,133,88876,1,0,0:0:0:0:
185,156,88976,1,0,0:0:0:0:
208,193,89076,1,0,0:0:0:0:
219,213,89176,1,0,0:0:0:0:
243,249,89276,1,0,0:0:0:0:
260,273,89376,1,0,0:0:0:0:
246,314,89476,1,0,0:0:0:0:
203,315,89576,1,0,0:0:0:0:
180,298,89676,1,0,0:0:0:0:
128,128,89876,5,0,0:0:0:0:
128,224,90076,2,0,L|224:224,1,70
256,224,90675,1,0,0:0:0:0:
352,224,90875,2,0,L|352:128,1,70
352,96,91475,1,0,0:0:0:0:
256,288,91875,1,0,0:0:0:0:
160,96,92075,5,0,0:0:0:0:
96,224,92275,1,0,0:0:0:0:
256,160,92475,1,0,0:0:0:0:
64,64,92675,1,0,0:0:0:0:
416,64,92875,5,0,0:0:0:0:
288,192,93008,1,0,0:0:0:0:
288,64,93142,1,0,0:0:0:0:
416,192,93275,1,0,0:0:0:0:
320,256,93408,1,0,0:0:0:0:
320,128,93542,1,0,0:0:0:0:
416,288,93675,1,0,0:0:0:0:
288,256,93808,1,0,0:0:0:0:
352,160,93942,1,0,0:0:0:0:
192,160,94075,1,0,0:0:0:0:
288,96,94208,1,0,0:0:0:0:
320,224,94342,1,0,0:0:0:0:
96,64,94675,6,0,L|192:64,1,70
192,64,95075,1,0,0:0:0:0:
96,160,95475,6,0,L|192:160,1,70
224,160,95875,1,0,0:0:0:0:
416,64,96075,5,0,0:0:0:0:
416,192,96275,1,0,0:0:0:0:
416,320,96475,2,0,L|320:320,1,70
320,320,97074,5,0,0:0:0:0:
192,320,97274,1,0,0:0:0:0:
96,256,97474,1,0,0:0:0:0:
192,128,97874,1,0,0:0:0:0:
416,128,98274,5,0,0:0:0:0:
288,64,98474,1,0,0:0:0:0:
320,224,98674,1,0,0:0:0:0:
416,64,98874,1,0,0:0:0:0:
192,192,99074,1,0,0:0:0:0:
65,47,99274,5,0,0:0:0:0:
97,44,99374,1,0,0:0:0:0:
130,38,99474,1,0,0:0:0:0:
163,38,99574,1,0,0:0:0:0:
197,42,99674,1,0,0:0:0:0:
228,46,99774,1,0,0:0:0:0:
261,53,99874,1,0,0:0:0:0:
294,50,99974,1,0,0:0:0:0:
323,48,100074,1,0,0:0:0:0:
358,47,100174,1,0,0:0:0:0:
390,48,100274,1,0,0:0:0:0:
419,57,100374,1,0,0:0:0:0:
446,73,100474,1,0,0:0:0:0:
464,100,100574,1,0,0:0:0:0:
469,133,100674,1,0,0:0:0:0:
464,166,100774,1,0,0:0:0:0:
434,189,100874,5,0,0:0:0:0:
399,192,100974,1,0,0:0:0:0:
363,186,101074,1,0,0:0:0:0:
334,165,101174,1,0,0:0:0:0:
301,151,101274,1,0,0:0:0:0:
270,142,101374,1,0,0:0:0:0:
235,138,101474,1,0,0:0:0:0:
203,140,101574,1,0,0:0:0:0:
168,142,101674,1,0,0:0:0:0:
134,145,101774,1,0,0:0:0:0:
101,157,101874,1,0,0:0:0:0:
70,170,101974,1,0,0:0:0:0:
41,189,102074,1,0,0:0:0:0:
37,222,102174,1,0,0:0:0:0:
59,249,102274,1,0,0:0:0:0:
88,264,102374,1,0,0:0:0:0:
117,282,102474,1,0,0:0:0:0:
256,288,102674,5,0,0:0:0:0:
352,288,102873,2,0,L|416:256,1,70
416,160,103473,5,0,0:0:0:0:
320,96,103673,1,0,0:0:0:0:
192,64,103873,1,0,0:0:0:0:
64,128,104273,1,0,0:0:0:0:
224,192,104673,6,0,L|288:256,1,70
416,224,105073,2,0,L|352:288,1,70
288,320,105473,1,0,0:0:0:0:
256,192,105773,12,0,108873,0:0:0:0:
