osu file format v14

[General]
AudioFilename: 04 Fucking Die 2 (Cooper Mixx).mp3
AudioLeadIn: 0
PreviewTime: 166199
Countdown: 0
SampleSet: Soft
StackLeniency: 0.8
Mode: 0
LetterboxInBreaks: 1
WidescreenStoryboard: 0

[Editor]
Bookmarks: 5653,35653,50653,56746,63778,65653,78778,103035,110653,118153,125653,127528,127996,128465,128934,129403,134324,151199,152136,162449,166199,196199,211199,224324,225261,231824,246714,247066,261832,269324,276832,280574,295574,325574,325925,326042,326394,326511,328386,329324,330378,331199,332253,333191,334128,334949
DistanceSpacing: 2
BeatDivisor: 4
GridSize: 4
TimelineZoom: 1.2

[Metadata]
Title:Fucking Die 2 ($$ Cooper Mix)
TitleUnicode:Fucking Die 2 (€€ Cooper Mix)
Artist:Skrillex
ArtistUnicode:Skrillex
Creator:Cancel
Version:Death
Source:
Tags:my name is ep rave brostep house
BeatmapID:748550
BeatmapSetID:338348

[Difficulty]
HPDrainRate:5.5
CircleSize:4.1
OverallDifficulty:7
ApproachRate:9.6
SliderMultiplier:2.99999990463257
SliderTickRate:1

[Events]
//Background and Video events
0,0,"My_Name_Is_Skrillex_EP.jpg",0,0
//Break Periods
2,196406,208823
2,229957,231323
//Storyboard Layer 0 (Background)
//Storyboard Layer 1 (Fail)
//Storyboard Layer 2 (Pass)
//Storyboard Layer 3 (Foreground)
//Storyboard Layer 4 (Overlay)
//Storyboard Sound Samples

[TimingPoints]
28,468.75,4,2,1,70,1,0
35653,-200,4,2,1,70,0,0
36590,-100,4,2,1,70,0,0
42684,-200,4,2,1,70,0,0
43153,-100,4,2,1,70,0,0
46434,-133.333333333333,4,2,1,70,0,0
47606,-90.9090909090909,4,2,1,70,0,0
49246,-200,4,2,1,70,0,0
49715,-111.111111111111,4,2,1,70,0,0
50653,-200,4,2,1,70,0,0
64598,-125,4,2,1,70,0,0
64949,-100,4,2,1,70,0,0
65184,-76.9230769230769,4,2,1,70,0,0
65418,-66.6666666666667,4,2,1,70,0,0
65653,-100,4,2,1,70,0,0
72683,-50,4,2,1,70,0,0
73153,-100,4,2,1,70,0,0
78778,-200,4,2,1,70,0,0
79949,-125,4,2,1,70,0,0
80184,-76.9230769230769,4,2,1,70,0,0
80653,-100,4,2,1,70,0,0
82528,-166.666666666667,4,2,1,70,0,0
83465,-100,4,2,1,70,0,0
83934,-83.3333333333333,4,2,1,70,0,0
84168,-66.6666666666667,4,2,1,70,0,0
84403,-100,4,2,1,70,0,0
86278,-200,4,2,1,70,0,0
87215,-100,4,2,1,70,0,0
87684,-83.3333333333333,4,2,1,70,0,0
87918,-66.6666666666667,4,2,1,70,0,0
88153,-100,4,2,1,70,0,0
90028,-200,4,2,1,70,0,0
90965,-100,4,2,1,70,0,0
99168,-66.6666666666667,4,2,1,70,0,0
99520,-100,4,2,1,70,0,0
102684,-83.3333333333333,4,2,1,70,0,0
102918,-66.6666666666667,4,2,1,70,0,0
103153,-100,4,2,1,70,0,0
104676,-83.3333333333333,4,2,1,70,0,0
105028,-200,4,2,1,70,0,0
105965,-100,4,2,1,70,0,0
106434,-83.3333333333333,4,2,1,70,0,0
106668,-66.6666666666667,4,2,1,70,0,0
106903,-100,4,2,1,70,0,0
109246,-76.9230769230769,4,2,1,70,0,0
109481,-100,4,2,1,70,0,0
109715,-90.9090909090909,4,2,1,70,0,0
110418,-66.6666666666667,4,2,1,70,0,0
110653,-100,4,2,1,70,0,0
128934,-142.857142857143,4,2,1,70,0,0
129227,-66.6666666666667,4,2,1,70,0,0
133035,-133.333333333333,4,2,1,70,0,0
134332,468.75,4,2,1,70,1,0
135738,-66.6666666666667,4,2,1,70,0,0
136207,-100,4,2,1,70,0,0
139253,-83.3333333333333,4,2,1,70,0,0
139488,-71.4285714285714,4,2,1,70,0,0
139957,-100,4,2,1,70,0,0
141363,-66.6666666666667,4,2,1,70,0,0
141832,-100,4,2,1,70,0,0
143707,-200,4,2,1,70,0,0
144175,-100,4,2,1,70,0,0
148746,-66.6666666666667,4,2,1,70,0,0
149332,-100,4,2,1,70,0,0
150269,-200,4,2,1,70,0,0
151207,-153.846153846153,4,2,1,70,0,0
151675,-100,4,2,1,70,0,0
151910,-66.6666666666667,4,2,1,70,0,0
152144,-100,4,2,1,70,0,0
152144,-100,4,2,1,70,0,0
158707,-133.333333333333,4,2,1,70,0,0
158902,-100,4,2,1,70,0,0
159175,-55.5555555555556,4,2,1,70,0,0
159644,-100,4,2,1,70,0,0
164332,-83.3333333333333,4,2,1,70,0,0
164800,-71.4285714285714,4,2,1,70,0,0
166207,-100,4,2,1,70,0,1
195269,-100,4,2,1,70,0,0
209332,-200,4,2,1,30,0,0
210035,-100,4,2,1,70,0,0
210738,-83.3333333333333,4,2,1,70,0,0
210972,-62.5,4,2,1,70,0,0
211207,-100,4,2,1,70,0,0
214371,-50,4,2,1,70,0,0
214722,-66.6666666666667,4,2,1,70,0,0
214957,-100,4,2,1,70,0,0
224332,-200,4,2,1,70,0,0
225269,-58.8235294117647,4,2,1,70,0,1
228082,-50,4,2,1,70,0,0
229019,-200,4,2,1,70,0,0
229957,-100,4,2,1,70,0,0
235113,-83.3333333333333,4,2,1,70,0,0
235347,-66.6666666666667,4,2,1,70,0,0
235582,-100,4,2,1,70,0,0
242613,-83.3333333333333,4,2,1,70,0,0
242847,-66.6666666666667,4,2,1,70,0,0
243082,-100,4,2,1,70,0,0
246597,-66.6666666666667,4,2,1,70,0,0
247066,-100,4,2,1,70,0,0
248238,-66.6666666666667,4,2,1,70,0,0
248707,-100,4,2,1,70,0,0
252457,-200,4,2,1,70,0,0
253394,-100,4,2,1,70,0,0
257847,-66.6666666666667,4,2,1,70,0,0
258082,-100,4,2,1,70,0,0
259605,-66.6666666666667,4,2,1,70,0,0
259957,-100,4,2,1,70,0,0
260894,-66.6666666666667,4,2,1,70,0,0
261832,-100,4,2,1,70,0,0
265347,-66.6666666666667,4,2,1,70,0,0
265816,-100,4,2,1,70,0,0
267457,-200,4,2,1,70,0,0
268394,-100,4,2,1,70,0,0
270855,-66.6666666666667,4,2,1,70,0,0
271207,-100,4,2,1,70,0,0
274957,-200,4,2,1,70,0,0
275894,-66.6666666666667,4,2,1,70,0,0
279175,-83.3333333333333,4,2,1,70,0,0
279410,-66.6666666666667,4,2,1,70,0,0
280113,-58.8235294117647,4,2,1,70,0,0
280347,-50,4,2,1,70,0,0
280582,-100,4,2,1,70,0,1
295582,-166.666666666667,4,2,1,70,0,0
329332,-166.666666666667,4,2,1,20,0,0

[Colours]
Combo1 : 192,192,192
Combo2 : 0,128,255
Combo3 : 106,173,255
Combo4 : 255,0,0
Combo5 : 255,128,128
Combo6 : 128,255,0
Combo7 : 0,255,0
Combo8 : 128,128,128

[HitObjects]
448,80,5653,5,4,0:3:0:0:
432,88,5887,1,0,0:0:0:0:
416,96,6121,2,0,L|304:80,1,74.9999976158142,8|0,0:0|0:0,0:0:0:0:
200,168,6356,2,0,L|312:152,1,74.9999976158142
248,48,6590,6,0,B|224:40|224:40|200:48|200:48|168:40|128:64,1,99.9999968210856,4|0,0:3|0:0,0:0:0:0:
136,72,6824,2,0,L|120:152,1,74.9999976158142
200,168,7059,2,0,L|192:264,1,74.9999976158142,8|0,0:0|0:0,0:0:0:0:
280,352,7293,1,0,0:0:0:0:
168,312,7410,1,0,0:0:0:0:
296,328,7528,102,0,B|288:280|288:280|296:256|296:256|288:216|304:176,1,149.999995231628,4|0,0:3|0:0,0:0:0:0:
320,176,7996,2,0,L|441:162,1,74.9999976158142,8|0,0:0|0:0,0:0:0:0:
464,80,8231,2,0,B|432:72|432:72|416:80|416:80|384:72|352:88,1,99.9999968210856
352,96,8465,1,4,0:3:0:0:
456,304,8699,5,0,0:0:0:0:
488,240,8817,1,0,0:0:0:0:
416,312,8934,1,8,0:0:0:0:
400,184,9051,1,0,0:0:0:0:
480,280,9168,2,0,L|352:264,1,74.9999976158142
320,176,9403,102,0,B|296:176|288:184|288:184|272:176|272:176|256:200|192:208|176:152,1,149.999995231628,4|0,0:3|0:0,0:0:0:0:
176,144,9871,6,0,P|192:104|176:48,1,74.9999976158142,8|0,0:0|0:0,0:0:0:0:
96,0,10106,2,0,B|104:40|104:40|88:72|88:72|96:104,1,99.9999968210856
80,120,10340,102,0,B|96:168|72:200|72:200|40:168,1,99.9999968210856,4|0,0:3|0:0,0:0:0:0:
40,184,10574,2,0,L|128:176,1,74.9999976158142
200,288,10809,2,0,L|112:280,1,74.9999976158142,8|0,0:0|0:0,0:0:0:0:
272,192,11043,1,0,0:0:0:0:
176,144,11160,1,0,0:0:0:0:
288,176,11278,6,0,P|296:224|280:280,1,74.9999976158142,2|0,0:0|0:0,0:0:0:0:
184,168,11512,2,0,B|176:120|176:120|184:96|184:96|160:64|168:8,1,149.999995231628,2|8,0:0|0:0,0:0:0:0:
184,8,11981,101,0,0:0:0:0:
272,72,12098,1,0,0:0:0:0:
144,80,12215,86,0,P|112:64|40:80,1,99.9999968210856,4|0,0:3|0:0,0:0:0:0:
40,96,12449,2,0,B|48:120|48:120|40:144|40:144|56:200,1,74.9999976158142,2|0,0:0|0:0,0:0:0:0:
120,304,12684,2,0,B|128:296|128:296|120:272|120:272|176:224|168:168,1,149.999995231629,8|2,0:0|0:0,0:0:0:0:
152,160,13153,21,4,0:3:0:0:
272,72,13387,1,0,0:0:0:0:
272,72,13621,6,0,L|352:64,1,74.9999976158143,8|0,0:0|0:0,0:0:0:0:
440,152,13856,2,0,L|328:144,1,99.9999968210857
320,160,14090,102,0,P|352:160|368:232,1,99.9999968210857,4|0,0:3|0:0,0:0:0:0:
368,240,14324,5,0,0:0:0:0:
224,272,14442,1,0,0:0:0:0:
392,272,14559,1,8,0:0:0:0:
240,240,14676,1,0,0:0:0:0:
416,304,14793,2,0,L|328:320,1,74.9999976158143
224,272,15028,102,0,L|150:258,1,74.9999976158143,2|0,0:0|0:0,0:0:0:0:
64,352,15262,2,0,B|56:304|56:304|64:272|64:272|56:192,1,149.999995231629,2|8,0:0|0:0,0:0:0:0:
40,192,15731,1,0,0:0:0:0:
152,120,15848,1,0,0:0:0:0:
40,88,15965,6,0,L|176:104,1,99.9999968210857,4|0,0:3|0:0,0:0:0:0:
152,120,16199,2,0,P|200:128|232:112,1,74.9999976158143
184,40,16434,2,0,L|192:224,1,149.999995231629,8|2,0:0|0:0,0:0:0:0:
176,212,16903,101,4,0:3:0:0:
456,128,17137,1,0,0:0:0:0:
252,268,17371,2,0,P|216:300|148:296,1,74.9999976158143,8|0,0:0|0:0,0:0:0:0:
101,204,17606,2,0,L|217:216,1,74.9999976158143
288,184,17840,6,0,B|336:180|336:180|424:196,2,99.9999968210857
136,120,18309,2,0,P|200:132|256:108,2,99.9999968210857
96,24,18778,1,4,0:3:0:0:
80,48,19715,70,0,L|72:140,1,74.9999976158143,4|0,0:3|0:0,0:0:0:0:
116,208,19949,2,0,L|124:300,1,74.9999976158143,0|0,0:3|0:0,0:0:0:0:
24,380,20184,5,0,0:0:0:0:
32,284,20301,1,0,0:0:0:0:
192,332,20418,38,0,B|225:329|225:329|232:324|232:324|284:320,1,74.9999976158143,2|8,0:0|0:0,0:0:0:0:
316,372,20653,86,0,P|336:312|264:248,1,149.999995231629,4|0,0:3|0:0,0:0:0:0:
64,148,21121,2,0,P|124:156|184:128,1,74.9999976158143,8|0,0:0|0:0,0:0:0:0:
192,52,21356,2,0,L|64:44,1,74.9999976158143
216,144,21590,6,0,B|232:140|232:140|252:144|252:144|272:136|272:136|292:140|292:140|316:132|316:132|348:152|420:136|420:68,1,249.999992052714,4|0,0:3|0:0,0:0:0:0:
348,72,22059,2,0,B|336:112|336:112|352:140|352:140|344:176|344:176|348:192|348:192|344:208|344:208|348:224|348:224|344:232|344:232|348:240|348:240|344:248|344:248|348:256|348:256|340:264|340:264|352:268|352:268|344:280|340:316,1,249.999992052714,8|0,0:0|0:0,0:0:0:0:
280,340,22528,102,0,P|240:348|176:312,1,74.9999976158143,4|0,0:3|0:0,0:0:0:0:
248,164,22762,2,0,B|236:200|236:200|244:224|244:224|232:264|244:304,1,99.9999968210857
256,248,22996,6,0,L|124:256,1,99.9999968210857,8|0,0:0|0:0,0:0:0:0:
80,284,23231,2,0,B|68:244|80:220|80:220|76:212|76:212|84:188|80:152,1,99.9999968210857
72,160,23465,5,4,0:3:0:0:
164,76,23582,1,0,0:0:0:0:
40,88,23699,1,0,0:0:0:0:
152,152,23817,1,0,0:0:0:0:
96,24,23934,2,0,B|224:36|224:36|212:60,1,149.999995231629,8|0,0:0|0:0,0:0:0:0:
208,76,24403,86,0,P|220:108|212:160,1,74.9999976158143,4|0,0:3|0:0,0:0:0:0:
72,256,24637,2,0,P|60:224|76:156,1,99.9999968210857,0|0,0:3|0:0,0:0:0:0:
80,176,24871,6,0,P|132:172|192:200,1,74.9999976158143,8|0,0:0|0:0,0:0:0:0:
300,296,25106,2,0,B|280:300|280:300|260:292|260:292|224:304|188:292,1,99.9999968210857,2|0,0:0|0:0,0:0:0:0:
224,224,25340,102,0,B|264:216|264:216|288:224|288:224|332:216|376:248|396:312|340:356,1,249.999992052714,4|0,0:3|0:0,0:0:0:0:
300,296,25809,2,0,B|308:288|308:288|316:292|316:292|320:284|320:284|332:288|332:288|332:280|332:280|344:284|344:284|344:272|344:272|360:276|360:276|360:260|360:260|380:268|380:268|396:252|396:252|412:260|424:208|496:228,1,249.999992052714,8|0,0:0|0:0,0:0:0:0:
468,248,26278,6,0,P|448:204|464:148,1,74.9999976158143,4|0,0:3|0:0,0:0:0:0:
492,76,26512,2,0,B|448:84|448:84|416:76|416:76|352:88,1,99.9999968210857
336,132,26746,102,0,L|224:120,1,99.9999968210857,8|0,0:0|0:0,0:0:0:0:
184,40,26981,1,0,0:0:0:0:
184,40,27215,5,4,0:3:0:0:
56,148,27332,1,0,0:0:0:0:
128,180,27449,5,2,0:0:0:0:
108,16,27567,1,2,0:0:0:0:
208,168,27684,2,0,B|200:220|200:220|208:268|208:268|192:292|200:328,1,149.999995231629,8|0,0:0|0:0,0:0:0:0:
212,332,28153,85,4,0:3:0:0:
392,248,28387,1,0,0:0:0:0:
240,360,28621,2,0,L|236:264,1,74.9999976158143,8|0,0:0|0:0,0:0:0:0:
128,180,28856,2,0,P|116:140|124:104,1,74.9999976158143
48,88,29090,6,0,P|92:36|172:164,1,249.999992052714,4|0,0:3|0:0,0:0:0:0:
128,180,29559,2,0,B|128:192|128:192|132:192|132:192|128:196|128:196|132:196|132:196|128:200|128:200|132:208|132:208|128:220|128:220|136:232|136:232|124:256|124:256|136:275|136:275|116:312|132:376,1,199.999993642171,8|0,0:0|0:0,0:0:0:0:
240,360,30028,102,0,L|344:356,1,74.9999976158143,4|0,0:3|0:0,0:0:0:0:
444,288,30262,2,0,L|308:280,1,99.9999968210857
224,232,30496,6,0,B|260:224|260:224|288:228|288:228|308:208|352:204,1,99.9999968210857,8|0,0:0|0:0,0:0:0:0:
384,196,30731,2,0,P|400:156|388:112,1,74.9999976158143
252,20,30965,1,4,0:3:0:0:
252,20,31199,2,0,L|248:104,1,74.9999976158143
224,232,31434,2,0,P|224:188|176:144,1,99.9999968210857,8|0,0:0|0:0,0:0:0:0:
56,204,31668,2,0,B|88:212|88:212|120:204|120:204|140:216|176:212,1,99.9999968210857,2|0,0:0|0:0,0:0:0:0:
288,188,31903,102,0,B|348:184|348:184|384:196|384:196|456:192,1,149.999995231629,4|0,0:3|0:0,0:0:0:0:
484,144,32254,2,0,P|488:100|416:120,1,74.9999976158143,0|8,0:0|0:0,0:0:0:0:
276,120,32488,1,0,0:0:0:0:
276,120,32606,2,0,L|384:112,1,74.9999976158143,2|0,0:0|0:0,0:0:0:0:
296,36,32840,6,0,B|252:32|252:32|212:40|212:40|168:24|168:24|108:20|80:64,1,224.999992847443,4|0,0:3|0:0,0:0:0:0:
88,128,33309,2,0,L|96:168,7,37.4999988079071,8|0|0|0|0|0|0|0,0:0|0:0|0:0|0:0|0:0|0:0|0:0|0:0,0:0:0:0:
88,180,33778,102,0,L|104:272,1,74.9999976158143,4|0,0:3|0:0,0:0:0:0:
212,368,34012,2,0,L|224:252,1,74.9999976158143
224,52,34246,6,0,P|272:104|348:88,1,149.999995231629,8|0,0:0|0:0,0:0:0:0:
384,20,34598,1,0,0:0:0:0:
248,120,34715,70,0,P|240:152|264:220,1,74.9999976158143,4|0,0:3|0:0,0:0:0:0:
420,344,34949,2,0,P|440:296|404:240,1,99.9999968210857
348,264,35184,6,0,B|344:240|356:216|356:216|348:200|348:200|364:164|348:112,1,149.999995231629,8|0,0:0|0:0,0:0:0:0:
336,100,35653,86,0,L|204:96,1,124.999996026357,4|0,0:3|0:0,0:0:0:0:
116,40,36121,6,0,P|92:32|68:36,1,49.9999984105428,8|0,0:0|0:0,0:0:0:0:
0,164,36356,2,0,P|24:172|48:168,1,49.9999984105428
116,116,36590,21,4,0:3:0:0:
116,116,36824,2,0,L|112:212,1,74.9999976158143
212,164,37059,2,0,L|216:260,1,74.9999976158143,8|0,0:0|0:0,0:0:0:0:
264,356,37293,1,0,0:0:0:0:
300,256,37410,1,0,0:0:0:0:
64,312,37528,6,0,P|112:296|176:320,1,74.9999976158143,4|0,0:3|0:0,0:0:0:0:
344,328,37762,2,0,B|380:320|380:320|404:328|404:328|424:312|464:320,1,99.9999968210857,2|0,0:0|0:0,0:0:0:0:
500,368,37996,2,0,P|520:320|484:248,1,99.9999968210857,8|0,0:0|0:0,0:0:0:0:
452,232,38231,2,0,L|440:132,1,74.9999976158143,2|0,0:0|0:0,0:0:0:0:
492,36,38465,102,0,B|476:32|476:32|464:36|464:36|428:28|384:48,1,99.9999968210857,4|0,0:3|0:0,0:0:0:0:
376,72,38699,1,0,0:0:0:0:
300,256,38817,1,0,0:0:0:0:
268,24,38934,1,8,0:0:0:0:
256,4,39168,6,0,L|260:100,1,74.9999976158143
300,256,39403,102,0,P|312:204|252:200,1,99.9999968210857,4|0,0:3|0:0,0:0:0:0:
280,332,39637,2,0,P|332:344|336:284,1,99.9999968210857,0|0,0:3|0:0,0:0:0:0:
224,276,39871,6,0,P|188:272|144:316,1,74.9999976158143,8|0,0:0|0:0,0:0:0:0:
76,368,40106,2,0,B|80:336|80:336|72:312|72:312|84:276|72:236,1,99.9999968210857,2|0,0:0|0:0,0:0:0:0:
36,208,40340,101,4,0:3:0:0:
36,208,40574,2,0,L|24:124,1,74.9999976158143,2|0,0:0|0:0,0:0:0:0:
128,56,40809,2,0,L|120:156,1,74.9999976158143,8|0,0:0|0:0,0:0:0:0:
204,192,41043,2,0,P|224:136|208:84,1,74.9999976158143,2|2,0:0|0:0,0:0:0:0:
52,112,41278,6,0,L|40:28,1,74.9999976158143,4|2,0:3|0:0,0:0:0:0:
128,56,41512,2,0,L|284:48,1,149.999995231629,2|8,0:0|0:0,0:0:0:0:
480,304,41981,1,0,0:0:0:0:
424,212,42098,1,0,0:0:0:0:
316,336,42215,70,0,B|296:332|296:332|280:340|280:340|256:336|256:336|216:372|164:360,1,149.999995231629,4|0,0:3|0:0,0:0:0:0:
80,332,42567,1,0,0:0:0:0:
192,204,42684,6,0,B|196:228|196:228|192:236|192:236|200:264|188:300,1,74.9999976158143,8|0,0:0|0:0,0:0:0:0:
193,277,43153,6,0,B|189:245|189:245|197:221|197:221|185:181|185:181|197:141|197:141|156:96|193:17,1,224.999992847443,4|0,0:3|0:0,0:0:0:0:
252,88,43621,2,0,P|200:136|96:56,1,224.999992847443,8|0,0:0|0:0,0:0:0:0:
240,8,44090,6,0,L|412:16,1,149.999995231629,4|0,0:3|0:0,0:0:0:0:
472,92,44442,1,0,0:0:0:0:
396,216,44559,102,0,L|384:120,1,74.9999976158143,8|0,0:0|0:0,0:0:0:0:
496,208,44793,2,0,P|492:256|440:300,1,74.9999976158143
312,332,45028,5,4,0:3:0:0:
296,204,45145,1,0,0:0:0:0:
136,284,45262,102,0,B|172:288|172:288|184:284|184:284|224:292|252:272,1,99.9999968210857,2|0,0:0|0:0,0:0:0:0:
300,236,45496,2,0,B|292:200|292:200|296:180|296:180|288:124,1,99.9999968210857,8|0,0:0|0:0,0:0:0:0:
324,72,45731,1,0,0:0:0:0:
104,28,45848,1,0,0:0:0:0:
212,56,45965,6,0,L|384:48,1,149.999995231629,4|0,0:3|0:0,0:0:0:0:
440,4,46317,1,0,0:0:0:0:
424,144,46434,6,0,B|416:164|416:164|424:184|424:184|424:264,1,112.500000715256,8|0,0:0|0:0,0:0:0:0:
424,272,46903,6,0,L|452:280,3,28.125000178814
416,284,47137,2,0,L|440:304,3,28.125000178814
404,292,47371,2,0,L|412:352,2,37.5000002384186
344,248,47606,102,0,L|328:316,2,54.9999999300639
392,184,47840,86,0,B|356:168|356:168|336:164|336:164|312:136|264:132,1,109.999999860128,4|0,0:3|0:0,0:0:0:0:
224,144,48074,1,0,0:0:0:0:
88,196,48192,1,0,0:0:0:0:
172,88,48309,2,0,P|132:64|132:20,1,82.4999998950959,8|0,0:0|0:0,0:0:0:0:
112,264,48543,1,0,0:0:0:0:
240,72,48660,1,0,0:0:0:0:
184,280,48778,6,0,L|56:292,1,82.4999998950959,4|0,0:3|0:0,0:0:0:0:
240,72,49012,102,0,L|322:88,1,82.4999998950959,0|0,0:3|0:0,0:0:0:0:
460,164,49246,86,0,B|444:156|444:156|436:164|436:164|372:168,1,74.9999976158143,8|0,0:0|0:0,0:0:0:0:
372,160,49598,1,0,0:0:0:0:
372,160,49715,22,0,P|376:200|416:244,1,67.4999957942964,4|0,0:3|0:0,0:0:0:0:
304,240,49949,2,0,L|316:344,1,67.4999957942964
140,160,50184,6,0,P|136:200|96:244,1,67.4999957942964,8|0,0:0|0:0,0:0:0:0:
208,240,50418,2,0,L|196:344,1,67.4999957942964
224,44,50653,70,0,L|184:40,3,37.4999988079071
288,92,51121,2,0,L|328:88,3,37.4999988079071
408,24,51590,5,0,0:0:0:0:
420,52,51707,1,0,0:0:0:0:
432,80,51824,1,0,0:0:0:0:
432,80,51942,102,2,L|440:136,2,37.4999988079071
364,144,52293,2,2,L|360:188,2,24.9999992052714
424,200,52528,6,0,L|462:204,3,37.4999988079071,4|0|0|0,0:3|0:0|0:0|0:0,0:0:0:0:
404,288,52996,2,0,L|366:291,3,37.4999988079071,0|0|0|0,0:3|0:0|0:0|0:0,0:0:0:0:
272,336,53465,101,0,0:0:0:0:
248,320,53582,1,0,0:0:0:0:
224,304,53699,1,0,0:0:0:0:
224,304,53817,2,2,L|232:268,2,37.4999988079071
144,336,54168,2,2,L|136:296,2,24.9999992052714
124,332,54403,6,0,L|72:328,1,37.4999988079071,4|0,0:3|0:0,0:0:0:0:
24,248,54637,2,0,L|76:244,1,37.4999988079071
132,164,54871,1,0,0:0:0:0:
136,152,54988,1,0,0:0:0:0:
40,76,55106,1,0,0:0:0:0:
44,88,55223,1,0,0:0:0:0:
140,140,55340,2,0,L|124:84,2,37.4999988079071
256,144,55692,102,2,L|272:200,2,37.4999988079071
312,76,56043,1,2,0:0:0:0:
320,72,56121,1,2,0:0:0:0:
328,68,56199,1,2,0:0:0:0:
340,64,56278,6,0,L|396:72,1,37.4999988079071,4|0,0:3|0:0,0:0:0:0:
496,124,56512,2,0,L|440:132,1,37.4999988079071,0|0,0:3|0:0,0:0:0:0:
340,176,56746,2,0,L|396:184,1,37.4999988079071,0|0,0:3|0:0,0:0:0:0:
496,236,56980,2,0,L|440:244,1,37.4999988079071,0|0,0:3|0:0,0:0:0:0:
256,328,57215,5,2,0:0:0:0:
228,312,57332,1,0,0:0:0:0:
176,160,57449,1,2,0:0:0:0:
152,180,57567,1,0,0:0:0:0:
120,344,57684,6,0,L|128:276,1,37.4999988079071,2|0,0:0|0:0,0:0:0:0:
64,92,57918,2,0,L|60:52,2,24.9999992052714,2|2|2,0:0|0:0|0:0,0:0:0:0:
80,104,58153,69,4,1:3:0:0:
108,96,58270,1,0,0:0:0:0:
136,88,58387,1,0,0:0:0:0:
164,80,58504,1,0,0:0:0:0:
340,216,58621,5,0,0:0:0:0:
312,208,58738,1,0,0:0:0:0:
284,200,58855,1,0,0:0:0:0:
256,192,58972,1,0,0:0:0:0:
364,100,59090,102,0,L|412:88,2,37.4999988079071
336,88,59442,6,2,P|312:80|280:80,2,37.4999988079071
400,288,59793,2,0,L|404:312,2,24.9999992052714,2|2|2,0:0|0:0|0:0,0:0:0:0:
304,340,60028,101,4,0:3:0:0:
276,348,60145,1,0,0:0:0:0:
248,348,60262,1,0,0:0:0:0:
220,340,60379,1,0,0:0:0:0:
196,324,60496,1,2,0:0:0:0:
180,300,60613,1,0,0:0:0:0:
176,272,60731,1,0,0:0:0:0:
176,244,60848,1,0,0:0:0:0:
184,216,60965,5,2,0:0:0:0:
200,192,61082,1,0,0:0:0:0:
224,176,61199,1,0,0:0:0:0:
252,168,61317,102,2,L|236:100,2,37.4999988079071
280,168,61668,2,0,L|288:132,2,24.9999992052714,2|2|2,0:0|0:0|0:0,0:0:0:0:
184,216,61903,6,0,P|160:220|124:212,1,37.4999988079071,4|0,0:3|0:0,0:0:0:0:
56,148,62137,2,0,L|104:152,1,37.4999988079071
64,236,62371,2,0,P|72:252|76:292,1,37.4999988079071
172,140,62606,2,0,L|168:76,1,37.4999988079071
112,32,62840,101,0,0:0:0:0:
84,28,62957,1,0,0:0:0:0:
56,24,63074,1,0,0:0:0:0:
36,48,63192,53,0,0:0:0:0:
172,140,63309,1,0,0:0:0:0:
256,32,63426,1,0,0:0:0:0:
208,208,63543,1,0,0:0:0:0:
220,224,63621,1,0,0:0:0:0:
236,236,63699,1,0,0:0:0:0:
256,244,63778,38,0,L|324:240,2,56.2499982118607
188,296,64363,1,0,0:0:0:0:
188,296,64481,38,0,P|204:328|208:364,1,37.4999988079071
104,360,64715,2,0,L|108:288,1,59.9999980926514
8,192,64949,2,0,L|16:276,1,74.9999976158143
200,184,65184,22,0,B|204:156|204:156|200:136|200:136|212:76,1,97.4999924373631
400,256,65418,2,0,B|376:252|376:252|360:260|360:260|280:268,1,112.500000715256,2|8,0:0|0:0,0:0:0:0:
308,248,65653,86,0,L|304:164,1,74.9999976158143,4|0,1:2|0:0,0:0:0:0:
204,136,65887,2,0,L|208:220,1,74.9999976158143,2|0,0:2|0:0,0:0:0:0:
332,194,66121,6,0,L|270:138,1,74.9999976158143,0|0,1:2|0:0,0:0:0:0:
179,189,66355,2,0,L|241:245,1,74.9999976158143,2|0,0:2|0:0,0:0:0:0:
312,140,66590,102,0,L|228:144,1,74.9999976158143,0|0,1:2|0:0,0:0:0:0:
200,244,66824,2,0,L|284:240,1,74.9999976158143,2|0,0:2|0:0,0:0:0:0:
258,115,67058,6,0,L|202:177,1,74.9999976158143,0|0,1:2|0:0,0:0:0:0:
256,292,67293,2,2,P|252:320|228:352,2,49.9999984105428
253,268,67528,102,0,L|309:206,1,74.9999976158143,4|0,1:2|0:0,0:0:0:0:
258,115,67762,2,0,L|202:177,1,74.9999976158143,2|0,0:2|0:0,0:0:0:0:
318,259,67996,6,0,L|313:158,1,74.9999976158143,0|0,1:2|0:0,0:0:0:0:
193,124,68230,2,0,L|198:225,1,74.9999976158143,2|0,0:2|0:0,0:0:0:0:
347,195,68465,102,0,L|272:127,1,74.9999976158143,0|0,1:2|0:0,0:0:0:0:
164,188,68699,2,0,L|239:256,1,74.9999976158143,2|0,0:2|0:0,0:0:0:0:
336,117,68933,6,0,L|215:122,1,74.9999976158143,0|0,1:2|0:0,0:0:0:0:
164,280,69168,2,2,L|80:284,2,49.9999984105428
180,296,69403,102,0,P|224:284|280:308,1,74.9999976158143,4|0,1:2|0:0,0:0:0:0:
332,88,69637,2,0,P|288:100|232:76,1,74.9999976158143,2|0,0:2|0:0,0:0:0:0:
275,319,69871,6,0,P|298:279|354:257,1,74.9999976158143,0|0,1:2|0:0,0:0:0:0:
236,64,70105,2,0,P|213:104|157:126,1,74.9999976158143,2|0,0:2|0:0,0:0:0:0:
360,268,70340,102,0,P|348:224|372:168,1,74.9999976158143,0|0,1:2|0:0,0:0:0:0:
152,116,70574,2,0,P|164:160|140:216,1,74.9999976158143,2|0,0:2|0:0,0:0:0:0:
383,172,70808,6,0,P|343:149|321:93,1,74.9999976158143,0|0,1:2|0:0,0:0:0:0:
108,216,71043,2,2,P|80:204|56:200,2,49.9999984105428
128,211,71278,102,0,P|168:234|190:290,1,74.9999976158143,4|0,1:2|0:0,0:0:0:0:
383,172,71512,2,0,P|343:149|321:93,1,74.9999976158143,2|0,0:2|0:0,0:0:0:0:
164,316,71746,6,0,P|217:302|284:331,1,74.9999976158143,0|0,1:2|0:0,0:0:0:0:
347,67,71980,2,0,P|294:81|227:52,1,74.9999976158143,2|0,0:2|0:0,0:0:0:0:
280,344,72215,102,0,P|307:296|375:269,1,74.9999976158143,0|0,1:2|0:0,0:0:0:0:
232,39,72449,2,0,P|205:86|137:113,1,74.9999976158143,2|0,0:2|0:0,0:0:0:0:
405,301,72683,22,0,P|388:238|423:157,1,149.999995231629,0|0,1:2|0:0,0:0:0:0:
106,82,72917,2,0,P|123:145|88:226,1,149.999995231629,2|8,0:2|0:0,0:0:0:0:
76,204,73153,86,0,P|124:192|172:204,1,74.9999976158143,4|0,1:2|0:0,0:0:0:0:
436,180,73387,2,0,P|388:192|340:180,1,74.9999976158143,2|2,0:2|0:0,0:0:0:0:
137,327,73621,6,0,P|162:285|205:259,1,74.9999976158143,0|0,1:2|0:0,0:0:0:0:
374,56,73855,2,0,P|349:98|306:124,1,74.9999976158143,2|2,0:2|0:0,0:0:0:0:
268,372,74090,102,0,P|256:324|268:276,1,74.9999976158143,0|0,1:2|0:0,0:0:0:0:
244,12,74324,2,0,P|256:60|244:108,1,74.9999976158143,2|2,0:2|0:0,0:0:0:0:
391,310,74558,6,0,P|349:285|323:242,1,74.9999976158143,0|0,1:2|0:0,0:0:0:0:
128,48,74793,2,2,P|112:24|80:0,2,49.9999984105428
120,72,75028,102,0,P|162:97|187:139,1,74.9999976158143,4|2,1:2|0:0,0:0:0:0:
391,310,75262,2,0,P|348:284|323:242,1,74.9999976158143,2|0,0:2|0:0,0:0:0:0:
244,12,75496,6,0,P|255:60|243:107,1,74.9999976158143,0|2,1:2|0:0,0:0:0:0:
268,370,75730,2,0,P|256:322|268:274,1,74.9999976158143,2|0,0:2|0:0,0:0:0:0:
376,56,75965,102,0,P|350:98|308:123,1,74.9999976158143,0|2,1:2|0:0,0:0:0:0:
138,327,76199,2,0,P|163:284|205:259,1,74.9999976158143,2|0,0:2|0:0,0:0:0:0:
437,180,76433,6,0,P|389:192|341:180,1,74.9999976158143,0|2,1:2|0:0,0:0:0:0:
80,180,76668,102,2,P|52:172|20:176,2,49.9999984105428
76,204,76903,5,4,1:2:0:0:
132,228,77020,1,0,0:0:0:0:
192,216,77137,1,0,0:0:0:0:
220,164,77254,1,0,0:0:0:0:
244,12,77371,101,0,1:2:0:0:
220,68,77488,1,0,0:0:0:0:
232,128,77605,1,0,0:0:0:0:
284,156,77722,1,0,0:0:0:0:
436,180,77840,5,0,1:2:0:0:
380,156,77957,1,0,0:0:0:0:
320,168,78074,1,0,0:0:0:0:
292,220,78191,1,0,0:0:0:0:
268,372,78309,101,0,1:2:0:0:
292,316,78426,1,0,0:0:0:0:
280,256,78543,1,0,0:0:0:0:
228,228,78660,1,0,0:0:0:0:
168,216,78778,86,0,B|152:208|152:208|136:216|136:216|36:208,1,112.499996423721,4|0,0:3|0:0,0:0:0:0:
44,184,79246,2,0,B|24:140|28:96|28:96|56:112,1,112.499996423721,2|0,0:0|0:0,0:0:0:0:
76,120,79715,6,0,L|136:124,1,37.4999988079071
232,48,79949,2,0,L|144:56,1,59.9999980926514
248,148,80184,38,0,B|304:140|304:140|332:152|332:152|396:120|452:188,1,194.999984874726,2|0,0:0|0:0,0:0:0:0:
444,196,80653,85,4,0:3:0:0:
376,308,80770,2,0,P|336:304|292:320,1,74.9999976158143
108,224,81004,2,0,B|164:228|164:228|196:244|196:244|264:252,1,149.999995231629
320,192,81356,2,0,P|332:140|304:88,1,74.9999976158143
232,48,81590,5,4,0:3:0:0:
60,116,81707,2,0,L|156:108,1,74.9999976158143
232,48,81942,2,0,B|244:40|244:40|260:44|260:44|332:40,1,99.9999968210857,2|0,0:0|0:0,0:0:0:0:
388,0,82176,5,2,0:0:0:0:
444,196,82293,1,2,0:0:0:0:
492,44,82410,1,2,0:0:0:0:
492,44,82528,54,0,L|500:112,2,59.9999962615968,4|0|0,0:3|0:0|0:0,0:0:0:0:
444,196,82996,2,0,L|436:264,2,59.9999962615968,8|0|0,0:0|0:0|0:0,0:0:0:0:
444,196,83465,22,0,L|364:204,1,74.9999976158143
320,128,83699,2,0,L|245:120,1,74.9999976158143
88,268,83934,22,0,B|84:252|84:252|92:232|92:232|88:148,1,89.9999943923952,8|0,0:0|0:0,0:0:0:0:
160,112,84168,2,0,B|164:124|164:124|160:136|160:136|168:256,1,112.500000715256,2|0,0:0|0:0,0:0:0:0:
165,223,84403,85,4,0:0:0:0:
272,328,84520,2,0,B|292:324|292:324|316:328|316:328|352:320|384:328,1,74.9999976158143
364,336,84871,6,0,B|380:292|360:248|360:248|372:220|372:220|364:180,1,149.999995231629,8|0,0:0|0:0,0:0:0:0:
428,76,85223,1,0,0:0:0:0:
320,128,85340,102,0,B|308:120|308:120|296:128|296:128|168:116,1,149.999995231629,4|0,0:3|0:0,0:0:0:0:
160,112,85809,21,8,0:0:0:0:
76,16,85926,1,0,0:0:0:0:
56,192,86043,2,0,L|56:276,1,74.9999976158143
192,336,86278,54,0,L|200:264,2,49.9999984105428,4|0|0,0:3|0:0|0:0,0:0:0:0:
320,280,86746,2,0,L|312:208,2,49.9999984105428,8|0|0,0:0|0:0|0:0,0:0:0:0:
320,128,87215,22,0,L|420:140,1,74.9999976158143,4|0,0:3|0:0,0:0:0:0:
360,24,87449,2,0,B|340:28|340:28|332:20|332:20|268:24,1,74.9999976158143,2|0,0:0|0:0,0:0:0:0:
136,112,87684,22,0,P|184:120|232:92,1,89.9999943923952,8|0,0:0|0:0,0:0:0:0:
48,36,87918,2,0,B|44:52|44:52|48:68|48:68|44:148,1,112.500000715256,2|8,0:0|0:0,0:0:0:0:
44,147,88153,85,4,0:3:0:0:
188,280,88270,2,0,L|100:288,1,74.9999976158143
164,192,88504,2,0,B|188:196|188:196|212:188|212:188|248:216|304:184,1,124.999996026357,2|0,0:0|0:0,0:0:0:0:
316,176,88738,2,0,L|312:80,1,74.9999976158143,2|0,0:0|0:0,0:0:0:0:
448,16,88973,1,2,0:0:0:0:
504,240,89090,6,0,L|412:232,1,74.9999976158143,4|2,0:3|0:0,0:0:0:0:
236,352,89324,1,0,0:0:0:0:
236,352,89442,2,0,B|256:340|256:340|284:348|284:348|328:320|368:328|408:360,1,149.999995231629,2|0,0:0|0:0,0:0:0:0:
280,252,89793,2,0,P|248:228|232:164,1,74.9999976158143,2|0,0:0|0:0,0:0:0:0:
256,68,90028,70,0,L|316:56,2,49.9999984105428,4|0|0,0:3|0:0|0:0,0:0:0:0:
144,20,90496,2,0,L|204:8,2,49.9999984105428,8|0|0,0:0|0:0|0:0,0:0:0:0:
68,60,90965,22,0,L|64:160,1,74.9999976158143,4|0,0:3|0:0,0:0:0:0:
160,244,91199,2,0,L|156:344,1,74.9999976158143,2|0,0:0|0:0,0:0:0:0:
444,60,91434,6,0,L|446:134,1,74.9999976158143,8|0,0:0|0:0,0:0:0:0:
352,244,91668,2,0,L|354:318,1,74.9999976158143,2|0,0:0|0:0,0:0:0:0:
256,104,91903,101,4,0:3:0:0:
256,104,92020,2,0,B|260:116|260:116|256:124|256:124|256:200,1,74.9999976158143,2|2,0:0|0:0,0:0:0:0:
256,196,92371,6,0,B|252:180|252:180|256:164|256:164|256:36,1,149.999995231629,8|0,0:0|0:0,0:0:0:0:
336,124,92723,1,0,0:0:0:0:
168,68,92840,102,0,B|160:72|160:72|152:68|152:68|104:104|48:88|32:44|84:8,1,149.999995231629,4|0,0:3|0:0,0:0:0:0:
72,60,93309,6,0,L|80:156,1,74.9999976158143,8|0,0:0|0:0,0:0:0:0:
12,224,93543,2,0,L|20:320,1,74.9999976158143,0|8,0:0|0:0,0:0:0:0:
184,360,93778,102,0,L|192:208,1,149.999995231629,4|0,0:3|0:0,0:0:0:0:
104,152,94129,1,0,0:0:0:0:
168,68,94246,2,0,B|184:68|184:68|200:60|200:60|256:72|256:72|320:48,1,149.999995231629,8|0,0:0|0:0,0:0:0:0:
320,32,94715,6,0,P|308:60|320:116,1,74.9999976158143,4|0,0:3|0:0,0:0:0:0:
400,252,94949,2,0,P|412:224|400:168,1,74.9999976158143,0|0,0:3|0:0,0:0:0:0:
252,180,95184,2,0,P|280:192|336:180,1,74.9999976158143,8|0,0:0|0:0,0:0:0:0:
472,100,95418,2,0,P|444:88|388:100,1,74.9999976158143,0|0,0:3|0:0,0:0:0:0:
168,160,95653,101,4,3:0:0:0:
168,160,95770,2,0,B|172:168|172:168|168:176|168:176|168:248,1,74.9999976158143,0|2,0:0|0:0,0:0:0:0:
80,364,96004,2,0,B|80:288|80:288|68:248|68:248|68:212,1,149.999995231629,2|0,0:0|0:0,0:0:0:0:
20,92,96356,2,0,L|140:72,1,74.9999976158143,2|2,0:0|0:0,0:0:0:0:
240,159,96590,6,0,P|200:167|148:147,1,74.9999976158143,4|0,0:3|0:0,0:0:0:0:
108,60,96824,102,0,L|84:28,1,37.4999988079071
120,48,96942,2,0,L|100:4,1,37.4999988079071
136,40,97059,6,0,B|164:48|164:48|188:36|188:36|264:44,1,112.499996423721,8|0,0:0|0:0,0:0:0:0:
264,64,97293,2,0,L|352:76,1,74.9999976158143,2|2,0:0|0:0,0:0:0:0:
408,24,97528,69,4,0:3:0:0:
428,100,97684,1,0,0:0:0:0:
452,176,97840,1,0,0:0:0:0:
344,100,97996,5,8,0:0:0:0:
324,176,98152,1,0,0:0:0:0:
300,252,98308,1,0,0:0:0:0:
300,252,98465,6,0,L|220:256,1,74.9999976158143,4|0,0:3|0:0,0:0:0:0:
80,312,98699,2,0,B|96:316|96:316|108:312|108:312|160:316,1,74.9999976158143,2|0,0:0|0:0,0:0:0:0:
224,168,98934,6,0,P|228:124|204:68,1,74.9999976158143,8|0,0:0|0:0,0:0:0:0:
32,44,99168,6,0,B|44:52|44:52|56:44|56:44|156:36,1,112.500000715256,2|2,0:0|0:0,0:0:0:0:
336,20,99403,85,4,0:3:0:0:
448,72,99520,2,0,P|452:100|400:180,1,74.9999976158143
300,252,99754,1,0,0:0:0:0:
300,252,99871,6,0,B|308:232|308:232|304:208|304:208|312:136,1,99.9999968210857,8|0,0:0|0:0,0:0:0:0:
264,88,100106,2,0,L|180:84,1,74.9999976158143,2|0,0:0|0:0,0:0:0:0:
28,192,100340,102,0,L|102:188,1,74.9999976158143,4|0,0:3|0:0,0:0:0:0:
200,304,100574,1,0,0:0:0:0:
312,236,100692,6,0,B|340:228|340:228|356:232|356:232|408:200|472:252,1,149.999995231629,2|2,0:0|0:0,0:0:0:0:
428,360,101043,2,0,P|404:340|416:276,1,74.9999976158143,2|0,0:0|0:0,0:0:0:0:
472,148,101278,102,0,L|480:12,2,99.9999968210857,4|2|0,3:0|0:0|3:0,0:0:0:0:
312,100,101746,2,0,L|304:-36,2,99.9999968210857,8|2|0,3:2|0:0|3:0,0:0:0:0:
320,116,102215,6,0,L|224:104,1,74.9999976158143,4|0,0:3|0:0,0:0:0:0:
88,44,102449,2,0,P|128:32|188:56,1,74.9999976158143
144,224,102684,6,0,L|136:116,1,89.9999943923952,8|0,0:0|0:0,0:0:0:0:
268,192,102918,2,0,B|264:204|264:204|268:224|268:224|264:312,1,112.500000715256,2|8,0:0|0:0,0:0:0:0:
264,303,103153,86,0,P|308:284|376:304,1,74.9999976158143,4|0,3:0|0:0,0:0:0:0:
472,328,103387,2,0,P|428:347|360:327,1,74.9999976158143,2|0,0:0|0:0,0:0:0:0:
348,200,103621,6,0,L|484:192,1,74.9999976158143,8|0,0:0|0:0,0:0:0:0:
500,44,103856,2,0,L|364:36,1,74.9999976158143,2|8,0:0|0:0,0:0:0:0:
296,84,104090,101,4,0:3:0:0:
296,84,104207,1,0,0:0:0:0:
296,84,104324,2,0,L|284:160,1,74.9999976158143
224,24,104559,1,8,0:0:0:0:
112,108,104676,22,0,B|120:100|120:100|128:108|128:108|216:116,1,89.9999943923952,2|0,0:0|0:0,0:0:0:0:
116,240,104910,1,8,0:0:0:0:
116,240,105028,70,0,L|48:232,2,49.9999984105428,4|0|0,0:3|0:0|0:0,0:0:0:0:
192,308,105496,2,0,L|124:332,2,49.9999984105428,8|0|0,0:0|0:0|0:0,0:0:0:0:
212,284,105965,6,0,B|224:280|224:280|232:288|232:288|312:300,1,74.9999976158143,4|0,3:0|0:0,0:0:0:0:
444,192,106199,2,0,B|432:188|432:188|424:196|424:196|344:208,1,74.9999976158143,2|0,3:0|0:0,0:0:0:0:
276,152,106434,22,0,P|272:112|284:60,1,89.9999943923952,8|0,0:0|0:0,0:0:0:0:
132,0,106668,2,0,B|136:32|136:32|128:60|128:60|148:88|136:164,1,112.500000715256,2|0,0:0|0:0,0:0:0:0:
100,172,106903,85,4,3:0:0:0:
40,72,107020,2,0,P|52:40|20:-8,1,74.9999976158143,2|0,0:0|0:0,0:0:0:0:
0,224,107254,2,0,L|168:232,1,149.999995231629,2|0,0:0|0:0,0:0:0:0:
276,152,107606,2,0,B|268:148|268:148|260:152|260:152|188:156,1,74.9999976158143,2|0,0:0|0:0,0:0:0:0:
64,320,107840,5,4,3:0:0:0:
148,324,107957,1,0,0:0:0:0:
148,324,108074,6,0,L|156:352,3,24.9999992052714,2|0|0|2,0:0|0:0|0:0|0:0,0:0:0:0:
288,244,108309,2,0,L|296:156,1,74.9999976158143,8|2,0:0|0:0,0:0:0:0:
196,24,108543,2,0,L|202:98,1,74.9999976158143,2|8,0:0|0:0,0:0:0:0:
288,244,108778,86,4,B|304:232|316:244|316:244|340:232|340:232|388:256|480:224|448:108,1,224.999992847443,4|0,0:3|0:0,0:3:0:0:
380,60,109246,2,8,P|364:104|388:184,1,97.4999924373631,8|8,0:3|0:3,0:3:0:0:
448,280,109481,2,0,L|480:312,1,37.4999988079071,8|8,0:3|0:3,0:3:0:0:
424,268,109598,2,0,L|444:320,1,37.4999988079071,8|8,0:3|0:3,0:3:0:0:
408,252,109715,70,0,L|360:332,1,82.4999998950959,4|0,0:3|0:0,0:0:0:0:
212,240,109949,2,0,L|184:128,1,82.4999998950959
308,100,110184,70,0,P|324:144|308:204,1,82.4999998950959
80,248,110418,2,0,B|84:212|84:212|76:180|76:180|84:112,1,112.500000715256,0|0,0:0|1:3,0:0:0:0:
96,116,110653,85,4,0:3:0:0:
224,40,110770,1,0,0:0:0:0:
24,0,110887,2,0,L|32:108,1,74.9999976158143,2|0,0:0|0:0,0:0:0:0:
136,316,111121,2,0,P|168:256|148:192,1,74.9999976158143,8|0,0:0|0:0,0:0:0:0:
96,116,111356,2,0,L|200:112,1,74.9999976158143,2|0,0:0|0:0,0:0:0:0:
224,40,111590,1,4,0:3:0:0:
320,208,111707,1,0,0:0:0:0:
304,24,111824,1,0,0:0:0:0:
256,168,111942,6,2,P|248:232|332:284,1,149.999995231629
380,260,112293,2,0,P|408:256|448:264,2,49.9999984105428,2|2|2,0:0|0:0|0:0,0:0:0:0:
208,336,112528,102,0,L|72:348,2,99.9999968210857,4|0|0,0:3|0:0|0:0,0:0:0:0:
108,200,112996,2,0,L|-16:192,2,99.9999968210857,8|0|0,0:0|0:0|0:0,0:0:0:0:
196,152,113465,6,0,P|148:132|144:48,1,74.9999976158143,4|0,0:3|0:0,0:0:0:0:
188,0,113699,2,0,L|212:84,1,74.9999976158143
316,152,113934,102,0,P|364:132|368:48,1,74.9999976158143,8|0,0:0|0:0,0:0:0:0:
324,0,114168,2,0,L|300:84,1,74.9999976158143
256,220,114403,21,4,0:3:0:0:
136,272,114520,1,0,0:0:0:0:
308,284,114637,1,0,0:0:0:0:
196,152,114754,1,0,0:0:0:0:
244,348,114871,86,0,L|140:352,1,74.9999976158143,8|0,0:0|0:0,0:0:0:0:
4,208,115106,2,0,P|52:200|96:272,1,74.9999976158143
36,296,115340,85,4,3:0:0:0:
24,64,115496,1,0,0:0:0:0:
24,320,115653,1,0,0:0:0:0:
136,272,115809,5,8,0:0:0:0:
56,36,115965,2,0,B|68:48|68:48|84:40|84:40|168:36,1,99.9999968210857
192,104,116278,6,0,P|224:96|288:120,1,74.9999976158143,4|0,0:3|0:0,0:0:0:0:
372,220,116512,2,0,P|340:212|276:236,1,74.9999976158143,2|0,0:0|0:0,0:0:0:0:
392,312,116746,6,0,L|400:212,1,74.9999976158143,8|0,0:0|0:0,0:0:0:0:
176,192,116981,2,0,L|168:92,1,74.9999976158143,2|0,0:0|0:0,0:0:0:0:
216,32,117215,70,0,L|320:40,1,74.9999976158143,4|0,0:3|0:0,0:0:0:0:
100,156,117449,2,0,L|4:160,1,74.9999976158143
242,105,117684,6,0,L|295:195,1,74.9999976158143,8|0,0:0|0:0,0:0:0:0:
73,82,117918,2,0,L|15:5,1,74.9999976158143
192,172,118153,6,0,B|196:188|196:188|192:200|192:200|188:276,1,74.9999976158143,4|0,3:0|0:0,0:0:0:0:
296,368,118387,1,2,0:0:0:0:
284,252,118504,1,0,0:0:0:0:
100,156,118621,5,8,0:0:0:0:
88,272,118738,1,0,0:0:0:0:
322,177,118856,2,0,B|320:132|320:132|316:120|316:120|320:104,1,74.9999976158143,2|8,0:0|0:0,0:0:0:0:
392,24,119090,101,4,0:3:0:0:
456,68,119207,1,0,0:0:0:0:
456,68,119324,2,0,L|452:164,1,74.9999976158143,2|2,0:0|0:0,0:0:0:0:
396,320,119559,22,0,L|392:212,1,74.9999976158143,8|0,0:0|0:0,0:0:0:0:
284,24,119793,1,2,0:0:0:0:
236,128,119910,1,8,0:0:0:0:
236,128,120028,54,0,B|240:168|240:168|232:204|232:204|236:268,2,99.9999968210857,4|0|0,0:3|0:0|0:0,0:0:0:0:
112,308,120496,2,0,B|116:268|116:268|108:232|108:232|112:168,2,99.9999968210857,8|0|0,0:0|0:0|0:0,0:0:0:0:
112,308,120965,54,0,L|40:272,1,74.9999976158143,4|0,0:3|0:0,0:0:0:0:
236,128,121199,2,0,L|308:164,1,74.9999976158143,2|0,0:3|0:0,0:0:0:0:
84,156,121434,2,0,L|120:84,1,74.9999976158143,8|0,0:0|0:0,0:0:0:0:
264,280,121668,2,0,L|228:352,1,74.9999976158143,2|0,0:3|0:0,0:0:0:0:
156,376,121903,85,4,0:3:0:0:
384,272,122020,2,0,B|380:264|380:264|392:248|376:168,1,74.9999976158143,2|0,0:0|0:0,0:0:0:0:
236,128,122254,2,0,P|200:168|284:176,1,149.999995231629,2|2,0:0|0:0,0:0:0:0:
384,72,122606,2,0,L|292:68,1,74.9999976158143,2|2,0:0|0:0,0:0:0:0:
116,16,122840,53,4,0:3:0:0:
36,92,122996,2,0,L|40:204,1,99.9999968210857
236,128,123309,5,8,0:3:0:0:
316,204,123465,2,0,L|312:316,1,99.9999968210857
328,320,123778,6,0,B|312:312|312:312|296:320|296:320|276:312|276:312|224:324|224:324|184:288|116:280|72:352,1,249.999992052714,4|0,0:3|0:0,0:0:0:0:
240,232,124246,2,0,P|268:184|168:216,1,249.999992052714,8|0,0:0|0:0,0:0:0:0:
240,232,124715,22,0,L|352:228,1,74.9999976158143,4|0,0:3|0:0,0:0:0:0:
460,156,124949,2,0,L|348:152,1,74.9999976158143,2|0,0:3|0:0,0:0:0:0:
312,84,125184,2,0,L|316:196,1,74.9999976158143,8|8,0:0|0:3,0:0:0:0:
388,304,125418,2,0,L|392:192,1,74.9999976158143,2|8,0:3|0:3,0:0:0:0:
248,40,125653,70,0,B|232:28|232:28|220:40|220:40|156:8|84:48|88:120,1,224.999992847443,4|0,0:3|0:0,0:0:0:0:
220,232,126121,2,0,B|248:164|172:108|172:108|184:164|120:216,1,224.999992847443,8|0,0:0|0:0,0:0:0:0:
56,200,126590,102,0,P|24:176|8:88,1,74.9999976158143,4|0,0:3|0:0,0:0:0:0:
128,232,126824,2,0,P|160:256|176:344,1,74.9999976158143,2|0,0:3|0:0,0:0:0:0:
96,308,127059,2,0,L|104:120,1,149.999995231629,8|2,0:0|0:3,0:0:0:0:
116,132,127528,86,0,L|44:96,1,74.9999976158143,4|0,0:3|0:0,0:0:0:0:
368,4,127762,2,0,L|332:88,1,74.9999976158143,2|0,0:0|0:0,0:0:0:0:
173,72,127996,2,0,L|143:3,1,74.9999976158143,8|0,0:0|0:0,0:0:0:0:
463,98,128230,2,0,L|396:132,1,74.9999976158143,2|0,0:3|0:0,0:0:0:0:
200,248,128465,6,0,P|152:264|72:224,1,74.9999976158143,4|0,0:3|0:0,0:0:0:0:
324,304,128699,2,0,P|372:288|452:328,1,74.9999976158143
256,348,128934,6,0,L|256:376,4,26.2499983644486,4|0|0|0|0,0:3|0:0|0:0|0:0|0:0,0:0:0:0:
256,348,129227,2,0,B|256:268|256:268|264:240|264:240|256:216|256:216|256:148,1,168.750001072884,2|0,0:0|1:2,0:0:0:0:
256,192,129520,12,0,132860,0:0:0:0:
64,184,132977,5,0,0:0:0:0:
88,168,133114,1,0,0:0:0:0:
100,148,133192,1,0,0:0:0:0:
104,112,133309,2,0,L|80:60,2,56.2500003576279
256,140,133709,5,0,0:0:0:0:
64,272,133914,1,0,0:0:0:0:
256,360,134149,2,0,L|256:272,1,84.3750005364419,0|2,0:0|0:0,0:0:0:0:
256,244,134566,5,2,0:0:0:0:
256,244,134800,2,0,L|336:236,1,74.9999976158143
456,176,135035,2,0,L|372:168,1,74.9999976158143
224,144,135269,2,0,P|208:120|220:64,1,74.9999976158143,2|0,0:0|0:0,0:0:0:0:
404,80,135503,2,0,P|372:96|316:84,1,74.9999976158143
256,0,135738,38,0,B|248:24|248:24|256:48|256:48|256:224,1,225.000001430512,2|2,0:0|0:0,0:0:0:0:
256,304,136089,1,0,0:0:0:0:
256,304,136207,86,0,P|228:328|180:256,1,149.999995231629,4|0,0:3|0:0,0:0:0:0:
352,236,136675,2,0,L|456:252,1,74.9999976158143,8|0,0:0|0:0,0:0:0:0:
504,140,136910,2,0,B|496:132|496:132|476:144|476:144|400:152,1,99.9999968210857
336,104,137144,6,0,L|316:84,7,18.7499994039536,4|0|0|0|0|0|0|0,0:3|0:0|0:0|0:0|0:0|0:0|0:0|0:0,0:0:0:0:
304,88,137378,2,8,L|228:84,1,74.9999976158143
24,124,137613,102,0,L|44:144,7,18.7499994039536,8|0|0|0|8|0|0|0,0:0|0:0|0:0|0:0|0:0|0:0|0:0|0:0,0:0:0:0:
56,140,137847,2,8,L|132:144,1,74.9999976158143
176,224,138082,5,4,0:3:0:0:
308,312,138199,1,0,0:0:0:0:
96,236,138316,2,0,P|56:224|16:272,1,74.9999976158143,2|0,0:0|0:0,0:0:0:0:
148,304,138550,2,0,L|304:284,1,149.999995231629,8|0,0:0|0:0,0:0:0:0:
296,284,139019,6,0,B|288:276|288:276|292:264|268:180,1,74.9999976158143,4|0,0:3|0:0,0:0:0:0:
388,52,139253,2,8,B|384:60|384:60|388:68|388:68|384:156,1,89.9999943923952
176,224,139488,2,0,P|164:192|244:160,1,104.999993457794,8|0,0:0|0:0,0:0:0:0:
468,224,139722,2,0,B|436:220|436:220|416:232|416:232|392:228|368:240,1,104.999993457794,2|0,0:0|0:0,0:0:0:0:
296,200,139957,85,4,0:3:0:0:
76,268,140191,2,0,B|84:256|84:256|76:224|92:176,1,74.9999976158143,2|0,0:0|0:0,0:0:0:0:
164,132,140425,2,0,L|292:112,1,74.9999976158143,8|0,0:0|0:0,0:0:0:0:
284,12,140660,1,0,0:0:0:0:
284,12,140894,70,0,L|296:52,7,37.4999988079071,4|0|0|0|0|0|0|0,3:0|0:0|0:0|0:0|0:0|0:0|0:0|0:0,0:0:0:0:
372,72,141363,2,0,L|368:108,14,28.125000178814,8|0|0|0|0|0|0|0|0|0|0|0|0|0|0,0:0|0:0|0:0|0:0|0:0|0:0|0:0|0:0|0:0|0:0|0:0|0:0|0:0|0:0|0:0,0:0:0:0:
396,56,141832,38,0,B|408:48|408:48|424:52|424:52|488:48,1,74.9999976158143,4|0,0:3|0:0,0:0:0:0:
508,212,142066,2,0,B|468:204|468:204|452:208|452:208|408:188|368:216,1,99.9999968210857
332,296,142300,2,0,P|368:312|404:256,1,99.9999968210857,8|0,0:0|0:0,0:0:0:0:
332,172,142535,2,0,L|244:176,1,74.9999976158143,2|0,0:0|0:0,0:0:0:0:
144,308,142769,6,0,L|48:300,1,74.9999976158143,4|0,0:3|0:0,0:0:0:0:
0,128,143003,2,0,L|96:120,1,74.9999976158143,8|8,0:0|0:0,0:0:0:0:
164,16,143238,1,8,0:0:0:0:
188,72,143355,1,8,0:0:0:0:
240,104,143472,1,8,0:0:0:0:
300,104,143589,1,8,0:0:0:0:
352,72,143707,70,0,B|376:64|376:64|396:44|396:44|428:32,1,74.9999976158143,4|0,0:3|0:0,0:0:0:0:
432,24,144175,22,0,P|420:56|456:104,1,74.9999976158143,8|0,0:0|0:0,0:0:0:0:
480,240,144410,2,0,L|488:160,1,74.9999976158143,2|0,0:0|0:0,0:0:0:0:
296,240,144644,6,0,P|328:188|396:272,1,149.999995231629,4|8,0:3|0:0,0:0:0:0:
368,300,144996,1,8,0:0:0:0:
184,252,145113,2,8,L|92:268,1,74.9999976158143
156,148,145347,2,0,P|188:144|244:160,1,74.9999976158143,2|0,0:0|0:0,0:0:0:0:
368,300,145582,5,4,0:3:0:0:
460,160,145699,1,0,0:0:0:0:
480,244,145816,2,0,L|484:92,1,149.999995231629,2|8,0:0|0:0,0:0:0:0:
483,94,146285,85,2,0:0:0:0:
328,44,146402,1,0,0:0:0:0:
392,96,146519,6,0,P|356:124|276:112,1,74.9999976158143
140,44,146753,2,0,B|152:36|152:36|160:48|160:48|216:60,1,74.9999976158143,8|8,0:0|0:0,0:0:0:0:
220,164,146988,2,0,P|184:152|220:232,1,149.999995231629,8|2,0:0|0:0,0:0:0:0:
300,360,147457,102,0,B|304:344|304:344|296:328|296:328|292:200,1,149.999995231629,4|0,0:3|0:0,0:0:0:0:
292,212,147925,2,0,P|340:224|396:192,1,74.9999976158143,8|0,0:0|0:0,0:0:0:0:
476,80,148160,2,0,L|400:88,1,74.9999976158143
220,32,148394,2,0,B|256:40|256:40|276:32|276:32|356:44,1,99.9999968210857,4|0,0:3|0:0,0:0:0:0:
296,60,148628,2,0,P|280:76|268:120,1,37.4999988079071
304,88,148746,70,0,P|296:116|296:140,15,28.125000178814,2|0|0|0|8|0|0|0|0|0|0|0|0|0|0|0,0:0|0:0|0:0|0:0|0:0|0:0|0:0|0:0|0:0|0:0|0:0|0:0|0:0|0:0|0:0|0:0,0:0:0:0:
328,104,149214,2,2,L|336:160,2,37.5000002384186
352,112,149332,38,0,L|360:200,1,74.9999976158143,4|0,0:3|0:0,0:0:0:0:
480,200,149566,2,0,L|472:288,1,74.9999976158143,2|0,0:3|0:0,0:0:0:0:
208,332,149800,2,0,B|216:324|216:324|228:332|228:332|376:328,1,149.999995231629,8|0,0:0|0:0,0:0:0:0:
280,292,150152,1,0,0:0:0:0:
176,240,150269,86,0,P|144:216|200:240,1,262.49999165535,4|0,0:3|0:0,0:0:0:0:
176,240,151207,86,0,B|152:232|152:232|128:240|128:240|76:224|32:256,1,146.249988656045,4|0,0:3|0:0,0:0:0:0:
120,160,151675,54,0,P|128:124|92:92,1,74.9999976158143,8|0,0:0|0:0,0:0:0:0:
24,8,151910,22,0,B|16:20|16:20|20:36|20:36|28:152,1,112.500000715256
12,348,152144,86,0,P|64:380|68:296,1,149.999995231629,4|0,0:3|0:0,0:0:0:0:
32,184,152496,1,0,0:0:0:0:
120,160,152613,2,0,L|220:148,1,74.9999976158143,8|0,0:0|0:0,0:0:0:0:
312,308,152847,2,0,L|196:296,1,74.9999976158143
120,160,153082,5,4,0:3:0:0:
180,152,153199,1,0,0:0:0:0:
240,144,153316,2,0,P|252:124|208:80,1,74.9999976158143
160,224,153550,2,0,L|324:232,1,149.999995231629,8|0,0:0|0:0,0:0:0:0:
392,180,153902,1,0,0:0:0:0:
476,216,154019,102,0,P|480:280|412:240,1,149.999995231629,4|0,0:3|0:0,0:0:0:0:
392,180,154371,2,0,L|404:92,1,74.9999976158143,0|8,0:0|0:0,0:0:0:0:
416,96,154722,6,0,B|400:88|400:88|392:96|392:96|328:100,1,74.9999976158143,2|0,0:0|0:0,0:0:0:0:
180,152,154957,70,0,P|140:156|204:92,1,224.999992847443,4|0,1:3|0:0,0:0:0:0:
256,200,155425,2,0,L|264:288,2,74.9999976158143,8|0|0,0:0|0:0|0:0,0:0:0:0:
256,200,155894,22,0,B|272:192|272:192|304:208|304:208|348:184|404:220,1,149.999995231629,4|0,0:3|0:0,0:0:0:0:
388,324,156246,2,0,P|352:312|384:252,1,74.9999976158143,0|8,0:0|0:0,0:0:0:0:
476,168,156480,2,0,L|488:256,2,74.9999976158143
500,72,156832,5,4,0:3:0:0:
440,60,156949,1,0,0:0:0:0:
380,48,157066,1,0,0:0:0:0:
180,196,157300,2,0,B|76:204|76:204|64:200|64:200|52:208|8:212,1,149.999995231629,8|0,0:0|0:0,0:0:0:0:
16,288,157652,1,0,0:0:0:0:
104,180,157769,102,0,B|100:152|64:136|64:136|108:108|88:52,1,149.999995231629,4|0,0:3|0:0,0:0:0:0:
12,12,158121,1,0,0:0:0:0:
12,12,158238,2,0,B|132:24|132:24|144:20|144:20|160:28,1,149.999995231629,8|0,0:0|0:0,0:0:0:0:
180,196,158707,22,0,L|176:240,2,37.5000002384186,4|0|0,1:3|0:0|0:0,0:0:0:0:
200,208,158902,2,0,L|204:256,6,24.9999992052714
224,212,159175,2,0,L|232:268,14,33.7499978971482,8|0|0|0|0|0|0|0|0|0|0|0|0|0|0,0:0|0:0|0:0|0:0|0:0|0:0|0:0|0:0|0:0|0:0|0:0|0:0|0:0|0:0|0:0,0:0:0:0:
248,208,159644,86,0,B|282:187|282:187|324:204|324:204|356:180|404:200,1,149.999995231629,4|0,0:3|0:0,0:0:0:0:
404,316,159996,1,0,0:0:0:0:
404,316,160113,2,0,P|368:296|408:248,1,74.9999976158143,8|0,0:0|0:0,0:0:0:0:
448,144,160347,2,0,L|440:44,1,74.9999976158143
442,69,160582,5,4,0:3:0:0:
260,28,160699,1,0,0:0:0:0:
340,112,160816,2,0,L|236:120|236:120,1,99.9999968210857,2|0,0:0|0:0,0:0:0:0:
172,88,161050,2,0,P|140:64|104:128,1,99.9999968210857,8|0,0:0|0:0,0:0:0:0:
132,232,161285,2,0,B|140:204|140:204|136:180|136:180|148:132,1,74.9999976158143,2|0,0:0|0:0,0:0:0:0:
200,280,161519,102,0,L|44:268,1,149.999995231629,4|0,0:3|0:0,0:0:0:0:
124,360,161871,1,0,0:0:0:0:
272,376,161988,2,0,B|264:328|264:328|280:296|280:296|272:208,1,149.999995231629,8|0,0:0|0:0,0:0:0:0:
172,164,162457,70,0,P|104:128|200:16,1,224.999992847443,4|0,0:3|0:0,0:0:0:0:
172,88,162925,2,0,L|280:100,1,74.9999976158143,8|0,0:0|0:0,0:0:0:0:
360,44,163160,2,2,L|296:48,2,49.9999984105428
380,20,163394,38,0,B|368:72|368:72|384:100|384:100|368:132|384:172,1,149.999995231629,4|0,0:3|0:0,0:0:0:0:
408,244,163746,1,0,0:0:0:0:
508,168,163863,2,0,P|496:144|440:148,1,74.9999976158143,8|0,0:0|0:0,0:0:0:0:
296,304,164097,2,0,L|404:316,1,74.9999976158143
304,188,164332,6,0,L|208:196,1,89.9999943923952,0|0,1:0|1:0,1:0:0:0:
40,256,164566,2,0,B|52:252|52:252|60:256|60:256|184:268,1,89.9999943923952,0|0,1:0|0:0,0:0:0:0:
132,128,164800,6,0,P|88:148|44:104,1,104.999993457794,8|8,0:0|0:0,0:0:0:0:
176,32,165035,2,0,L|280:40,1,104.999993457794,8|0,1:2|0:0,0:0:0:0:
416,4,165269,1,0,1:0:0:0:
304,188,165386,1,0,1:0:0:0:
452,80,165503,2,0,B|448:104|448:104|456:132|456:132|452:188,1,104.999993457794,4|0,0:3|0:0,0:0:0:0:
360,360,165738,2,8,L|372:240,1,104.999993457794
248,304,165972,2,2,L|240:208,2,69.9999956385296
248,304,166207,86,0,P|200:336|136:280,1,149.999995231629,4|2,1:2|0:0,0:0:0:0:
224,80,166558,2,0,P|208:36|156:48,1,74.9999976158143,2|8,0:0|1:1,0:0:0:0:
180,152,166792,2,0,B|232:156|232:156|264:148|264:148|332:152,1,149.999995231629,2|0,0:0|0:0,0:0:0:0:
388,84,167144,6,0,P|416:160|380:224,1,149.999995231629,0|2,1:3|0:0,0:0:0:0:
276,228,167496,1,2,0:0:0:0:
180,152,167613,2,0,L|176:48,1,74.9999976158143,8|0,1:0|0:0,0:0:0:0:
80,136,167847,2,0,B|76:188|76:188|84:208|84:208|80:268,1,99.9999968210857,2|0,0:0|0:0,0:0:0:0:
60,248,168082,102,0,P|132:256|128:324,1,149.999995231629,0|2,1:0|0:0,0:0:0:0:
256,280,168433,1,0,0:0:0:0:
380,320,168550,2,0,P|383:251|452:248,1,149.999995231629,8|0,1:0|0:0,0:0:0:0:
372,168,168902,1,2,0:0:0:0:
456,152,169019,6,0,P|468:136|452:56,1,74.9999976158143,0|0,1:0|0:0,0:0:0:0:
244,92,169253,2,0,L|360:88,1,74.9999976158143,2|0,0:0|0:0,0:0:0:0:
184,20,169488,2,0,B|128:16|128:16|104:24|104:24|69:7|32:20,1,149.999995231629,8|2,1:0|0:0,0:0:0:0:
80,160,169839,2,0,P|56:128|92:84,1,74.9999976158143,0|0,0:0|1:0,0:0:0:0:
144,232,170074,101,0,0:0:0:0:
172,108,170191,1,2,0:0:0:0:
40,256,170308,2,0,L|148:260,1,74.9999976158143,2|8,0:0|1:0,0:0:0:0:
344,324,170542,2,0,B|328:320|328:320|312:328|312:328|180:340,1,149.999995231629,2|0,0:0|0:0,0:0:0:0:
216,200,170894,6,0,B|240:208|240:208|256:204|256:204|288:216|336:212,1,99.9999968210857,0|0,1:0|0:0,1:0:0:0:
340,200,171128,2,0,P|352:160|340:112,1,74.9999976158143,2|0,0:0|0:0,0:0:0:0:
240,0,171363,1,8,1:0:0:0:
240,0,171480,2,0,L|248:88,1,74.9999976158143
246,74,171832,102,0,L|38:54,1,149.999995231629,0|0,1:0|0:0,0:0:0:0:
8,4,172183,1,0,0:0:0:0:
32,144,172300,2,0,B|96:140|96:140|124:152|124:152|200:148,1,149.999995231629,8|0,1:1|0:0,0:0:0:0:
320,76,172652,1,0,0:0:0:0:
396,148,172769,6,0,P|416:204|400:260,1,74.9999976158143,0|0,1:0|0:0,0:0:0:0:
304,280,173003,2,0,L|316:172,1,74.9999976158143,2|0,0:0|0:0,0:0:0:0:
116,148,173238,2,0,P|96:204|112:260,1,74.9999976158143,8|0,1:0|0:0,0:0:0:0:
208,280,173472,2,0,L|196:172,1,74.9999976158143,2|8,0:0|0:0,0:0:0:0:
144,48,173707,102,0,L|24:64,2,74.9999976158143,4|0|2,1:0|0:0|0:0,0:0:0:0:
220,88,174058,2,0,P|248:124|304:100,1,74.9999976158143,2|8,0:0|1:0,0:0:0:0:
448,36,174292,2,0,B|368:20|368:20|288:40,1,149.999995231629,2|0,0:0|0:0,0:0:0:0:
200,196,174644,2,0,B|244:192|272:216|272:216|300:192|356:196,1,149.999995231629,0|2,1:0|0:0,0:0:0:0:
420,232,174996,1,0,0:0:0:0:
372,304,175113,2,0,P|328:296|336:252,1,74.9999976158143,8|0,1:0|0:0,0:0:0:0:
488,136,175347,2,0,L|496:228,1,74.9999976158143,0|2,0:0|0:0,0:0:0:0:
460,332,175582,6,0,B|384:336|384:336|356:324|356:324|292:328,1,149.999995231629,0|2,1:0|0:0,0:0:0:0:
216,360,175933,1,0,0:0:0:0:
136,264,176050,2,0,B|140:164|140:164|136:144|136:144|144:108,1,149.999995231629,8|2,1:0|0:0,0:0:0:0:
208,40,176402,1,0,0:0:0:0:
104,176,176519,102,0,P|52:160|8:192,1,74.9999976158143,0|0,1:0|0:0,0:0:0:0:
136,264,176753,2,0,L|232:260,1,74.9999976158143,0|2,0:0|0:0,0:0:0:0:
276,184,176988,2,0,L|432:180,1,149.999995231629,8|2,1:0|0:0,0:0:0:0:
468,256,177339,1,0,0:0:0:0:
468,256,177457,6,0,B|476:176|476:176|468:156|468:156|480:68,1,149.999995231629,0|0,1:0|0:0,0:0:0:0:
508,12,177808,2,0,L|420:16,1,74.9999976158143,2|8,0:0|1:0,0:0:0:0:
328,100,178042,2,0,P|360:148|380:84,1,149.999995231629,2|0,0:0|0:0,0:0:0:0:
240,52,178394,102,0,L|248:208,1,149.999995231629,0|2,1:0|0:0,0:0:0:0:
312,276,178746,1,0,0:0:0:0:
200,324,178863,2,0,L|96:316,1,74.9999976158143,8|2,1:0|0:0,0:0:0:0:
64,184,179097,2,0,P|108:164|180:212,1,74.9999976158143,2|2,0:0|0:0,0:0:0:0:
236,220,179332,6,0,L|392:228,1,149.999995231629,0|2,1:0|0:0,0:0:0:0:
256,192,179683,1,0,0:0:0:0:
256,192,179800,2,0,L|412:184,1,149.999995231629,8|2,1:0|0:0,0:0:0:0:
256,156,180152,1,0,0:0:0:0:
256,156,180269,102,0,L|352:136,1,74.9999976158143,0|0,1:0|0:0,0:0:0:0:
200,84,180503,2,0,L|92:72,1,99.9999968210857,2|0,0:0|0:0,0:0:0:0:
24,24,180738,2,0,B|12:80|12:80|24:108|24:108|8:144|24:192,1,149.999995231629,8|2,1:0|0:0,0:0:0:0:
56,248,181089,1,2,0:3:0:0:
56,248,181207,6,0,P|80:220|164:312,1,149.999995231629,0|0,1:0|0:0,0:0:0:0:
264,344,181558,2,0,L|172:340,1,74.9999976158143,2|8,0:0|1:0,0:0:0:0:
116,192,181792,2,0,P|104:148|160:84,1,74.9999976158143,2|0,0:0|0:0,0:0:0:0:
200,84,182027,101,0,0:0:0:0:
200,84,182144,2,0,B|240:92|240:92|268:84|268:84|312:108|376:80,1,149.999995231629,0|2,1:0|0:0,0:0:0:0:
408,16,182496,1,0,0:0:0:0:
268,164,182613,2,0,P|252:208|276:264,1,74.9999976158143,8|0,1:0|0:0,0:0:0:0:
352,288,182847,2,0,L|340:188,1,74.9999976158143,2|0,0:0|0:0,0:0:0:0:
268,164,183082,6,0,B|196:180|196:180|100:144,1,149.999995231629,0|0,1:0|0:0,0:0:0:0:
200,84,183433,1,0,0:0:0:0:
136,0,183550,2,0,B|176:12|212:-4|212:-4|236:20|280:20,1,149.999995231629,8|0,1:0|0:0,0:0:0:0:
356,0,183902,1,0,0:0:0:0:
356,0,184019,102,0,P|356:44|328:92,1,74.9999976158143,0|0,1:0|0:0,0:0:0:0:
268,164,184253,2,0,L|364:156,1,74.9999976158143,2|0,0:0|0:0,0:0:0:0:
216,236,184488,2,0,L|120:228,1,74.9999976158143,8|0,1:0|0:0,0:0:0:0:
48,100,184722,1,2,0:0:0:0:
48,100,184957,6,0,P|56:124|104:116,1,74.9999976158143,0|0,1:0|0:0,0:0:0:0:
24,24,185191,1,0,0:0:0:0:
24,24,185308,2,0,B|20:80|20:80|36:116|36:116|32:192,1,149.999995231629,2|0,0:0|0:0,0:0:0:0:
0,280,185660,1,2,0:0:0:0:
0,280,185777,2,0,P|64:252|88:296,1,74.9999976158143,2|0,0:3|1:0,0:0:0:0:
352,328,186128,102,0,L|240:324,1,74.9999976158143,2|0,0:0|0:0,0:0:0:0:
324,232,186363,2,0,L|248:208,2,74.9999976158143,8|0|2,1:0|0:0|0:0,0:0:0:0:
404,200,186714,1,0,0:0:0:0:
404,200,186832,6,0,P|444:160|380:112,1,149.999995231629,0|2,1:0|0:0,0:0:0:0:
404,200,187183,1,2,0:0:0:0:
404,200,187300,102,0,P|456:148|384:100,1,149.999995231629,8|0,1:0|0:0,0:0:0:0:
256,56,187652,1,2,0:0:0:0:
256,56,187769,2,0,L|164:44,1,74.9999976158143,0|0,1:0|0:0,0:0:0:0:
44,128,188003,2,0,P|84:140|136:112,1,74.9999976158143
36,16,188238,5,8,1:0:0:0:
92,260,188472,1,2,0:0:0:0:
92,260,188589,1,2,0:3:0:0:
92,260,188707,102,0,L|252:248,1,149.999995231629,0|2,1:0|0:0,0:0:0:0:
356,340,189058,2,0,B|280:336|280:336|256:344|256:344|172:336,2,149.999995231629,0|2|0,0:0|0:0|0:0,0:0:0:0:
328,240,189644,6,0,P|296:176|216:164,1,149.999995231629,0|0,1:0|0:0,0:0:0:0:
120,176,189996,1,0,0:0:0:0:
40,64,190113,2,0,P|80:88|152:80,1,74.9999976158143,8|0,1:0|0:0,0:0:0:0:
320,104,190347,2,0,P|328:160|320:192,1,74.9999976158143,2|0,0:0|0:0,0:0:0:0:
256,336,190582,102,0,L|72:320,1,149.999995231629,0|0,1:0|0:0,0:0:0:0:
32,224,190933,1,0,0:0:0:0:
120,176,191050,2,0,P|148:200|192:160,1,74.9999976158143,8|0,1:0|0:0,0:0:0:0:
136,60,191285,2,0,L|40:64,1,74.9999976158143,2|0,0:0|0:0,0:0:0:0:
224,100,191519,5,0,1:0:0:0:
224,100,191753,2,0,P|236:48|296:8,1,74.9999976158143,2|0,0:0|0:0,0:0:0:0:
320,104,191988,2,0,B|336:164|336:164|332:200|332:200|356:292,1,149.999995231629,8|2,1:0|0:0,0:0:0:0:
384,340,192339,1,0,0:0:0:0:
368,160,192457,102,0,P|412:140|460:164,2,74.9999976158143,0|0|0,1:0|0:0|0:0,0:0:0:0:
345,250,192808,2,0,L|237:238,1,74.9999976158143,2|8,0:0|1:0,0:0:0:0:
156,280,193042,2,0,P|112:296|132:204,1,149.999995231629,2|0,0:0|0:0,0:0:0:0:
156,168,193394,6,0,B|164:136|152:112|152:112|164:68|164:68|148:16,1,149.999995231629,0|0,1:0|0:0,0:0:0:0:
72,64,193746,1,0,0:0:0:0:
232,112,193863,2,0,P|268:100|312:132,1,74.9999976158143,8|0,1:0|0:0,0:0:0:0:
384,340,194097,2,0,B|368:304|368:304|372:244,1,74.9999976158143,2|0,0:0|0:0,0:0:0:0:
424,192,194332,102,0,L|256:200,1,149.999995231629,0|2,1:0|0:0,0:0:0:0:
120,272,194683,1,0,0:0:0:0:
120,272,194800,2,0,L|288:280,1,149.999995231629,8|2,1:0|0:0,0:0:0:0:
348,152,195152,1,0,0:0:0:0:
348,152,195269,21,2,0:0:0:0:
256,40,195425,1,2,0:0:0:0:
208,176,195582,1,2,0:0:0:0:
268,120,195738,5,10,0:0:0:0:
220,256,195895,1,10,0:0:0:0:
128,148,196050,2,8,B|120:168|120:168|128:204|128:204|128:276,1,99.9999968210857,10|0,0:0|1:0,0:0:0:0:
84,260,209332,38,0,B|108:236|112:204|84:184|84:184|60:168|48:120|100:80,1,187.499994039536
82,96,210035,22,0,L|188:88,1,74.9999976158143
280,188,210269,2,0,P|236:200|176:168,1,74.9999976158143
284,40,210503,2,0,B|292:36|292:36|300:44|300:44|368:60,1,74.9999976158143
488,144,210738,22,0,B|448:156|448:156|432:156|432:156|372:184,1,89.9999943923952
164,276,210972,2,0,P|212:312|220:228,1,119.999996185303,2|8,0:0|0:0,0:0:0:0:
120,196,211207,86,0,P|80:204|8:180,2,74.9999976158143,0|0|0,1:0|0:0|0:0,0:0:0:0:
192,104,211558,1,0,0:0:0:0:
392,188,211675,6,0,P|432:180|504:204,2,74.9999976158143,0|0|0,1:0|0:0|0:0,0:0:0:0:
320,280,212026,1,0,0:0:0:0:
320,280,212144,102,0,L|308:360,1,74.9999976158143,0|0,1:0|0:0,0:0:0:0:
192,104,212378,2,0,L|204:24,1,74.9999976158143
288,140,212613,5,0,1:0:0:0:
224,244,212730,1,0,0:0:0:0:
224,244,212847,2,2,L|172:232,2,49.9999984105428
224,244,213082,102,0,L|140:256,1,74.9999976158143,0|0,1:0|0:0,0:0:0:0:
40,180,213316,1,0,0:0:0:0:
84,68,213433,1,0,0:0:0:0:
84,68,213550,6,0,P|104:48|160:84,1,74.9999976158143,0|0,1:0|0:0,0:0:0:0:
288,140,213785,2,0,P|268:160|212:124,1,74.9999976158143
264,24,214019,6,0,L|392:32,1,74.9999976158143,0|0,1:0|0:0,0:0:0:0:
444,104,214253,1,0,0:0:0:0:
444,104,214371,2,0,B|440:144|440:144|452:176|452:176|404:216|436:292,1,149.999995231629,2|2,0:0|1:2,0:0:0:0:
496,320,214605,1,2,0:0:0:0:
496,320,214722,2,2,P|504:288|504:232,2,75.0000004768372
392,340,214957,86,0,L|248:332,1,74.9999976158143,0|0,1:0|0:0,0:0:0:0:
208,256,215191,2,0,L|64:248,1,74.9999976158143
16,136,215425,6,0,L|160:128,1,74.9999976158143,0|0,1:0|0:0,0:0:0:0:
200,52,215659,2,0,L|344:44,1,74.9999976158143
344,16,215894,101,0,1:0:0:0:
428,184,216011,2,0,L|440:84,1,74.9999976158143
344,228,216246,6,0,L|328:108,2,74.9999976158143,0|0|0,0:0|1:0|0:0,0:0:0:0:
328,244,216597,2,2,P|356:252|396:244,2,49.9999984105428
232,180,216832,102,0,L|96:192,1,74.9999976158143,0|0,1:0|0:0,1:0:0:0:
84,260,217066,2,0,P|124:288|196:288,1,74.9999976158143
232,180,217300,6,0,L|212:72,1,74.9999976158143,0|0,1:0|0:0,0:0:0:0:
68,16,217535,2,0,B|64:24|64:24|68:44|68:44|64:104,1,74.9999976158143
28,320,217769,101,0,1:0:0:0:
88,320,217886,1,0,0:0:0:0:
148,320,218003,1,0,0:0:0:0:
208,320,218121,1,0,0:0:0:0:
412,248,218238,5,0,1:0:0:0:
352,244,218355,1,0,0:0:0:0:
292,240,218472,1,0,0:0:0:0:
232,236,218589,1,0,0:0:0:0:
172,228,218707,102,0,P|156:184|192:112,1,74.9999976158143,0|0,1:0|0:0,0:0:0:0:
268,48,218941,2,0,P|284:92|248:164,1,74.9999976158143
249,235,219175,6,0,P|207:215|181:139,1,74.9999976158143,0|0,1:0|0:0,0:0:0:0:
190,40,219409,2,0,P|232:60|258:136,1,74.9999976158143
310,186,219644,102,0,P|266:202|194:166,1,74.9999976158143,0|0,1:0|0:0,0:0:0:0:
130,90,219878,2,0,P|174:74|246:110,1,74.9999976158143
317,108,220112,6,0,P|297:150|221:176,1,74.9999976158143,0|0,1:0|0:0,0:0:0:0:
122,167,220347,2,2,L|136:112,2,49.9999984105428
122,167,220582,102,0,P|142:125|218:99,1,74.9999976158143,0|0,1:0|0:0,0:0:0:0:
360,44,220816,2,0,B|368:48|368:48|384:44|384:44|440:48,1,74.9999976158143
484,192,221050,5,0,1:0:0:0:
392,264,221167,1,0,0:0:0:0:
400,164,221285,2,0,L|408:240,1,74.9999976158143
284,320,221519,102,0,L|288:216,2,74.9999976158143,0|0|0,1:0|0:0|0:0,0:0:0:0:
208,348,221871,1,0,0:0:0:0:
152,332,221988,1,0,1:0:0:0:
96,316,222105,1,0,0:0:0:0:
96,316,222222,2,2,L|112:368,2,49.9999984105428
68,288,222457,6,0,P|48:252|72:200,1,74.9999976158143,0|0,1:0|0:0,0:0:0:0:
188,116,222691,2,0,L|180:216,1,74.9999976158143
329,190,222925,102,0,L|324:116,1,74.9999976158143,0|0,1:0|0:0,0:0:0:0:
458,220,223159,2,0,P|463:256|444:288,1,74.9999976158143
260,320,223394,5,0,1:0:0:0:
248,260,223511,1,0,0:0:0:0:
256,200,223628,1,0,0:0:0:0:
256,200,223746,2,0,L|256:104,2,74.9999976158143,0|0|0,0:0|1:0|0:0,0:0:0:0:
128,248,224097,2,2,L|128:316,2,49.9999984105428
128,248,224332,2,0,B|120:200|120:200|136:160|136:160|96:96|140:32,1,224.999992847443
256,96,225152,1,2,0:0:0:0:
256,96,225269,6,0,B|264:108|264:108|256:124|256:124|280:164|256:216,1,127.499998378754,4|0,1:3|0:0,0:0:0:0:
128,248,225503,2,0,B|120:236|120:236|128:220|128:220|104:180|128:128,1,127.499998378754,4|0,1:3|0:0,0:0:0:0:
392,176,225738,6,0,B|400:164|400:164|392:148|392:148|416:108|392:56,1,127.499998378754,4|0,1:3|0:0,0:0:0:0:
264,24,225972,2,0,B|256:36|256:36|264:52|264:52|240:92|264:144,1,127.499998378754,4|0,1:3|0:0,0:0:0:0:
376,296,226207,102,0,L|444:312,1,63.7499991893769,4|0,1:3|0:0,0:0:0:0:
348,304,226324,2,0,L|408:348,1,63.7499991893769,4|0,1:3|0:3,0:3:0:0:
320,308,226441,2,0,L|356:364,1,63.7499991893769,4|0,1:3|0:3,0:3:0:0:
288,312,226558,2,0,L|304:376,1,63.7499991893769,4|0,1:3|0:3,0:3:0:0:
128,248,226675,6,0,L|60:232,1,63.7499991893769,4|0,1:3|0:0,0:0:0:0:
156,240,226792,2,0,L|96:196,1,63.7499991893769,4|0,1:3|0:3,0:3:0:0:
184,236,226910,2,0,L|116:128,1,127.499998378754,4|0,1:3|0:0,0:0:0:0:
232,96,227144,102,0,P|293:100|336:56,1,127.499998378754,4|0,1:3|0:0,0:0:0:0:
279,287,227378,2,0,P|218:283|176:328,1,127.499998378754,4|0,1:3|0:0,0:0:0:0:
351,168,227613,2,0,P|347:229|392:272,1,127.499998378754,4|0,1:3|0:0,0:0:0:0:
160,215,227847,2,0,P|164:154|120:112,1,127.499998378754,4|0,1:3|0:0,0:0:0:0:
279,287,228082,6,0,P|263:343|308:376,1,74.9999976158143,4|0,1:3|0:0,0:0:0:0:
233,97,228199,2,0,P|249:41|204:8,1,74.9999976158143,4|0,1:3|0:0,0:0:0:0:
161,215,228316,2,0,P|105:199|72:244,1,74.9999976158143,4|0,1:3|0:0,0:0:0:0:
351,169,228433,2,0,P|407:185|440:140,1,74.9999976158143,4|0,1:3|0:0,0:0:0:0:
268,169,228550,101,4,1:3:0:0:
269,214,228667,1,4,1:3:0:0:
230,192,228785,1,4,1:3:0:0:
256,192,229019,54,4,B|248:204|248:204|256:232|256:232|241:277|256:344,1,149.999995231629,4|4,1:3|1:3,1:3:0:0:
254,337,231832,21,4,0:3:0:0:
376,248,231949,2,0,L|388:76,1,149.999995231629
336,164,232300,2,0,P|304:180|236:160,1,74.9999976158143,8|0,0:0|0:0,0:0:0:0:
152,80,232535,2,0,B|156:72|156:72|160:80|160:80|232:84,1,74.9999976158143
120,200,232769,5,4,0:3:0:0:
56,112,232886,1,0,0:0:0:0:
152,80,233003,1,0,0:0:0:0:
24,204,233121,2,0,B|28:220|20:236|20:236|28:252|28:252|20:272|20:272|24:284|24:284|8:324|32:356,1,149.999995231629,2|0,0:0|0:0,0:0:0:0:
124,368,233472,2,0,L|252:356,1,74.9999976158143,2|2,0:0|0:0,0:0:0:0:
264,288,233707,102,0,L|256:148,2,99.9999968210857,4|0|0,0:3|0:0|0:0,0:0:0:0:
352,348,234175,2,0,L|360:228,2,99.9999968210857,8|0|0,0:0|0:0|0:0,0:0:0:0:
352,348,234644,6,0,P|380:328|428:352,1,74.9999976158143,0|0,3:0|0:0,0:0:0:0:
488,196,234878,2,0,L|396:188,1,74.9999976158143
244,128,235113,6,0,B|268:120|268:120|288:124|288:124|308:104|356:100,1,89.9999943923952,8|0,0:0|0:0,0:0:0:0:
496,44,235347,2,0,B|476:52|476:52|444:40|444:40|412:52|356:36,1,112.500000715256,0|8,0:0|0:0,0:0:0:0:
208,4,235582,85,4,0:3:0:0:
208,4,235699,2,0,L|208:88,1,74.9999976158143
364,344,236050,2,0,B|312:352|312:352|280:332|280:332|240:348|204:348,1,149.999995231629,8|0,0:0|0:0,0:0:0:0:
96,280,236402,1,0,0:0:0:0:
208,112,236519,6,0,L|224:272,1,149.999995231629,4|0,0:3|0:0,0:0:0:0:
222,261,236988,102,0,P|232:224|300:204,1,74.9999976158143,8|0,0:0|0:0,0:0:0:0:
245,53,237222,2,0,P|235:90|167:110,1,74.9999976158143
112,60,237457,6,0,L|4:52,2,99.9999968210857,4|0|0,3:0|0:0|0:0,0:0:0:0:
64,188,237925,2,0,L|172:180,2,99.9999968210857,8|0|0,0:0|0:0|0:0,0:0:0:0:
64,188,238394,6,0,L|52:272,1,74.9999976158143,2|0,0:0|0:0,0:0:0:0:
184,360,238628,2,0,L|180:256,1,74.9999976158143
448,188,238863,6,0,L|460:272,1,74.9999976158143,8|0,0:0|0:0,0:0:0:0:
328,360,239097,2,0,L|332:256,1,74.9999976158143
256,52,239332,69,4,0:3:0:0:
256,52,239449,2,0,P|224:112|296:92,1,149.999995231629
412,52,239800,2,0,B|420:48|420:48|428:52|428:52|504:44,1,74.9999976158143,8|0,0:0|0:0,0:0:0:0:
448,188,240035,2,0,P|412:172|320:200,1,74.9999976158143
188,232,240269,5,4,0:3:0:0:
188,232,240386,2,0,B|224:240|224:240|284:228,1,74.9999976158143
220,136,240621,2,0,B|180:128|180:128|164:136|164:136|116:112|64:136,1,149.999995231629,2|0,0:0|0:0,0:0:0:0:
80,264,240972,2,0,P|112:240|84:184,1,74.9999976158143,2|0,0:0|0:0,0:0:0:0:
8,68,241207,102,0,L|4:172,2,99.9999968210857,4|0|0,3:0|0:0|0:0,0:0:0:0:
112,16,241675,2,0,L|120:124,2,99.9999968210857,8|0|0,0:0|0:0|0:0,0:0:0:0:
112,16,242144,6,0,P|144:28|192:16,1,74.9999976158143,4|0,0:3|0:0,0:0:0:0:
360,64,242378,2,0,L|248:56,1,74.9999976158143,2|0,0:0|0:0,0:0:0:0:
160,148,242613,6,0,B|164:144|164:144|176:148|176:148|208:120|256:140,1,89.9999943923952,8|0,0:0|0:0,0:0:0:0:
320,220,242847,2,0,P|256:244|228:180,1,112.500000715256,0|8,0:0|0:0,0:0:0:0:
360,64,243082,85,4,0:3:0:0:
360,64,243199,2,0,P|356:88|356:140,1,74.9999976158143
356,138,243550,6,0,P|408:192|384:280,1,149.999995231629,8|0,0:0|0:0,0:0:0:0:
264,328,243902,1,0,0:0:0:0:
264,328,244019,102,0,L|156:312,1,74.9999976158143,4|0,0:3|0:0,0:0:0:0:
72,232,244253,2,0,B|104:224|104:224|128:232|128:232|188:220,1,99.9999968210857,2|0,0:0|0:0,0:0:0:0:
188,208,244488,2,0,P|208:164|196:128,1,74.9999976158143,8|0,0:0|0:0,0:0:0:0:
72,12,244722,2,0,L|60:112,1,74.9999976158143,0|8,0:0|0:0,0:0:0:0:
72,232,244957,70,0,L|296:216,1,224.999992847443,4|0,0:3|0:0,0:0:0:0:
384,128,245425,2,0,P|396:96|380:36,1,74.9999976158143,8|0,0:0|0:0,0:0:0:0:
248,72,245660,2,0,P|256:96|300:80,1,74.9999976158143,2|0,0:0|0:0,0:0:0:0:
208,0,245894,38,0,L|200:120,1,74.9999976158143,2|0,0:0|0:0,0:0:0:0:
72,232,246128,1,0,0:0:0:0:
72,232,246246,1,0,0:0:0:0:
172,360,246363,2,0,P|184:320|136:300,1,74.9999976158143,8|0,0:0|0:0,0:0:0:0:
76,119,246597,22,0,L|72:232,1,112.500000715256
68,344,246832,85,4,0:3:0:0:
256,260,246949,1,0,0:0:0:0:
256,260,247066,2,0,L|352:268,1,74.9999976158143,2|0,0:0|0:0,0:0:0:0:
432,160,247300,2,0,B|392:152|392:152|352:160,1,74.9999976158143,8|0,0:0|0:0,0:0:0:0:
184,204,247535,1,2,0:0:0:0:
136,48,247652,1,0,0:0:0:0:
76,119,247769,6,0,L|248:127,1,149.999995231629,4|2,0:3|0:0,0:0:0:0:
312,40,248121,1,0,0:0:0:0:
312,40,248238,6,0,B|304:56|304:56|312:80|312:80|300:108|308:156,1,112.500000715256,8|2,0:0|0:0,0:0:0:0:
200,344,248472,2,0,B|208:328|208:328|200:304|200:304|212:276|204:228,1,112.500000715256,0|2,0:0|0:0,0:0:0:0:
205,235,248707,86,0,L|104:244,2,99.9999968210857,4|0|0,0:3|0:0|0:0,0:0:0:0:
306,148,249175,2,0,L|408:140,2,99.9999968210857,8|0|0,0:0|0:0|0:0,0:0:0:0:
306,148,249644,6,0,P|272:128|204:164,1,74.9999976158143,4|0,0:3|0:0,0:0:0:0:
206,236,249878,2,0,P|240:256|308:220,1,74.9999976158143,2|0,0:0|0:0,0:0:0:0:
440,84,250113,102,0,L|336:96,1,74.9999976158143,8|0,0:0|0:0,0:0:0:0:
206,236,250347,2,0,L|102:224,1,74.9999976158143,2|0,0:0|0:0,0:0:0:0:
72,168,250582,5,4,0:3:0:0:
140,24,250699,1,0,0:0:0:0:
228,164,250816,2,0,P|268:192|276:276,1,74.9999976158143
368,304,251050,2,0,B|372:280|372:280|364:260|364:260|380:228|368:164,1,99.9999968210857,8|0,0:0|0:0,0:0:0:0:
364,176,251285,2,0,L|360:60,1,74.9999976158143,2|0,0:0|0:0,0:0:0:0:
256,8,251519,102,0,L|253:82,1,74.9999976158143,4|0,0:3|0:0,0:0:0:0:
116,240,251753,1,0,0:0:0:0:
116,240,251871,2,0,P|152:196|124:96,1,149.999995231629,2|2,0:0|0:0,0:0:0:0:
0,252,252222,2,0,L|144:264,1,74.9999976158143,0|2,0:0|0:0,0:0:0:0:
172,336,252457,86,0,B|192:332|192:332|216:336|216:336|216:284|256:228|352:232|364:296,1,262.49999165535,4|0,0:3|0:0,0:0:0:0:
364,294,253394,22,0,P|356:258|372:178,1,74.9999976158143,4|0,0:3|0:0,0:0:0:0:
312,24,253628,2,0,P|320:60|304:140,1,74.9999976158143,2|0,0:2|0:2,0:2:0:0:
148,294,253863,6,0,P|156:258|140:178,1,74.9999976158143,8|0,0:0|0:0,0:0:0:0:
200,24,254097,2,0,P|192:60|208:140,1,74.9999976158143,2|0,0:2|0:2,0:2:0:0:
272,248,254332,102,0,L|376:272,3,74.9999976158143,4|0|0|0,0:3|0:0|0:0|0:0,0:0:0:0:
452,148,254800,2,0,L|348:172,3,74.9999976158143,8|0|0|0,0:0|0:0|0:0|0:0,0:0:0:0:
284,108,255269,6,0,P|268:68|344:64,1,74.9999976158143,4|0,0:3|0:0,0:0:0:0:
220,168,255503,2,0,B|192:164|192:164|172:168|172:168|136:164,1,74.9999976158143
56,56,255738,1,8,0:0:0:0:
56,56,255855,102,0,L|48:160,1,74.9999976158143,2|0,0:0|0:0,0:0:0:0:
88,240,256089,2,0,L|92:328,1,74.9999976158143,2|4,0:0|0:3,0:0:0:0:
220,168,256363,6,0,L|228:44,1,99.9999968210857,2|0,0:0|0:0,0:0:0:0:
376,16,256675,1,8,0:0:0:0:
332,256,256832,2,0,L|324:132,1,99.9999968210857,2|0,0:0|0:0,0:0:0:0:
325,156,257144,102,0,L|436:144,1,74.9999976158143,4|0,0:3|0:0,0:0:0:0:
444,52,257378,2,0,P|396:44|348:60,1,74.9999976158143
240,152,257613,22,0,L|256:248,1,74.9999976158143,8|0,0:0|0:0,0:0:0:0:
160,328,257847,2,0,B|164:312|164:312|156:296|156:296|184:252|144:172,1,112.500000715256
64,68,258082,85,4,0:3:0:0:
64,68,258199,2,0,L|220:60,1,149.999995231629
300,4,258550,2,0,P|320:48|308:100,1,74.9999976158143,8|0,0:0|0:0,0:0:0:0:
244,225,258785,2,0,B|236:201|236:201|240:141,1,74.9999976158143,2|0,0:0|0:0,0:0:0:0:
404,320,259019,5,4,3:0:0:0:
284,328,259136,1,0,0:0:0:0:
424,304,259253,2,0,L|440:216,1,74.9999976158143
344,96,259488,1,8,0:0:0:0:
344,96,259605,6,0,B|320:100|320:100|296:92|296:92|264:108|200:88,2,112.500000715256,2|0|2,0:0|0:0|0:0,0:0:0:0:
344,96,259957,86,0,P|336:144|356:204,1,74.9999976158143,4|0,0:3|0:0,0:0:0:0:
284,328,260191,2,0,B|292:296|292:296|288:232,1,74.9999976158143
204,168,260425,2,0,L|104:160,1,74.9999976158143,8|8,0:0|0:0,0:0:0:0:
64,76,260660,2,0,L|56:16,2,49.9999984105428,8|8|8,0:0|0:0|0:0,0:0:0:0:
64,76,260894,22,0,L|184:64,1,112.500000715256,4|0,0:3|0:0,0:0:0:0:
448,308,261128,2,0,L|328:320,1,112.500000715256,2|0,0:3|0:0,0:0:0:0:
372,0,261363,2,0,L|384:120,1,112.500000715256,2|0,0:3|0:0,0:0:0:0:
140,384,261597,2,0,L|128:264,1,112.500000715256,2|4,1:3|1:3,1:0:0:0:
128,272,261832,86,0,L|40:280,1,74.9999976158143
383,111,262066,2,0,L|472:104,1,74.9999976158143
175,64,262300,2,0,P|152:40|180:12,1,74.9999976158143
336,319,262534,2,0,P|360:344|332:372,1,74.9999976158143
192,232,262769,5,4,1:3:0:0:
319,151,262886,1,0,1:3:0:0:
296,255,263003,1,2,1:3:0:0:
215,127,263120,1,2,1:3:0:0:
244,242,263237,101,8,1:2:0:0:
267,141,263354,1,0,1:3:0:0:
306,203,263471,1,2,1:3:0:0:
205,180,263588,1,2,1:3:0:0:
205,180,263707,6,0,L|104:172,2,99.9999968210857,4|0|0,0:3|0:0|0:0,0:0:0:0:
306,203,264175,2,0,L|408:212,2,99.9999968210857,8|0|0,0:2|0:2|0:2,0:2:0:0:
306,203,264644,102,0,P|320:176|304:112,1,74.9999976158143,4|0,0:3|0:0,0:0:0:0:
208,16,264878,2,0,L|216:104,1,74.9999976158143
260,284,265113,22,0,B|272:292|272:292|300:280|332:284,1,74.9999976158143,8|0,0:0|0:0,0:0:0:0:
420,368,265347,2,0,B|432:352|432:352|428:328|428:328|444:296|432:256,1,112.500000715256,2|0,0:0|0:0,0:0:0:0:
300,40,265582,85,4,0:3:0:0:
356,112,265699,1,0,0:0:0:0:
268,124,265816,2,0,L|172:116,1,74.9999976158143,2|0,0:0|0:0,0:0:0:0:
24,44,266050,2,0,P|60:32|128:100,1,74.9999976158143,8|0,0:0|0:0,0:0:0:0:
80,216,266285,2,0,B|72:204|72:204|76:192|76:192|60:128,1,74.9999976158143,2|0,0:0|0:0,0:0:0:0:
24,304,266519,6,0,L|188:328,2,99.9999968210857,4|0|0,0:3|0:3|0:3,0:3:0:0:
188,260,266988,2,0,L|360:248,2,99.9999968210857,8|0|0,0:0|0:0|0:0,0:0:0:0:
188,260,267457,70,0,P|216:272|176:184,1,262.49999165535
156,192,268394,102,0,P|144:148|160:96,1,74.9999976158143
356,192,268628,2,0,P|368:236|352:288,1,74.9999976158143
256,92,268863,102,0,P|300:80|352:96,1,74.9999976158143
256,292,269097,2,0,P|212:304|160:288,1,74.9999976158143
76,228,269332,53,4,0:3:0:0:
60,168,269449,1,0,0:0:0:0:
44,108,269566,1,0,0:0:0:0:
28,52,269683,1,0,0:0:0:0:
208,268,269800,5,8,0:0:0:0:
224,212,269917,1,0,0:0:0:0:
240,152,270034,1,0,0:0:0:0:
256,92,270151,1,0,0:0:0:0:
256,92,270269,102,0,L|372:80,1,74.9999976158143,4|0,0:3|0:3,0:3:0:0:
456,180,270503,2,0,P|412:188|360:152,1,74.9999976158143
320,4,270738,5,8,0:0:0:0:
256,92,270855,6,0,B|252:108|252:108|264:136|264:136|260:236,1,112.500000715256,2|2,0:0|0:0,0:0:0:0:
132,336,271089,2,0,B|136:320|136:320|124:292|124:292|128:192,1,112.500000715256,2|4,0:0|0:3,0:0:0:0:
126,226,271363,54,0,P|104:236|88:172,1,99.9999968210857,2|0,0:0|0:0,0:0:0:0:
188,144,271675,1,0,0:0:0:0:
188,144,271832,2,0,P|210:153|226:89,1,99.9999968210857,2|0,0:0|0:0,0:0:0:0:
176,48,272144,22,0,L|85:32,1,74.9999976158143,4|0,0:3|0:0,0:0:0:0:
16,144,272378,2,0,L|106:128,1,74.9999976158143,2|0,0:0|0:0,0:0:0:0:
336,48,272613,6,0,L|426:32,1,74.9999976158143,8|0,0:0|0:0,0:0:0:0:
496,144,272847,2,0,L|405:128,1,74.9999976158143,2|0,0:0|0:0,0:0:0:0:
256,20,273082,101,4,0:3:0:0:
256,20,273199,2,0,B|264:40|264:40|256:60|256:60|284:112|256:164,1,149.999995231629,2|0,0:0|0:0,0:0:0:0:
172,224,273550,2,0,L|64:216,1,74.9999976158143,8|0,0:0|0:0,0:0:0:0:
52,328,273785,2,0,P|92:340|156:312,1,74.9999976158143
288,272,274019,6,0,B|328:268|328:268|360:280|360:280|424:280,2,99.9999968210857,4|0|0,0:3|0:0|0:0,0:0:0:0:
172,224,274488,2,0,B|132:220|132:220|100:232|100:232|36:232,2,99.9999968210857,8|0|0,0:0|0:0|0:0,0:0:0:0:
172,224,274957,70,0,P|144:160|248:188,1,224.999992847443,4|0,0:3|0:3,0:3:0:0:
256,188,275894,54,0,P|296:204|360:164,1,112.500000715256,4|0,0:3|0:0,0:0:0:0:
436,44,276128,2,0,B|408:36|408:36|396:44|396:44|356:28|296:56,1,112.500000715256,2|0,0:0|0:0,0:0:0:0:
200,108,276363,2,8,L|212:236,1,112.500000715256
112,160,276597,2,8,L|108:292,1,112.500000715256
256,192,276832,12,2,278589,0:0:0:0:
200,144,278707,102,0,P|156:152|104:120,1,74.9999976158143,0|0,1:0|0:0,0:0:0:0:
84,28,278941,2,0,L|204:20,1,74.9999976158143,0|0,1:0|0:0,1:0:0:0:
348,68,279175,2,0,B|336:64|336:64|320:68|320:68|300:60|236:72,1,89.9999943923952,8|0,1:2|0:0,0:0:0:0:
280,240,279410,6,0,B|300:244|300:244|316:232|316:232|348:252|460:236,1,112.500000715256,0|0,1:0|1:0,1:0:0:0:
484,160,279644,2,0,L|492:48,1,112.500000715256,0|0,1:0|1:0,1:0:0:0:
200,144,279878,2,0,B|192:160|192:160|200:180|200:180|208:296,1,112.500000715256,0|0,1:0|1:0,1:0:0:0:
84,348,280113,2,0,P|108:300|20:248,1,127.499998378754,8|0,1:2|1:0,1:0:0:0:
12,72,280347,2,0,B|36:64|36:64|60:76|60:76|112:48|176:76,1,149.999995231629,0|0,1:0|1:0,1:0:0:0:
264,304,280582,86,0,P|312:336|376:280,1,149.999995231629,4|2,1:2|0:0,0:0:0:0:
288,80,280933,2,0,P|304:36|356:48,1,74.9999976158143,2|8,0:0|1:1,0:0:0:0:
332,152,281167,2,0,B|280:156|280:156|248:148|248:148|180:152,1,149.999995231629,2|0,0:0|0:0,0:0:0:0:
124,84,281519,6,0,P|96:160|132:224,1,149.999995231629,0|2,1:3|0:0,0:0:0:0:
236,228,281871,1,2,0:0:0:0:
332,152,281988,2,0,L|336:48,1,74.9999976158143,8|0,1:0|0:0,0:0:0:0:
432,136,282222,2,0,B|436:188|436:188|428:208|428:208|432:268,1,99.9999968210857,2|0,0:0|0:0,0:0:0:0:
452,248,282457,102,0,P|380:256|384:324,1,149.999995231629,0|2,1:0|0:0,0:0:0:0:
256,280,282808,1,0,0:0:0:0:
132,320,282925,2,0,P|129:251|60:248,1,149.999995231629,8|0,1:0|0:0,0:0:0:0:
140,168,283277,1,2,0:0:0:0:
56,152,283394,6,0,P|44:136|60:56,1,74.9999976158143,0|0,1:0|0:0,0:0:0:0:
268,92,283628,2,0,L|152:88,1,74.9999976158143,2|0,0:0|0:0,0:0:0:0:
328,20,283863,2,0,B|384:16|384:16|408:24|408:24|443:7|480:20,1,149.999995231629,8|2,1:0|0:0,0:0:0:0:
432,160,284214,2,0,P|456:128|420:84,1,74.9999976158143,0|0,0:0|1:0,0:0:0:0:
368,232,284449,101,0,0:0:0:0:
340,108,284566,1,2,0:0:0:0:
472,256,284683,2,0,L|364:260,1,74.9999976158143,2|8,0:0|1:0,0:0:0:0:
168,324,284917,2,0,B|184:320|184:320|200:328|200:328|332:340,1,149.999995231629,2|0,0:0|0:0,0:0:0:0:
296,200,285269,6,0,B|272:208|272:208|256:204|256:204|224:216|176:212,1,99.9999968210857,0|0,1:0|0:0,1:0:0:0:
172,200,285503,2,0,P|160:160|172:112,1,74.9999976158143,2|0,0:0|0:0,0:0:0:0:
272,0,285738,1,8,1:0:0:0:
272,0,285855,2,0,L|264:88,1,74.9999976158143
266,74,286207,102,0,L|474:54,1,149.999995231629,0|0,1:0|0:0,0:0:0:0:
504,4,286558,1,0,0:0:0:0:
480,144,286675,2,0,B|416:140|416:140|388:152|388:152|312:148,1,149.999995231629,8|0,1:1|0:0,0:0:0:0:
192,76,287027,1,0,0:0:0:0:
116,148,287144,6,0,P|96:204|112:260,1,74.9999976158143,0|0,1:0|0:0,0:0:0:0:
208,280,287378,2,0,L|196:172,1,74.9999976158143,2|0,0:0|0:0,0:0:0:0:
396,148,287613,2,0,P|416:204|400:260,1,74.9999976158143,8|0,1:0|0:0,0:0:0:0:
304,280,287847,2,0,L|316:172,1,74.9999976158143,2|8,0:0|0:0,0:0:0:0:
368,48,288082,102,0,L|488:64,2,74.9999976158143,4|0|2,1:0|0:0|0:0,0:0:0:0:
292,88,288433,2,0,P|264:124|208:100,1,74.9999976158143,2|8,0:0|1:0,0:0:0:0:
64,36,288667,2,0,B|144:20|144:20|224:40,1,149.999995231629,2|0,0:0|0:0,0:0:0:0:
312,196,289019,2,0,B|268:192|240:216|240:216|212:192|156:196,1,149.999995231629,0|2,1:0|0:0,0:0:0:0:
92,232,289371,1,0,0:0:0:0:
140,304,289488,2,0,P|184:296|176:252,1,74.9999976158143,8|0,1:0|0:0,0:0:0:0:
24,136,289722,2,0,L|16:228,1,74.9999976158143,0|2,0:0|0:0,0:0:0:0:
52,332,289957,6,0,B|128:336|128:336|156:324|156:324|220:328,1,149.999995231629,0|2,1:0|0:0,0:0:0:0:
296,360,290308,1,0,0:0:0:0:
376,264,290425,2,0,B|372:164|372:164|376:144|376:144|368:108,1,149.999995231629,8|2,1:0|0:0,0:0:0:0:
304,40,290777,1,0,0:0:0:0:
408,176,290894,102,0,P|460:160|504:192,1,74.9999976158143,0|0,1:0|0:0,0:0:0:0:
376,264,291128,2,0,L|280:260,1,74.9999976158143,0|2,0:0|0:0,0:0:0:0:
236,184,291363,2,0,L|80:180,1,149.999995231629,8|2,1:0|0:0,0:0:0:0:
44,256,291714,1,0,0:0:0:0:
44,256,291832,6,0,B|36:176|36:176|44:156|44:156|32:68,1,149.999995231629,0|0,1:0|0:0,0:0:0:0:
4,12,292183,2,0,L|92:16,1,74.9999976158143,2|8,0:0|1:0,0:0:0:0:
184,100,292417,2,0,P|152:148|132:84,1,149.999995231629,2|0,0:0|0:0,0:0:0:0:
272,52,292769,102,0,L|264:208,1,149.999995231629,0|2,1:0|0:0,0:0:0:0:
200,276,293121,1,0,0:0:0:0:
312,324,293238,2,0,L|416:316,1,74.9999976158143,8|2,1:0|0:0,0:0:0:0:
448,184,293472,2,0,P|404:164|332:212,1,74.9999976158143,2|2,0:0|0:0,0:0:0:0:
276,220,293707,6,0,L|120:228,1,149.999995231629,0|2,1:0|0:0,0:0:0:0:
256,192,294058,1,0,0:0:0:0:
256,192,294175,2,0,L|100:184,1,149.999995231629,8|2,1:0|0:0,0:0:0:0:
256,156,294527,1,0,0:0:0:0:
256,156,294644,102,0,L|160:136,1,74.9999976158143,0|0,1:0|0:0,0:0:0:0:
312,84,294878,2,0,L|420:72,1,99.9999968210857,2|0,0:0|0:0,0:0:0:0:
488,24,295113,2,0,B|500:80|500:80|488:108|488:108|504:144|488:192,1,149.999995231629,8|2,1:0|0:0,0:0:0:0:
456,248,295464,1,2,0:3:0:0:
456,248,295582,86,0,L|356:240,1,89.9999943923952,4|0,1:0|0:0,0:0:0:0:
292,292,295933,2,0,P|248:308|200:288,2,89.9999943923952,0|2|0,0:0|0:0|0:0,0:0:0:0:
288,200,296519,1,0,0:0:0:0:
288,200,296753,6,0,L|304:120,1,44.9999971961976
224,104,296988,2,0,L|212:32,1,44.9999971961976
136,20,297222,2,0,L|128:120,1,89.9999943923952
144,132,297925,102,0,B|148:116|148:116|144:104|144:104|160:80|152:40,1,89.9999943923952,0|2,0:0|0:0,0:0:0:0:
48,4,298394,1,0,0:0:0:0:
36,184,298628,2,0,B|40:220|40:220|28:256|28:256|56:312|24:368,1,179.99998878479,2|0,0:0|0:0,0:0:0:0:
29,357,299332,6,0,P|64:320|152:360,1,134.999991588593
292,244,299917,2,0,B|340:248|340:248|420:232,1,89.9999943923952
444,176,300269,2,0,P|460:136|412:88,1,89.9999943923952
348,100,300621,2,0,L|280:96,2,44.9999971961976
392,20,300972,1,0,0:0:0:0:
476,256,301207,101,0,0:0:0:0:
476,256,301675,2,0,L|376:264,1,89.9999943923952
256,336,302144,2,0,L|140:324,1,89.9999943923952
36,200,302613,1,0,0:0:0:0:
204,140,302847,1,0,0:0:0:0:
204,140,303082,6,0,P|188:104|268:92,1,134.999991588593
196,248,303667,2,0,L|100:252,1,89.9999943923952,2|0,0:0|0:0,0:0:0:0:
36,200,304019,1,0,0:0:0:0:
36,200,304253,2,0,L|52:128,2,44.9999971961976
60,312,304605,1,0,0:0:0:0:
196,248,304722,2,0,P|232:216|300:224,1,89.9999943923952
288,224,305425,102,0,L|280:132,1,89.9999943923952
352,8,305894,1,0,0:0:0:0:
440,164,306128,2,0,B|448:188|448:188|432:208|432:208|456:240|460:312|416:356,1,179.99998878479,2|0,0:0|0:0,0:0:0:0:
420,348,306832,6,0,L|264:340,1,134.999991588593
108,320,307417,2,0,P|148:328|180:296,1,89.9999943923952
116,232,307769,2,0,L|24:212,1,89.9999943923952
72,136,308121,2,0,L|56:92,2,44.9999971961976
72,136,308472,2,0,B|104:132|104:132|124:140|124:140|164:136,1,89.9999943923952
188,124,309175,101,0,0:0:0:0:
188,124,309644,2,0,L|184:216,1,89.9999943923952
364,188,310113,2,0,L|376:304,2,89.9999943923952,2|0|0,0:0|0:0|0:0,0:0:0:0:
128,60,310933,5,0,0:0:0:0:
300,108,311167,2,0,P|340:84|400:100,1,89.9999943923952
448,152,311519,1,0,0:0:0:0:
376,316,311753,101,0,0:0:0:0:
284,324,311871,1,0,0:0:0:0:
196,332,311988,1,0,0:0:0:0:
236,252,312105,1,0,0:0:0:0:
280,172,312222,1,0,0:0:0:0:
100,188,312457,1,0,0:0:0:0:
100,188,312925,2,0,P|108:152|48:112,1,89.9999943923952
28,288,313394,1,0,0:0:0:0:
28,288,313628,2,0,B|64:284|64:284|88:296|88:296|144:264|208:300,1,179.99998878479,2|0,0:0|0:0,0:0:0:0:
199,295,314332,6,0,P|180:248|272:232,1,134.999991588593,2|0,0:0|0:0,0:0:0:0:
376,324,314917,2,0,L|484:312,1,89.9999943923952
416,240,315269,2,0,P|376:224|360:180,1,89.9999943923952
412,108,315621,2,0,L|464:112,2,44.9999971961976
340,52,315972,2,0,L|232:56,1,89.9999943923952
220,44,316675,101,0,0:0:0:0:
52,360,317144,2,0,L|36:260,1,89.9999943923952
216,304,317613,2,0,L|224:204,1,89.9999943923952
56,140,318082,6,0,P|92:180|124:104,1,134.999991588593,2|0,0:0|0:0,0:0:0:0:
316,168,318667,2,0,L|212:176,1,89.9999943923952
184,56,319019,2,0,L|288:60,1,89.9999943923952
360,88,319371,1,0,0:0:0:0:
376,76,319488,1,0,0:0:0:0:
392,64,319605,1,0,0:0:0:0:
408,52,319722,2,0,L|416:176,1,89.9999943923952
120,232,320425,102,0,P|108:276|120:324,1,89.9999943923952,2|0,0:0|0:0,0:0:0:0:
220,276,320894,1,0,0:0:0:0:
220,276,321128,2,0,B|228:248|228:248|216:224|216:224|256:168|224:80,1,179.99998878479
164,28,321832,5,4,1:2:0:0:
68,180,322300,1,0,1:0:0:0:
220,276,322769,1,0,1:2:0:0:
316,124,323238,1,0,1:0:0:0:
84,84,323707,5,0,1:2:0:0:
124,259,324175,1,0,1:0:0:0:
299,219,324644,1,0,1:2:0:0:
259,44,325113,1,0,1:0:0:0:
192,152,325582,5,4,1:3:0:0:
256,192,325699,12,2,329332,0:0:0:0:
300,152,330308,69,2,0:0:0:0:
236,120,331246,1,2,0:0:0:0:
168,144,332183,1,2,0:0:0:0:
140,208,333121,1,2,0:0:0:0:
156,276,334058,1,2,0:0:0:0:
212,324,334996,1,2,0:0:0:0:
284,312,335933,1,2,0:0:0:0:
