osu file format v14

[General]
AudioFilename: audio.mp3
AudioLeadIn: 0
PreviewTime: 55672
Countdown: 1
SampleSet: None
StackLeniency: 0.7
Mode: 0
LetterboxInBreaks: 0
WidescreenStoryboard: 0

[Editor]
Bookmarks: 9518,27980,55672,74134,101826,120288,157211,184903,212595
DistanceSpacing: 1.2
BeatDivisor: 6
GridSize: 8
TimelineZoom: 1

[Metadata]
Title:Recess Ft. Fatman Scoop and Michael Angelakos
TitleUnicode:Recess Ft. Fatman Scoop and Michael Angelakos
Artist:Skrillex & Kill The Noise
ArtistUnicode:Skrillex & Kill The Noise
Creator:NekoStar
Version:Hard
Source:
Tags:Skrillex and Kill The Noise dupstep
BeatmapID:2054802
BeatmapSetID:981776

[Difficulty]
HPDrainRate:5
CircleSize:3.7
OverallDifficulty:6
ApproachRate:8
SliderMultiplier:1.4
SliderTickRate:2

[Events]
//Background and Video events
0,0,"recess bg.jpg",0,0
//Break Periods
2,37211,45691
2,92595,96461
2,138749,156461
2,175728,184153
//Storyboard Layer 0 (Background)
//Storyboard Layer 1 (Fail)
//Storyboard Layer 2 (Pass)
//Storyboard Layer 3 (Foreground)
//Storyboard Sound Samples

[TimingPoints]
288,576.923076923077,4,2,1,100,1,0
9518,-100,4,2,1,40,0,0
27980,-100,4,2,1,45,0,0
37211,-100,4,2,1,20,0,0
46441,-100,4,2,1,70,0,0
51057,-100,4,2,1,75,0,0
51634,-100,4,2,1,80,0,0
52211,-100,4,2,1,85,0,0
52788,-100,4,2,1,90,0,0
53364,-100,4,2,1,30,0,0
54807,-76.9230769230769,4,2,1,50,0,0
55023,-76.9230769230769,4,2,1,5,0,0
55095,-66.6666666666667,4,2,1,100,0,0
55600,-66.6666666666667,4,2,1,5,0,0
55672,-86.9565217391304,4,2,1,100,0,1
56177,-80,4,2,1,5,0,1
56249,-80,4,2,1,80,0,1
58196,-80,4,2,1,5,0,1
58268,-80,4,2,1,80,0,1
58485,-80,4,2,1,5,0,1
58557,-80,4,2,1,80,0,1
59638,-80,4,2,1,5,0,1
59711,-80,4,2,1,80,0,1
60792,-80,4,2,1,5,0,1
60864,-80,4,2,1,80,0,1
62812,-80,4,2,1,5,0,1
62884,-80,4,2,1,80,0,1
63100,-80,4,2,1,5,0,1
63172,-80,4,2,1,80,0,1
64254,-80,4,2,1,5,0,1
64326,-80,4,2,1,80,0,1
65408,-80,4,2,1,5,0,1
65480,-80,4,2,1,80,0,1
67427,-80,4,2,1,5,0,1
67499,-80,4,2,1,80,0,1
67715,-80,4,2,1,5,0,1
67788,-80,4,2,1,80,0,1
70023,-80,4,2,1,5,0,1
70095,-80,4,2,1,80,0,1
71826,-100,4,2,1,50,0,0
74134,-80,4,2,1,80,0,1
74638,-80,4,2,1,5,0,1
74711,-80,4,2,1,80,0,1
76658,-80,4,2,1,5,0,1
76730,-80,4,2,1,80,0,1
76946,-80,4,2,1,5,0,1
77018,-80,4,2,1,80,0,1
78100,-80,4,2,1,5,0,1
78172,-80,4,2,1,80,0,1
79254,-80,4,2,1,5,0,1
79326,-80,4,2,1,80,0,1
81273,-80,4,2,1,5,0,1
81345,-80,4,2,1,80,0,1
81562,-80,4,2,1,5,0,1
81634,-80,4,2,1,80,0,1
83869,-80,4,2,1,5,0,1
83941,-80,4,2,1,80,0,1
85888,-80,4,2,1,5,0,1
85961,-80,4,2,1,80,0,1
86177,-80,4,2,1,5,0,1
86249,-80,4,2,1,80,0,1
88485,-80,4,2,1,5,0,1
88557,-80,4,2,1,80,0,1
90288,-100,4,2,1,50,0,0
92595,-100,4,2,1,50,0,0
101826,-80,4,2,1,80,0,1
102042,-80,4,2,1,5,0,1
102114,-80,4,2,1,80,0,1
102331,-80,4,2,1,5,0,1
102403,-80,4,2,1,80,0,1
104350,-80,4,2,1,5,0,1
104422,-80,4,2,1,80,0,1
104638,-80,4,2,1,5,0,1
104711,-80,4,2,1,80,0,1
106658,-80,4,2,1,5,0,1
106730,-80,4,2,1,80,0,1
106946,-80,4,2,1,5,0,1
107018,-80,4,2,1,80,0,1
108965,-80,4,2,1,5,0,1
109038,-80,4,2,1,80,0,1
109254,-80,4,2,1,5,0,1
109326,-80,4,2,1,80,0,1
111273,-80,4,2,1,5,0,1
111345,-80,4,2,1,80,0,1
111562,-80,4,2,1,5,0,1
111634,-80,4,2,1,80,0,1
113004,-80,4,2,1,5,0,1
113076,-80,4,2,1,80,0,1
113292,-80,4,2,1,5,0,1
113364,-80,4,2,1,80,0,1
115888,-80,4,2,1,5,0,1
115961,-80,4,2,1,80,0,1
116177,-80,4,2,1,5,0,1
116249,-80,4,2,1,80,0,1
117619,-80,4,2,1,5,0,1
117691,-80,4,2,1,80,0,1
117908,-80,4,2,1,5,0,1
117980,-80,4,2,1,80,0,1
119134,-100,4,2,1,20,0,0
119350,-100,4,2,1,5,0,0
119422,-80,4,2,1,40,0,0
119711,-74.0740740740741,4,2,1,60,0,0
119999,-66.6666666666667,4,2,1,80,0,0
120288,-80,4,2,1,80,0,1
120504,-80,4,2,1,5,0,1
120576,-80,4,2,1,80,0,1
120792,-80,4,2,1,5,0,1
120864,-80,4,2,1,80,0,1
122812,-80,4,2,1,5,0,1
122884,-80,4,2,1,80,0,1
123100,-80,4,2,1,5,0,1
123172,-80,4,2,1,80,0,1
125119,-80,4,2,1,5,0,1
125191,-80,4,2,1,80,0,1
125408,-80,4,2,1,5,0,1
125480,-80,4,2,1,80,0,1
127427,-80,4,2,1,5,0,1
127499,-80,4,2,1,80,0,1
127715,-80,4,2,1,5,0,1
127788,-80,4,2,1,80,0,1
129735,-80,4,2,1,5,0,1
129807,-80,4,2,1,80,0,1
130023,-80,4,2,1,5,0,1
130095,-80,4,2,1,80,0,1
131465,-80,4,2,1,5,0,1
131538,-80,4,2,1,80,0,1
131754,-80,4,2,1,5,0,1
131826,-80,4,2,1,80,0,1
134350,-80,4,2,1,5,0,1
134422,-80,4,2,1,80,0,1
134638,-80,4,2,1,5,0,1
134711,-80,4,2,1,80,0,1
136658,-80,4,2,1,5,0,1
136730,-80,4,2,1,80,0,1
136946,-80,4,2,1,5,0,1
137018,-80,4,2,1,80,0,1
137235,-80,4,2,1,5,0,1
137307,-80,4,2,1,80,0,1
137523,-80,4,2,1,5,0,1
137595,-80,4,2,1,80,0,1
138749,-100,4,2,1,80,0,0
157211,-100,4,2,1,40,0,0
158364,-100,4,2,1,40,0,0
158364,-100,4,2,1,20,0,0
159518,-100,4,2,1,40,0,0
160672,-100,4,2,1,20,0,0
161826,-100,4,2,1,40,0,0
167595,-100,4,2,1,25,0,0
168749,-100,4,2,1,40,0,0
169903,-100,4,2,1,25,0,0
171057,-100,4,2,1,40,0,0
175672,-100,4,2,1,50,0,0
184903,-100,4,2,1,50,0,0
189518,-100,4,2,1,40,0,0
191826,-100,4,2,1,30,0,0
194134,-80,4,2,1,80,0,1
194638,-80,4,2,1,5,0,1
194711,-80,4,2,1,80,0,1
196658,-80,4,2,1,5,0,1
196730,-80,4,2,1,80,0,1
196946,-80,4,2,1,5,0,1
197018,-80,4,2,1,80,0,1
198100,-80,4,2,1,5,0,1
198172,-80,4,2,1,80,0,1
199254,-80,4,2,1,5,0,1
199326,-80,4,2,1,80,0,1
201273,-80,4,2,1,5,0,1
201345,-80,4,2,1,80,0,1
201562,-80,4,2,1,5,0,1
201634,-80,4,2,1,80,0,1
203869,-80,4,2,1,5,0,1
203941,-80,4,2,1,80,0,1
205888,-80,4,2,1,5,0,1
205961,-80,4,2,1,80,0,1
206177,-80,4,2,1,5,0,1
206249,-80,4,2,1,80,0,1
208485,-80,4,2,1,5,0,1
208557,-80,4,2,1,80,0,1
210288,-100,4,2,1,50,0,0

[Colours]
Combo1 : 41,164,209
Combo2 : 64,255,0
Combo3 : 4,4,255
Combo4 : 0,155,78

[HitObjects]
88,120,9518,6,0,P|144:104|184:112,1,70,2|0,0:0|0:0,0:0:0:0:
248,144,10095,1,0,0:0:0:0:
232,240,10384,2,0,P|184:288|160:304,2,70
248,144,11249,1,0,0:0:0:0:
320,80,11538,1,0,0:0:0:0:
400,128,11826,6,0,P|416:176|416:208,1,70,2|0,0:0|0:0,0:0:0:0:
384,288,12403,1,0,0:0:0:0:
320,216,12691,1,0,0:0:0:0:
416,195,12980,2,0,L|496:187,2,70
376,104,13845,1,0,0:0:0:0:
304,168,14134,6,0,P|248:176|216:168,1,70,2|0,0:0|0:0,0:0:0:0:
192,144,14566,1,0,0:0:0:0:
192,144,14711,2,0,P|152:136|104:144,1,70,2|0,0:0|0:0,0:0:0:0:
72,224,15288,2,0,L|56:264,2,35,2|0|0,0:0|0:0|0:0,0:0:0:0:
32,136,15864,1,0,0:0:0:0:
88,56,16153,1,0,0:0:0:0:
88,56,16441,6,0,P|144:72|168:64,1,70,2|0,0:0|0:0,0:0:0:0:
200,48,16874,1,0,0:0:0:0:
200,48,17018,2,0,L|224:144,1,70,2|0,0:0|0:0,0:0:0:0:
248,144,17451,1,0,0:0:0:0:
288,152,17595,2,0,L|336:136,3,35,2|0|0|0,0:0|0:0|0:0|0:0,0:0:0:0:
368,152,18172,2,0,P|384:216|376:248,1,70
368,328,18749,6,0,P|312:336|272:328,1,70,2|0,0:0|0:0,0:0:0:0:
264,240,19326,1,0,0:0:0:0:
280,144,19615,2,0,P|328:96|352:80,2,70
264,240,20480,1,0,0:0:0:0:
192,304,20769,1,0,0:0:0:0:
112,256,21057,6,0,P|96:208|96:176,1,70,2|0,0:0|0:0,0:0:0:0:
128,96,21634,1,0,0:0:0:0:
192,168,21922,1,0,0:0:0:0:
96,189,22211,2,0,L|16:197,2,70
136,280,23076,1,0,0:0:0:0:
208,216,23365,6,0,P|264:208|296:216,1,70,2|0,0:0|0:0,0:0:0:0:
320,240,23797,1,0,0:0:0:0:
320,240,23942,2,0,P|360:248|408:240,1,70,2|0,0:0|0:0,0:0:0:0:
440,160,24519,2,0,L|456:120,2,35,2|0|0,0:0|0:0|0:0,0:0:0:0:
480,248,25095,1,0,0:0:0:0:
424,328,25384,1,0,0:0:0:0:
424,328,25672,6,0,P|368:312|344:320,1,70,2|0,0:0|0:0,0:0:0:0:
312,336,26105,1,0,0:0:0:0:
312,336,26249,2,0,L|288:240,1,70,2|0,0:0|0:0,0:0:0:0:
208,224,26682,1,0,0:0:0:0:
208,224,26826,2,0,L|160:240,3,35,2|0|0|0,0:0|0:0|0:0|0:0,0:0:0:0:
128,224,27403,2,0,P|112:160|120:128,1,70
144,64,27980,6,0,L|240:80,1,70,2|0,0:0|0:0,0:0:0:0:
256,104,28413,1,8,0:0:0:0:
256,104,28557,2,0,P|264:168|256:200,1,70,0|8,0:0|0:0,0:0:0:0:
240,264,29134,2,0,P|296:256|320:264,1,70
352,280,29566,1,8,0:0:0:0:
392,304,29711,2,0,P|440:288|464:272,1,70,0|8,0:0|0:0,0:0:0:0:
424,120,30288,6,0,P|408:168|416:208,1,70,2|0,0:0|0:0,0:0:0:0:
400,232,30720,1,8,0:0:0:0:
400,232,30864,2,0,P|344:240|320:232,1,70,0|8,0:0|0:0,0:0:0:0:
256,120,31441,2,0,P|304:112|344:120,1,70
376,128,31874,1,8,0:0:0:0:
416,104,32018,2,0,P|448:64|456:40,1,70,0|8,0:0|0:0,0:0:0:0:
312,64,32595,6,0,P|296:112|296:152,1,70,2|0,0:0|0:0,0:0:0:0:
312,176,33028,1,8,0:0:0:0:
312,176,33172,2,0,P|320:240|312:272,1,70,0|8,0:0|0:0,0:0:0:0:
232,288,33749,2,0,L|176:328,2,35
208,192,34326,1,0,0:0:0:0:
128,248,34614,1,8,0:0:0:0:
128,248,34903,6,0,P|112:192|112:160,1,70,2|0,0:0|0:0,0:0:0:0:
112,128,35336,1,8,0:0:0:0:
112,128,35480,2,0,P|152:96|168:64,1,70,0|8,0:0|0:0,0:0:0:0:
72,48,35913,1,8,0:0:0:0:
72,48,36057,2,8,L|24:16,3,35
112,128,36634,2,0,P|112:184|96:224,1,70,8|0,0:0|0:0,0:0:0:0:
168,216,46441,5,0,0:0:0:0:
216,128,46730,1,0,0:0:0:0:
288,192,47018,1,0,0:0:0:0:
336,104,47307,2,0,L|360:64,1,35,2|2,0:0|0:0,0:0:0:0:
408,136,47595,2,0,L|456:104,1,35,2|2,0:0|0:0,0:0:0:0:
432,208,47884,1,2,0:0:0:0:
384,296,48172,1,0,0:0:0:0:
312,232,48461,1,0,0:0:0:0:
256,312,48749,5,0,0:0:0:0:
192,240,49038,1,0,0:0:0:0:
248,160,49326,1,0,0:0:0:0:
176,96,49614,2,0,L|144:64,1,35,2|2,0:0|0:0,0:0:0:0:
112,152,49903,2,0,L|64:152,1,35,2|2,0:0|0:0,0:0:0:0:
136,232,50191,1,2,0:0:0:0:
200,160,50480,1,0,0:0:0:0:
272,224,50768,1,0,0:0:0:0:
216,304,51057,6,0,L|160:320,1,35
304,256,51345,2,0,L|344:272,1,35
216,208,51634,2,0,P|208:176|208:152,1,35
296,96,51922,2,0,P|304:128|304:160,1,35
176,96,52211,6,0,P|216:88|232:88,1,35
336,208,52499,2,0,P|296:216|280:216,1,35
400,96,52788,2,0,L|408:160,1,35
256,96,53076,2,0,L|248:32,1,35
176,96,53364,6,0,P|160:120|136:144,1,46.6666666666667
64,160,53653,2,0,P|88:200|96:208,1,46.6666666666667
176,224,53941,6,0,P|152:264|144:272,1,46.6666666666667
64,288,54230,2,0,P|88:328|96:336,1,46.6666666666667
216,328,54518,2,0,P|229:309|239:288,1,46.6666666666667
264,208,54807,2,0,B|272:208|272:208|279:211|279:211|288:208|288:208|296:205|296:205|304:208|304:208|312:210|312:210|319:205|319:205|328:208,1,68.2499968757631
368,200,55095,2,0,B|408:168|408:168|336:104|384:56,1,183.750007009506,8|0,0:0|0:0,0:0:0:0:
384,55,55672,6,0,B|368:64|368:64|352:56|352:56|288:64|288:64|248:48|248:48,1,140.875002686977,4|0,0:0|0:0,0:0:0:0:
224,56,56249,2,0,P|184:112|144:136,1,87.5,8|0,0:0|0:0,0:0:0:0:
120,120,56682,2,0,B|80:104|80:104|32:120,1,87.5
0,152,57114,1,0,0:0:0:0:
32,272,57403,2,0,L|48:352,1,58.3333333333333,8|0,0:0|0:0,0:0:0:0:
120,288,57691,2,0,L|168:352,1,58.3333333333333
232,288,57980,6,0,P|272:280|304:288,1,58.3333333333333,2|0,0:0|0:0,0:0:0:0:
336,320,58268,2,0,P|320:272|328:248,1,58.3333333333333,2|0,0:0|0:0,0:0:0:0:
328,224,58557,2,0,P|352:184|400:160,1,87.5,8|0,0:0|0:0,0:0:0:0:
432,144,58989,2,0,B|416:96|416:96|368:64,1,87.5
344,72,59422,2,0,P|304:104|272:112,1,65.625
256,128,59711,2,4,B|245:135|245:135|232:128|232:128|184:136|184:136|160:128,1,87.5,12|4,0:0|0:0,0:0:0:0:
80,56,60288,6,0,B|64:72|64:72|56:120|56:120|64:128|64:128|56:192|56:192|64:200|64:200,1,153.125,4|0,0:0|0:0,0:0:0:0:
48,232,60864,2,0,P|64:280|96:312,1,87.5,8|0,0:0|0:0,0:0:0:0:
160,248,61297,2,0,P|216:272|256:264,1,87.5
288,192,61730,1,0,0:0:0:0:
200,112,62018,2,0,P|192:72|208:32,1,58.3333333333333,8|0,0:0|0:0,0:0:0:0:
281,134,62307,2,0,P|289:179|281:211,1,58.3333333333333
280,288,62595,6,0,L|336:256,1,58.3333333333333,2|0,0:0|0:0,0:0:0:0:
376,264,62884,2,0,L|416:208,1,58.3333333333333,2|0,0:0|0:0,0:0:0:0:
424,176,63172,2,0,P|400:120|408:72,1,87.5,8|0,0:0|0:0,0:0:0:0:
336,40,63605,2,0,B|304:80|304:80|240:96,1,87.5
208,32,64038,1,0,0:0:0:0:
136,160,64326,2,4,B|144:168|144:168|136:176|136:176|152:224|152:224|144:240,1,87.5,12|4,0:0|0:0,0:0:0:0:
120,328,64903,6,0,B|136:336|136:336|184:328|184:328|200:336|200:336|264:328|264:328|280:336,1,153.125,4|0,0:0|0:0,0:0:0:0:
312,344,65480,2,0,P|360:360|400:344,1,87.5,8|0,0:0|0:0,0:0:0:0:
448,272,65913,2,0,P|400:256|352:272,1,87.5
288,224,66345,1,0,0:0:0:0:
328,72,66634,2,0,L|392:56,1,58.3333333333333,8|0,0:0|0:0,0:0:0:0:
432,120,66922,2,0,L|392:168,1,58.3333333333333
304,152,67211,6,0,B|272:144|272:144|248:152,1,58.3333333333333,2|0,0:0|0:0,0:0:0:0:
216,168,67499,2,0,B|184:176|184:176|160:168,1,58.3333333333333,2|0,0:0|0:0,0:0:0:0:
80,104,67788,2,0,P|64:168|24:192,1,87.5,8|0,0:0|0:0,0:0:0:0:
56,272,68220,2,0,B|96:240|96:240|144:256,1,87.5
208,288,68653,1,0,0:0:0:0:
320,200,68941,2,4,B|327:188|327:188|320:176|320:176|320:104|320:104,1,87.5,12|4,0:0|0:0,0:0:0:0:
224,48,69518,6,0,B|232:56|232:56|224:64|224:64|216:128|168:128|168:128|160:144|160:144|136:144,1,153.125,4|0,0:0|0:0,0:0:0:0:
96,152,70095,2,0,P|80:216|88:240,1,87.5,8|0,0:0|0:0,0:0:0:0:
176,216,70528,2,0,P|216:272|272:280,1,87.5
368,224,71105,2,0,L|417:130,1,87.5
384,64,71538,1,0,0:0:0:0:
256,136,71826,6,0,L|192:144,1,46.6666666666667
200,224,72114,2,0,L|136:240,1,46.6666666666667
232,320,72403,2,0,P|280:352|320:352,1,70,8|0,0:0|0:0,0:0:0:0:
360,296,72836,1,0,0:0:0:0:
400,216,72980,2,0,L|448:176,1,46.6666666666667,8|0,0:0|0:0,0:0:0:0:
352,136,73268,2,0,L|352:72,1,46.6666666666667
272,176,73557,2,8,P|248:200|224:208,1,46.6666666666667
200,216,73845,1,8,0:0:0:0:
104,72,74134,6,0,B|136:81|136:81|152:73|152:73|216:81|216:81|256:65|256:65,1,153.125,4|0,0:0|0:0,0:0:0:0:
288,56,74711,2,0,P|328:112|368:136,1,87.5,8|0,0:0|0:0,0:0:0:0:
392,120,75144,2,0,B|432:104|432:104|480:120,1,87.5
512,152,75576,1,0,0:0:0:0:
480,272,75865,2,0,L|464:352,1,58.3333333333333,8|0,0:0|0:0,0:0:0:0:
392,288,76153,2,0,L|344:352,1,58.3333333333333
280,288,76442,6,0,P|240:280|208:288,1,58.3333333333333,2|0,0:0|0:0,0:0:0:0:
176,319,76730,2,0,P|192:271|184:247,1,58.3333333333333,2|0,0:0|0:0,0:0:0:0:
184,224,77019,2,0,P|160:184|112:160,1,87.5,8|0,0:0|0:0,0:0:0:0:
80,144,77451,2,0,B|96:96|96:96|144:64,1,87.5
168,72,77884,2,0,P|208:104|240:112,1,65.625
256,128,78173,2,4,B|267:135|267:135|280:128|280:128|328:136|328:136|352:128,1,87.5
432,56,78750,6,0,B|448:72|448:72|456:120|456:120|448:128|448:128|456:192|456:192|448:200|448:200,1,153.125,4|0,0:0|0:0,0:0:0:0:
464,232,79326,2,0,P|448:280|416:312,1,87.5,8|0,0:0|0:0,0:0:0:0:
352,248,79759,2,0,P|296:272|256:264,1,87.5
224,192,80192,1,0,0:0:0:0:
312,112,80480,2,0,P|320:72|304:32,1,58.3333333333333,8|0,0:0|0:0,0:0:0:0:
231,134,80769,2,0,P|223:179|231:211,1,58.3333333333333
230,286,81057,6,0,L|174:254,1,58.3333333333333,2|0,0:0|0:0,0:0:0:0:
136,264,81346,2,0,L|96:208,1,58.3333333333333,2|0,0:0|0:0,0:0:0:0:
88,176,81634,2,0,P|112:120|104:72,1,87.5,8|0,0:0|0:0,0:0:0:0:
176,40,82067,2,0,B|208:80|208:80|272:96,1,87.5
304,32,82500,1,0,0:0:0:0:
376,160,82788,2,4,B|368:168|368:168|376:176|376:176|360:224|360:224|368:240,1,87.5,12|4,0:0|0:0,0:0:0:0:
392,328,83365,6,0,B|376:336|376:336|328:328|328:328|312:336|312:336|248:328|248:328|232:336,1,153.125,4|0,0:0|0:0,0:0:0:0:
200,344,83942,2,0,P|152:360|112:344,1,87.5,8|0,0:0|0:0,0:0:0:0:
64,272,84375,2,0,P|112:256|160:272,1,87.5
224,224,84807,1,0,0:0:0:0:
184,72,85096,2,0,L|120:56,1,58.3333333333333,8|0,0:0|0:0,0:0:0:0:
80,120,85384,2,0,L|120:168,1,58.3333333333333
208,152,85673,6,0,B|240:144|240:144|264:152,1,58.3333333333333,2|0,0:0|0:0,0:0:0:0:
296,168,85961,2,0,B|328:176|328:176|352:168,1,58.3333333333333,2|0,0:0|0:0,0:0:0:0:
432,104,86249,1,8,0:0:0:0:
488,168,86393,2,0,L|512:192,2,21.875
456,272,86682,2,0,B|416:240|416:240|368:256,1,87.5
304,288,87115,1,0,0:0:0:0:
192,200,87403,2,4,B|185:188|185:188|192:176|192:176|192:104|192:104,1,87.5,12|4,0:0|0:0,0:0:0:0:
288,48,87980,6,0,B|280:56|280:56|288:64|288:64|296:128|344:128|344:128|352:144|352:144|376:144,1,153.125,4|0,0:0|0:0,0:0:0:0:
416,152,88557,2,0,P|432:216|424:240,1,87.5,8|0,0:0|0:0,0:0:0:0:
336,216,88990,2,0,P|296:272|240:280,1,87.5
144,224,89567,2,0,L|95:130,1,87.5
128,64,90000,1,0,0:0:0:0:
304,120,90288,6,0,L|352:104,1,35
232,184,90576,2,0,L|168:168,1,35
336,208,90864,2,0,B|328:264|304:288,1,70,8|0,0:0|0:0,0:0:0:0:
248,336,91297,1,0,0:0:0:0:
176,264,91441,2,0,P|168:232|168:216,1,35,8|0,0:0|0:0,0:0:0:0:
144,344,91730,2,0,P|120:344|88:328,1,35
32,224,92018,2,8,P|72:216|96:216,1,46.6666666666667
120,224,92307,1,8,0:0:0:0:
256,192,97211,12,0,101249,0:0:0:0:
280,104,101826,6,0,B|312:104|312:104|319:108|319:108|360:108|360:108|360:112,1,65.625
376,120,102114,2,0,B|382:128|382:128|376:135|376:135|393:198,1,65.625
392,224,102403,2,0,P|336:272|296:280,1,87.5,8|0,0:0|0:0,0:0:0:0:
208,224,102835,2,0,P|264:176|304:168,1,87.5
320,272,103268,1,0,0:0:0:0:
208,360,103557,2,4,B|200:352|200:352|216:352|216:352|208:344|208:344|208:280,1,87.5,12|4,0:0|0:0,0:0:0:0:
208,136,104134,6,0,B|178:173|178:173|172:171|172:171|168:176|168:176|154:192,1,65.625,2|0,0:0|0:0,0:0:0:0:
136,200,104422,2,0,B|120:200|120:200|72:152,1,65.625,2|0,0:0|0:0,0:0:0:0:
64,120,104711,2,0,P|80:80|64:32,1,87.5,8|0,0:0|0:0,0:0:0:0:
168,64,105143,2,0,L|224:48,2,43.75
64,120,105576,2,0,L|56:176,1,43.75
136,192,105864,2,0,L|144:248,1,43.75,8|0,0:0|0:0,0:0:0:0:
72,280,106153,2,0,L|64:344,1,43.75
160,344,106441,6,0,B|168:349|168:349|176:344|176:344|200:334|234:346,1,65.625
256,352,106730,2,0,B|280:336|280:336|288:288,1,65.625
288,248,107018,2,0,B|331:232|331:232|376:248,1,87.5,8|0,0:0|0:0,0:0:0:0:
440,296,107451,2,0,P|456:248|448:208,1,87.5
384,160,107884,1,0,0:0:0:0:
312,312,108172,2,4,P|312:344|328:312,1,87.5,12|4,0:0|0:0,0:0:0:0:
264,216,108749,6,0,B|272:208|272:208|248:176|256:144,1,65.625,2|0,0:0|0:0,0:0:0:0:
256,112,109038,2,0,B|248:120|248:120|240:120|240:120|232:128|232:128|192:128|192:128,1,65.625,2|0,0:0|0:0,0:0:0:0:
152,112,109326,2,0,P|136:72|160:16,1,87.5,8|0,0:0|0:0,0:0:0:0:
32,72,109759,2,0,P|40:120|8:168,1,87.5
147,30,110191,1,0,0:0:0:0:
147,30,110336,1,0,0:0:0:0:
216,88,110480,2,8,L|232:152,1,58.3333333333333
168,216,110768,1,8,0:0:0:0:
240,304,111057,6,0,B|248:304|248:304|256:296|256:296|264:304|264:304|304:304,1,65.625
336,288,111345,2,0,B|345:254|345:254|354:249|354:249|359:220,1,65.625
360,192,111634,2,0,B|328:160|328:160|328:112,1,87.5,8|0,0:0|0:0,0:0:0:0:
360,40,112066,2,0,P|400:48|456:40,1,87.5
488,128,112499,1,0,0:0:0:0:
488,128,112788,2,0,B|492:135|492:135|488:144|488:144|488:168|488:168|480:176|480:176|480:192,1,65.625,12|0,0:0|0:0,0:0:0:0:
464,224,113076,2,0,B|456:232|456:232|448:224|448:224|392:224,1,65.625,4|0,0:0|0:0,0:0:0:0:
368,208,113364,6,0,B|344:192|344:192|344:128,1,87.5,2|2,0:0|0:0,0:0:0:0:
160,200,113941,1,8,0:0:0:0:
135,53,114230,2,0,L|89:30,2,43.75
216,104,114663,1,0,0:0:0:0:
216,104,114807,2,0,P|240:112|272:112,1,43.75
320,48,115095,2,0,P|344:40|376:40,2,43.75,8|0|0,0:0|0:0|0:0,0:0:0:0:
276,163,115672,6,0,B|276:171|276:171|276:204|276:204|270:211|270:211|270:240,1,65.625
256,264,115961,2,0,B|248:280|248:280|200:312,1,65.625
168,312,116249,2,0,B|160:307|160:307|152:312|152:312|104:296|96:264,1,87.5,8|0,0:0|0:0,0:0:0:0:
176,136,116682,2,0,B|184:168|184:168|168:224,1,87.5
89,97,117114,1,0,0:0:0:0:
89,97,117403,2,0,B|92:86|92:86|103:89|103:89|117:65|139:54,1,65.625,12|0,0:0|0:0,0:0:0:0:
173,48,117691,2,0,B|186:40|218:59|218:59|229:60|229:60|230:71,1,65.625,4|0,0:0|0:0,0:0:0:0:
256,96,117980,6,0,B|272:120|272:120|272:160|272:160|280:176,1,87.5
360,64,118557,2,0,L|432:64,1,58.3333333333333,8|0,0:0|0:0,0:0:0:0:
464,88,118845,1,8,0:0:0:0:
480,232,119134,2,0,P|464:272|448:288,1,52.5
416,296,119423,2,0,L|376:320,1,43.75
344,248,119711,2,0,L|278:252,1,47.2500001802444
312,168,119999,2,8,L|248:144,1,52.5000020027161
200,96,120288,6,0,B|168:96|168:96|161:100|161:100|120:100|120:100|120:104,1,65.625
104,112,120576,2,0,B|98:120|98:120|104:127|104:127|87:190,1,65.625
88,216,120865,2,0,P|144:264|184:272,1,87.5,8|0,0:0|0:0,0:0:0:0:
280,208,121297,2,0,P|224:160|184:152,1,87.5
155,267,121730,1,0,0:0:0:0:
304,360,122019,2,0,B|312:352|312:352|296:352|296:352|304:344|304:344|304:280,1,87.5,8|0,0:0|0:0,0:0:0:0:
304,136,122596,6,0,B|334:173|334:173|340:171|340:171|344:176|344:176|358:192,1,65.625
376,200,122884,2,0,B|392:200|392:200|440:152,1,65.625
448,120,123173,2,0,P|432:80|448:32,1,87.5,8|0,0:0|0:0,0:0:0:0:
344,64,123605,2,0,L|288:48,2,43.75
448,120,124038,2,0,L|456:176,1,43.75
376,192,124326,2,0,L|368:248,1,43.75,8|0,0:0|0:0,0:0:0:0:
440,280,124615,2,0,L|448:344,1,43.75
352,344,124903,6,0,B|344:349|344:349|336:344|336:344|312:334|278:346,1,65.625
256,352,125192,2,0,B|232:336|232:336|224:288,1,65.625
224,248,125480,2,0,B|181:232|181:232|136:248,1,87.5,8|0,0:0|0:0,0:0:0:0:
72,296,125913,2,0,P|56:248|64:208,1,87.5
128,160,126346,1,0,0:0:0:0:
200,312,126634,2,0,P|200:344|184:312,1,87.5,8|0,0:0|0:0,0:0:0:0:
248,216,127211,6,0,B|240:208|240:208|264:176|256:144,1,65.625
256,112,127500,2,0,B|264:120|264:120|272:120|272:120|280:128|280:128|320:128|320:128,1,65.625
360,112,127788,2,0,P|376:72|352:16,1,87.5,8|0,0:0|0:0,0:0:0:0:
440,208,128365,1,8,0:0:0:0:
432,48,128653,1,0,0:0:0:0:
296,88,128942,2,8,L|280:152,1,58.3333333333333,0|8,0:0|0:0,0:0:0:0:
304,184,129230,1,8,0:0:0:0:
272,304,129519,6,0,B|264:304|264:304|256:296|256:296|248:304|248:304|208:304,1,65.625
176,288,129807,2,0,B|167:254|167:254|158:249|158:249|153:220,1,65.625
152,192,130096,2,0,B|184:160|184:160|184:112,1,87.5,8|0,0:0|0:0,0:0:0:0:
152,40,130528,2,0,P|112:48|56:40,1,87.5
24,128,130961,1,0,0:0:0:0:
24,128,131250,2,0,B|20:135|20:135|24:144|24:144|24:168|24:168|32:176|32:176|32:192,1,65.625,8|0,0:0|0:0,0:0:0:0:
48,224,131538,2,0,B|56:232|56:232|64:224|64:224|120:224,1,65.625
144,208,131826,6,0,B|168:192|168:192|168:128,1,87.5
352,200,132403,1,8,0:0:0:0:
377,53,132692,2,0,L|423:30,2,43.75
296,104,133125,1,0,0:0:0:0:
296,104,133269,2,0,P|272:112|240:112,1,43.75
192,48,133557,2,0,P|168:40|136:40,2,43.75,8|0|0,0:0|0:0|0:0,0:0:0:0:
236,163,134134,6,0,B|236:171|236:171|236:204|236:204|242:211|242:211|242:240,1,65.625
256,264,134423,2,0,B|264:280|264:280|312:312,1,65.625
344,312,134711,2,0,B|352:307|352:307|360:312|360:312|408:296|416:264,1,87.5,8|0,0:0|0:0,0:0:0:0:
312,176,135288,1,0,0:0:0:0:
464,128,135576,1,0,0:0:0:0:
464,128,135864,2,0,B|461:117|461:117|450:120|450:120|436:96|414:85,1,65.625,8|0,0:0|0:0,0:0:0:0:
385,71,136153,1,0,0:0:0:0:
256,96,136442,6,0,B|240:120|240:120|240:128|240:128|240:160,1,65.625
224,192,136730,2,0,P|184:200|152:192,1,65.625
136,160,137018,2,0,B|144:136|144:136|136:128|136:128|144:96,1,65.625,8|0,0:0|0:0,0:0:0:0:
120,64,137307,2,0,B|112:56|112:56|104:64|112:64|56:64,1,65.625
32,88,137595,2,8,P|16:136|32:184,1,87.5
104,304,138172,2,8,B|134:296|134:296|160:304,1,58.3333333333333
208,240,138461,1,8,0:0:0:0:
368,104,157211,6,0,P|376:144|360:192,1,70,2|0,0:0|0:0,0:0:0:0:
248,136,157788,1,0,0:0:0:0:
368,104,158076,1,0,0:0:0:0:
224,56,158364,2,0,B|200:48|192:72|144:56,1,70
64,168,158941,2,0,B|88:176|96:152|144:168,1,70
192,272,159518,6,0,L|200:320,1,35,2|0,0:0|0:0,0:0:0:0:
288,296,159807,2,0,L|304:328,1,35
344,224,160095,2,0,B|368:208|384:232|416:216,1,70
472,80,160672,2,0,B|448:96|432:72|400:88,1,70
344,224,161249,1,0,0:0:0:0:
296,56,161538,1,0,0:0:0:0:
160,128,161826,5,2,0:0:0:0:
296,208,162114,1,0,0:0:0:0:
296,208,162259,1,0,0:0:0:0:
296,208,162403,1,2,0:0:0:0:
224,56,162691,1,0,0:0:0:0:
200,248,162980,2,0,L|192:288,2,35,2|0|0,0:0|0:0|0:0,0:0:0:0:
128,128,163845,1,0,0:0:0:0:
328,64,164134,5,2,0:0:0:0:
408,168,164422,1,0,0:0:0:0:
408,168,164566,1,0,0:0:0:0:
408,168,164711,1,2,0:0:0:0:
400,280,164999,2,0,L|384:328,1,35
304,272,165288,2,0,L|272:304,1,35
240,200,165576,2,0,L|192:200,1,35
272,112,165864,2,0,B|192:72,1,70,2|0,0:0|0:0,0:0:0:0:
104,232,166441,5,2,0:0:0:0:
104,40,166730,1,0,0:0:0:0:
248,144,167018,1,0,0:0:0:0:
40,136,167307,1,0,0:0:0:0:
152,88,167595,5,0,0:0:0:0:
128,200,167884,1,0,0:0:0:0:
88,136,168172,1,0,0:0:0:0:
192,152,168461,1,0,0:0:0:0:
408,152,168749,5,2,0:0:0:0:
408,344,169038,1,0,0:0:0:0:
264,240,169326,1,0,0:0:0:0:
472,248,169615,1,0,0:0:0:0:
360,296,169903,5,0,0:0:0:0:
384,184,170192,1,0,0:0:0:0:
424,248,170480,1,0,0:0:0:0:
320,232,170769,1,0,0:0:0:0:
384,72,171057,5,2,0:0:0:0:
240,144,171345,2,0,L|208:160,2,35,0|0|2,0:0|0:0|0:0,0:0:0:0:
144,48,171922,1,0,0:0:0:0:
80,184,172211,2,0,L|64:224,2,35,2|0|0,0:0|0:0|0:0,0:0:0:0:
256,328,173076,5,0,0:0:0:0:
312,240,173364,1,2,0:0:0:0:
376,320,173653,2,0,L|368:368,2,35,0|0|2,0:0|0:0|0:0,0:0:0:0:
448,152,174230,6,0,P|440:192|432:208,1,35
368,104,174518,2,0,P|368:72|376:48,1,35,2|0,0:0|0:0,0:0:0:0:
352,224,174807,2,0,P|336:256|320:272,1,35
432,176,175095,2,0,P|448:184|472:200,1,35,2|0,0:0|0:0,0:0:0:0:
304,144,175384,2,0,P|272:128|264:112,1,35
400,128,184903,5,0,0:0:0:0:
320,264,185191,1,0,0:0:0:0:
312,160,185480,1,0,0:0:0:0:
424,216,185768,1,2,0:0:0:0:
424,216,186057,1,2,0:0:0:0:
352,96,186345,2,0,P|304:88|264:104,1,70
208,192,186922,1,0,0:0:0:0:
192,48,187211,5,0,0:0:0:0:
284,93,187499,1,0,0:0:0:0:
104,136,187788,1,0,0:0:0:0:
256,176,188076,1,2,0:0:0:0:
256,176,188364,1,2,0:0:0:0:
160,264,188653,2,0,P|152:312|160:344,1,70
272,304,189230,1,0,0:0:0:0:
360,232,189518,6,0,P|368:192|368:168,2,46.6666666666667,2|2|2,0:0|0:0|0:0,0:0:0:0:
256,160,190095,2,0,P|248:120|248:96,2,46.6666666666667,2|2|2,0:0|0:0|0:0,0:0:0:0:
352,80,190672,6,0,P|392:88|416:88,2,46.6666666666667,2|2|2,0:0|0:0|0:0,0:0:0:0:
160,79,191249,2,0,P|137:85|114:88,2,46.6666666666667,2|2|2,0:0|0:0|0:0,0:0:0:0:
184,200,191826,6,0,P|192:232|184:264,1,46.6666666666667,8|0,0:0|0:0,0:0:0:0:
120,328,192114,2,0,L|96:272,1,46.6666666666667
80,144,192403,6,0,P|112:120|136:112,1,46.6666666666667
184,200,192691,2,0,P|160:232|136:232,1,46.6666666666667
240,112,192980,6,0,L|240:72,2,35
240,112,193557,2,0,P|304:144|312:144,1,70,8|0,0:0|0:0,0:0:0:0:
392,304,194134,6,0,B|376:295|376:295|360:303|360:303|296:295|296:295|240:319|240:319,1,153.125,4|0,0:0|0:0,0:0:0:0:
224,328,194711,2,0,P|184:272|144:248,1,87.5,8|0,0:0|0:0,0:0:0:0:
120,264,195144,2,0,B|80:280|80:280|32:264,1,87.5
0,232,195576,1,0,0:0:0:0:
32,112,195865,2,0,L|48:32,1,58.3333333333333,8|0,0:0|0:0,0:0:0:0:
120,96,196153,2,0,L|168:32,1,58.3333333333333
232,96,196442,6,0,P|272:104|304:96,1,58.3333333333333,2|0,0:0|0:0,0:0:0:0:
336,64,196730,2,0,P|320:112|328:136,1,58.3333333333333,2|0,0:0|0:0,0:0:0:0:
328,160,197019,2,0,P|352:200|400:224,1,87.5,8|0,0:0|0:0,0:0:0:0:
432,240,197451,2,0,B|416:288|416:288|368:320,1,87.5
344,312,197884,2,0,P|304:280|272:272,1,65.625
256,256,198173,2,4,B|245:249|245:249|232:256|232:256|184:248|184:248|160:256,1,87.5,12|4,0:0|0:0,0:0:0:0:
80,328,198750,6,0,B|64:312|64:312|56:264|56:264|64:256|64:256|56:192|56:192|64:184|64:184,1,153.125,4|0,0:0|0:0,0:0:0:0:
48,152,199326,2,0,P|64:104|96:72,1,87.5,8|0,0:0|0:0,0:0:0:0:
160,136,199759,2,0,P|216:112|256:120,1,87.5
288,192,200192,1,0,0:0:0:0:
200,272,200480,2,0,P|192:312|208:352,1,58.3333333333333,8|0,0:0|0:0,0:0:0:0:
281,250,200769,2,0,P|289:205|281:173,1,58.3333333333333
280,96,201057,6,0,L|336:128,1,58.3333333333333,2|0,0:0|0:0,0:0:0:0:
376,120,201346,2,0,L|416:176,1,58.3333333333333,2|0,0:0|0:0,0:0:0:0:
424,208,201634,2,0,P|400:264|408:312,1,87.5,8|0,0:0|0:0,0:0:0:0:
336,344,202067,2,0,B|304:304|304:304|240:288,1,87.5
208,352,202500,1,0,0:0:0:0:
136,224,202788,2,4,B|144:216|144:216|136:208|136:208|152:160|152:160|144:144,1,87.5,12|4,0:0|0:0,0:0:0:0:
120,56,203365,6,0,B|136:48|136:48|184:56|184:56|200:48|200:48|264:56|264:56|280:48,1,153.125,4|0,0:0|0:0,0:0:0:0:
312,40,203942,2,0,B|360:24|360:24|400:40,1,87.5,8|0,0:0|0:0,0:0:0:0:
448,112,204375,2,0,B|400:128|400:128|352:112,1,87.5
288,160,204807,1,0,0:0:0:0:
328,312,205096,2,0,L|392:328,1,58.3333333333333,8|0,0:0|0:0,0:0:0:0:
432,264,205384,2,0,L|392:216,1,58.3333333333333
304,232,205673,6,0,B|272:240|272:240|248:232,1,58.3333333333333,2|0,0:0|0:0,0:0:0:0:
216,216,205961,2,0,B|184:208|184:208|160:216,1,58.3333333333333,2|0,0:0|0:0,0:0:0:0:
80,280,206250,2,0,P|64:216|24:192,1,87.5,8|0,0:0|0:0,0:0:0:0:
56,112,206682,2,0,B|96:144|96:144|144:128,1,87.5
208,96,207115,1,0,0:0:0:0:
320,184,207403,2,4,B|327:196|327:196|320:208|320:208|320:280|320:280,1,87.5,12|4,0:0|0:0,0:0:0:0:
224,336,207980,6,0,B|232:328|232:328|224:320|224:320|216:256|168:256|168:256|160:240|160:240|136:240,1,153.125,4|0,0:0|0:0,0:0:0:0:
96,232,208557,2,0,P|80:168|88:144,1,87.5,8|0,0:0|0:0,0:0:0:0:
176,168,208990,2,0,P|216:112|272:104,1,87.5
368,160,209567,2,0,L|417:254,1,87.5
384,320,210000,1,0,0:0:0:0:
208,256,210288,6,0,L|160:248,1,46.6666666666667,2|0,0:0|0:0,0:0:0:0:
104,184,210576,2,0,L|168:160,1,46.6666666666667
224,120,210864,2,0,P|232:80|216:32,1,70
136,88,211297,1,0,0:0:0:0:
224,120,211441,2,0,L|280:128,1,46.6666666666667,2|0,0:0|0:0,0:0:0:0:
328,72,211730,2,0,L|376:64,1,46.6666666666667
432,120,212018,2,8,P|440:152|440:184,1,46.6666666666667
432,208,212307,2,0,B|400:224|384:200|344:224,1,70,8|0,0:0|0:0,0:0:0:0:
