osu file format v14

[General]
AudioFilename: audio.mp3
AudioLeadIn: 0
PreviewTime: 162075
Countdown: 0
SampleSet: Soft
StackLeniency: 0.2
Mode: 0
LetterboxInBreaks: 0
WidescreenStoryboard: 0

[Editor]
Bookmarks: 31763,55763,67763,79763,103763,127763,139763,163763,175763,187763,199763,211763
DistanceSpacing: 1.1
BeatDivisor: 2
GridSize: 8
TimelineZoom: 1.3

[Metadata]
Title:To U ft AlunaGeorge
TitleUnicode:To Ü ft AlunaGeorge
Artist:Skrillex & Diplo
ArtistUnicode:Skrillex & Diplo
Creator:NeilPerry
Version:ZLO's Normal
Source:
Tags:dubstep future bass chill trap Thomas Wesley Pentz Aluna George Sonny Moore vocal komore schoolboy zlo zlodeuka- 1112 suzuki_1112 Jack Ü OWSLA edm Mad Decent
BeatmapID:1538274
BeatmapSetID:723626

[Difficulty]
HPDrainRate:4
CircleSize:3.2
OverallDifficulty:5
ApproachRate:6
SliderMultiplier:0.799999999999999
SliderTickRate:1

[Events]
//Background and Video events
0,0,"rainy.png",0,0
//Break Periods
2,127963,138713
//Storyboard Layer 0 (Background)
//Storyboard Layer 1 (Fail)
//Storyboard Layer 2 (Pass)
//Storyboard Layer 3 (Foreground)
//Storyboard Sound Samples

[TimingPoints]
7763,375,4,2,1,20,1,0
31763,-100,4,2,1,40,0,0
43763,-100,4,2,1,50,0,0
52763,-100,4,2,1,40,0,0
53513,-100,4,2,1,30,0,0
53888,-100,4,2,1,25,0,0
54263,-100,4,2,1,60,0,0
55763,-100,4,2,1,60,0,1
79763,-100,4,2,1,40,0,0
90731,-100,4,2,1,20,0,0
91388,-100,4,2,1,30,0,0
91763,-100,4,2,1,50,0,0
97763,-100,4,2,1,40,0,0
98606,-100,4,2,1,25,0,0
100013,-100,4,2,1,20,0,0
101138,-100,4,2,1,50,0,0
103763,-100,4,2,1,70,0,1
121763,-100,4,2,1,50,0,0
124388,-100,4,2,1,70,0,0
126263,-100,4,2,1,50,0,0
127200,-100,4,2,1,70,0,0
139763,-100,4,2,1,40,0,0
151763,-100,4,2,1,50,0,0
160763,-100,4,2,1,40,0,0
161513,-100,4,2,1,30,0,0
161888,-100,4,2,1,25,0,0
163763,-100,4,2,1,60,0,0
166763,-100,4,2,1,60,0,1
187763,-100,4,2,1,50,0,0

[Colours]
Combo1 : 244,202,138
Combo2 : 255,164,119
Combo3 : 72,154,255
Combo4 : 167,167,167

[HitObjects]
59,17,7763,38,0,L|66:97,1,79.9999999999999,0|0,0:0|0:0,0:0:0:0:
153,91,8513,1,0,0:0:0:0:
144,178,8888,1,0,0:0:0:0:
178,350,9638,2,0,B|220:371|255:342|255:349|255:356|292:331|334:351,1,160,0|0,0:0|0:0,0:0:0:0:
420,368,10763,6,0,P|426:330|420:290,1,79.9999999999999,0|0,0:0|0:0,0:0:0:0:
357,226,11513,2,0,P|350:186|357:147,1,79.9999999999999,0|0,0:0|0:0,0:0:0:0:
386,63,12263,1,0,0:0:0:0:
301,37,12638,1,0,0:0:0:0:
213,37,13013,2,0,L|136:61,1,79.9999999999999,0|0,0:0|0:0,0:0:0:0:
152,147,13763,38,0,L|75:171,1,79.9999999999999,0|0,0:0|0:0,0:0:0:0:
90,257,14513,1,0,0:0:0:0:
109,342,14888,1,0,0:0:0:0:
256,246,15638,2,0,B|268:213|256:167|256:167|244:124|257:86,1,160,0|0,0:0|0:0,0:0:0:0:
318,26,16763,6,0,P|356:22|398:26,1,79.9999999999999,0|0,0:0|0:0,0:0:0:0:
448,97,17513,2,0,P|451:136|447:176,1,79.9999999999999,0|0,0:0|0:0,0:0:0:0:
385,239,18263,1,0,0:0:0:0:
301,266,18638,1,0,0:0:0:0:
213,266,19013,1,0,0:0:0:0:
129,239,19388,1,0,0:0:0:0:
64,178,19763,38,0,P|56:138|59:98,1,79.9999999999999,2|2,0:0|0:0,0:0:0:0:
146,102,20513,2,0,P|152:61|168:25,1,79.9999999999999,2|0,0:0|0:0,0:0:0:0:
251,55,21263,2,0,P|290:49|326:32,2,79.9999999999999,0|2|2,0:0|0:0|0:0,0:0:0:0:
225,139,22388,1,2,0:0:0:0:
216,226,22763,5,2,0:0:0:0:
209,313,23138,1,2,0:0:0:0:
296,321,23513,1,2,0:0:0:0:
304,233,23888,2,0,L|384:223,1,79.9999999999999,2|0,0:0|0:0,0:0:0:0:
470,210,24638,1,0,0:0:0:0:
415,141,25013,2,0,P|407:102|406:62,1,79.9999999999999,0|0,0:0|0:0,0:0:0:0:
327,22,25763,38,0,P|297:48|263:69,1,79.9999999999999,2|2,0:0|0:0,0:0:0:0:
176,85,26513,2,0,P|136:84|96:76,1,79.9999999999999,2|0,0:0|0:0,0:0:0:0:
10,59,27263,2,0,L|3:141,2,79.9999999999999,0|2|2,0:0|0:0|0:0,0:0:0:0:
96,76,28388,1,2,0:0:0:0:
183,69,28763,5,2,0:0:0:0:
270,57,29138,1,2,0:0:0:0:
283,144,29513,1,2,0:0:0:0:
196,157,29888,2,0,L|203:239,1,79.9999999999999,2|0,0:0|0:0,0:0:0:0:
213,324,30638,1,0,0:0:0:0:
295,354,31013,1,0,0:0:0:0:
377,324,31388,1,0,0:0:0:0:
393,237,31763,38,0,P|415:204|426:164,1,79.9999999999999,12|8,3:0|0:0,0:0:0:0:
414,77,32513,1,8,0:0:0:0:
335,37,32888,1,8,0:0:0:0:
296,116,33263,2,0,P|256:124|216:116,1,79.9999999999999,8|8,0:0|0:0,0:0:0:0:
178,37,34013,1,8,0:0:0:0:
99,77,34388,1,8,0:0:0:0:
85,163,34763,6,0,L|94:242,2,79.9999999999999,8|8|8,0:0|0:0|0:0,0:0:0:0:
169,188,35888,1,8,0:0:0:0:
253,211,36263,2,0,L|244:290,2,79.9999999999999,10|10|8,0:0|0:0|0:0,0:0:0:0:
267,124,37388,1,8,0:0:0:0:
285,38,37763,38,0,P|324:32|371:41,1,79.9999999999999,10|0,0:0|0:0,0:0:0:0:
421,105,38513,1,8,0:0:0:0:
421,192,38888,1,2,0:0:0:0:
364,259,39263,2,0,P|324:265|285:259,1,79.9999999999999,0|8,0:0|0:0,0:0:0:0:
201,231,40013,1,8,0:0:0:0:
118,260,40388,1,8,0:0:0:0:
34,231,40763,6,0,P|27:190|26:152,2,79.9999999999999,8|8|8,0:0|0:0|0:0,0:0:0:0:
118,260,41888,1,8,0:0:0:0:
202,283,42263,2,0,P|209:324|210:362,2,79.9999999999999,10|10|8,0:0|0:0|0:0,0:0:0:0:
183,196,43388,1,10,0:0:0:0:
149,114,43763,37,0,3:0:0:0:
168,28,44138,2,0,L|210:32,1,40,8|0,1:0|3:0,0:0:0:0:
251,36,44513,1,0,1:0:0:0:
331,70,44888,1,0,1:0:0:0:
412,103,45263,1,8,3:0:0:0:
432,188,45638,2,0,L|427:233,1,40,8|0,1:0|3:0,0:0:0:0:
421,271,46013,1,0,1:0:0:0:
407,357,46388,1,0,3:0:0:0:
338,301,46763,5,8,1:0:0:0:
256,266,47138,2,0,L|256:226,1,40,8|0,1:0|0:0,0:0:0:0:
257,181,47513,1,0,1:0:0:0:
176,145,47888,1,0,1:0:0:0:
96,107,48263,1,8,3:0:0:0:
34,169,48638,2,0,L|39:209,1,40,8|0,1:0|3:0,0:0:0:0:
46,252,49013,1,0,1:0:0:0:
62,338,49388,1,0,3:0:0:0:
256,192,49763,12,0,54263,0:0:0:0:
471,40,55763,5,6,3:2:0:0:
479,83,55950,1,2,0:0:0:0:
402,126,56325,2,0,L|395:168,1,40,2|10,3:2|1:2,0:0:0:0:
396,253,56888,2,0,L|410:335,1,79.9999999999999,2|2,0:0|0:0,0:0:0:0:
324,356,57638,1,0,1:0:0:0:
236,353,58013,1,8,1:0:0:0:
157,312,58388,1,12,0:0:0:0:
157,224,58763,5,2,3:2:0:0:
169,181,58950,1,2,0:0:0:0:
100,125,59325,2,0,L|88:83,1,40,2|10,3:2|1:2,0:0:0:0:
151,24,59888,2,0,L|232:49,1,79.9999999999999,2|2,0:0|0:0,0:0:0:0:
311,73,60638,1,0,3:0:0:0:
395,98,61013,2,0,L|437:90,2,40,2|2|2,1:0|0:1|1:0,0:0:0:0:
332,159,61763,37,6,3:2:0:0:
311,197,61950,1,2,0:0:0:0:
223,197,62325,2,0,L|203:161,1,40,2|10,3:2|1:2,0:0:0:0:
115,162,62888,2,0,L|70:242,1,79.9999999999999,2|2,0:0|0:0,0:0:0:0:
26,304,63638,1,0,1:0:0:0:
100,350,64013,1,0,3:0:0:0:
187,350,64388,1,4,1:0:0:0:
262,304,64763,5,2,3:2:0:0:
305,309,64950,1,2,0:0:0:0:
392,308,65325,2,0,L|433:303,1,40,2|10,3:2|1:2,0:0:0:0:
477,227,65888,2,0,L|467:145,1,79.9999999999999,2|2,0:0|0:0,0:0:0:0:
458,60,66638,1,0,3:0:0:0:
374,32,67013,2,0,L|292:27,1,79.9999999999999,10|0,1:0|0:0,0:0:0:0:
206,40,67763,37,6,3:2:0:0:
162,47,67950,1,2,0:0:0:0:
112,120,68325,2,0,L|112:160,1,40,2|10,3:2|1:2,0:0:0:0:
107,248,68888,2,0,P|145:253|185:247,1,79.9999999999999,2|2,0:0|0:0,0:0:0:0:
267,212,69638,1,0,1:0:0:0:
353,230,70013,1,8,1:0:0:0:
406,300,70388,1,12,0:0:0:0:
441,219,70763,5,2,3:2:0:0:
435,175,70950,1,2,0:0:0:0:
422,87,71325,2,0,L|427:47,1,40,2|10,3:2|1:2,0:0:0:0:
339,57,71888,2,0,L|258:65,1,79.9999999999999,2|2,0:0|0:0,0:0:0:0:
231,148,72638,2,0,L|150:140,1,79.9999999999999,0|2,3:0|1:0,0:0:0:0:
115,114,73200,2,0,L|76:116,1,40,2|0,1:0|1:0,0:0:0:0:
32,192,73763,37,6,3:2:0:0:
34,235,73950,1,2,0:0:0:0:
107,284,74325,2,0,L|109:328,1,40,2|10,3:2|1:2,0:0:0:0:
193,348,74888,2,0,P|233:344|274:348,1,79.9999999999999,2|2,0:0|0:0,0:0:0:0:
358,365,75638,1,0,1:0:0:0:
330,281,76013,1,8,1:0:0:0:
324,193,76388,1,12,0:0:0:0:
349,108,76763,5,2,3:2:0:0:
392,100,76950,1,2,0:0:0:0:
435,176,77325,2,0,L|474:183,1,40,2|10,3:2|1:2,0:0:0:0:
475,271,77888,2,0,L|435:278,1,40,2|2,1:2|1:2,0:0:0:0:
391,283,78263,2,0,L|345:282,1,40,2|2,1:2|1:2,0:0:0:0:
307,278,78638,2,0,L|221:265,2,79.9999999999999,2|2|0,1:0|1:0|0:0,0:0:0:0:
269,358,79763,6,0,L|190:354,1,79.9999999999999,4|8,3:2|0:0,0:0:0:0:
101,345,80513,2,0,P|111:308|114:264,1,79.9999999999999,8|8,0:0|0:0,0:0:0:0:
106,223,81075,1,0,0:0:0:0:
93,180,81263,2,0,P|83:143|80:99,1,79.9999999999999,8|8,0:0|0:0,0:0:0:0:
137,34,82013,2,0,L|214:58,1,79.9999999999999,8|8,0:0|0:0,0:0:0:0:
255,71,82575,1,0,0:0:0:0:
298,58,82763,6,0,L|375:34,1,79.9999999999999,8|8,0:0|0:0,0:0:0:0:
416,111,83513,2,0,P|404:151|397:191,1,79.9999999999999,8|8,0:0|0:0,0:0:0:0:
396,232,84075,1,0,0:0:0:0:
399,276,84263,2,0,L|328:311,1,79.9999999999999,10|10,0:0|0:0,0:0:0:0:
247,348,85013,1,8,0:0:0:0:
159,340,85388,1,8,0:0:0:0:
210,268,85763,38,0,P|216:229|215:188,1,79.9999999999999,10|0,0:0|0:0,0:0:0:0:
166,114,86513,2,0,P|127:108|86:109,1,79.9999999999999,8|8,0:0|0:0,0:0:0:0:
48,130,87075,1,2,0:0:0:0:
19,163,87263,2,0,L|23:243,1,79.9999999999999,10|8,0:0|0:0,0:0:0:0:
110,242,88013,2,0,L|106:322,1,79.9999999999999,8|8,0:0|0:0,0:0:0:0:
141,347,88575,1,2,0:0:0:0:
181,364,88763,6,0,P|219:353|256:336,1,79.9999999999999,10|10,0:0|0:0,0:0:0:0:
343,335,89513,2,0,P|379:350|418:361,1,79.9999999999999,8|8,0:0|0:0,0:0:0:0:
461,356,90075,1,0,0:0:0:0:
492,325,90263,2,0,L|492:245,1,79.9999999999999,8|8,0:0|0:0,0:0:0:0:
479,157,91013,1,0,1:0:0:0:
417,93,91388,1,2,1:0:0:0:
329,93,91763,37,0,3:0:0:0:
271,159,92138,2,0,L|264:198,1,40,8|0,1:0|3:0,0:0:0:0:
258,242,92513,2,0,L|268:326,1,79.9999999999999,0|0,1:0|1:0,0:0:0:0:
198,375,93263,2,0,L|117:364,1,79.9999999999999,8|8,3:0|1:0,0:0:0:0:
75,357,93825,1,0,3:0:0:0:
31,349,94013,1,0,1:0:0:0:
21,261,94388,1,0,1:0:0:0:
22,173,94763,5,0,3:0:0:0:
103,141,95138,2,0,L|108:101,1,40,8|0,1:0|3:0,0:0:0:0:
115,58,95513,2,0,P|150:38|188:24,1,79.9999999999999,0|0,1:0|1:0,0:0:0:0:
270,52,96263,2,0,P|305:72|343:86,1,79.9999999999999,0|8,1:0|1:0,0:0:0:0:
385,94,96825,1,0,3:0:0:0:
429,94,97013,1,0,1:0:0:0:
451,179,97388,1,0,1:0:0:0:
256,192,97763,12,0,100763,0:0:0:0:
64,286,102263,38,0,B|128:236|128:236|168:304|168:304|203:292|203:292|243:305,1,240,2|2,0:0|0:0,0:0:0:0:
329,327,103763,22,0,L|408:322,2,79.9999999999999,2|2|2,0:1|0:0|1:2,0:0:0:0:
307,241,104888,2,0,P|299:202|309:160,1,79.9999999999999,0|2,3:0|0:0,0:0:0:0:
327,123,105450,1,2,0:0:0:0:
346,83,105638,2,0,L|294:23,1,79.9999999999999,2|10,3:2|1:2,0:0:0:0:
206,34,106388,1,2,0:0:0:0:
179,69,106575,1,2,0:0:0:0:
152,104,106763,6,0,L|157:183,1,79.9999999999999,2|2,3:2|0:0,0:0:0:0:
122,211,107325,2,0,L|122:250,1,40,2|2,0:0|1:2,0:0:0:0:
129,338,107888,2,0,P|168:329|211:340,1,79.9999999999999,0|2,3:0|0:0,0:0:0:0:
248,349,108450,1,2,0:0:0:0:
288,365,108638,1,0,3:0:0:0:
367,326,109013,2,0,L|393:248,2,79.9999999999999,0|2|2,1:0|0:1|0:1,0:0:0:0:
294,276,110138,38,0,L|288:195,1,79.9999999999999,2|2,0:0|1:2,0:0:0:0:
281,108,110888,2,0,P|319:95|355:74,1,79.9999999999999,0|2,3:0|0:0,0:0:0:0:
387,48,111450,1,2,0:0:0:0:
416,15,111638,2,0,L|496:35,1,79.9999999999999,2|2,3:2|1:2,0:0:0:0:
484,122,112388,1,2,0:0:0:0:
478,165,112575,1,2,0:0:0:0:
471,208,112763,6,0,L|479:291,1,79.9999999999999,2|2,3:2|0:0,0:0:0:0:
438,305,113325,2,0,L|438:355,1,40,2|2,3:2|1:2,0:0:0:0:
349,345,113888,2,0,B|327:312|327:312|300:342|300:342|271:315|271:315|236:336|236:336|204:313|204:313|165:327|165:327|129:311|129:311|90:319,1,320,2|4,3:2|1:0,0:0:0:0:
5,341,115763,37,2,1:1:0:0:
15,253,116138,1,2,1:2:0:0:
45,170,116513,1,2,1:2:0:0:
105,106,116888,2,0,P|146:95|183:95,1,79.9999999999999,0|2,3:0|0:0,0:0:0:0:
254,147,117638,1,8,1:0:0:0:
324,199,118013,2,0,P|363:198|402:188,1,79.9999999999999,0|2,1:0|0:0,0:0:0:0:
439,164,118575,1,2,0:0:0:0:
464,128,118763,6,0,L|457:46,1,79.9999999999999,10|2,1:2|1:2,0:0:0:0:
373,22,119513,2,0,L|366:101,1,79.9999999999999,10|8,1:2|1:0,0:0:0:0:
326,119,120075,1,2,0:0:0:0:
284,134,120263,2,0,L|290:213,1,79.9999999999999,10|8,0:0|1:2,0:0:0:0:
204,196,121013,2,0,L|197:275,1,79.9999999999999,0|6,1:0|1:1,0:0:0:0:
188,363,121763,21,4,1:0:0:0:
101,347,122138,2,0,L|69:370,2,40,2|0|0,0:0|1:0|1:0,0:0:0:0:
110,259,122888,1,0,1:0:0:0:
116,171,123263,2,0,L|118:129,2,40,0|8|0,3:0|1:0|1:0,0:0:0:0:
188,221,124013,2,0,L|263:192,1,79.9999999999999,8|0,1:0|1:0,0:0:0:0:
256,192,124763,12,4,127763,3:0:0:0:
420,326,139763,37,12,3:0:0:0:
424,238,140138,1,8,0:0:0:0:
425,150,140513,2,0,L|415:70,1,79.9999999999999,8|8,0:0|0:0,0:0:0:0:
383,39,141075,1,0,0:0:0:0:
338,36,141263,1,8,0:0:0:0:
256,69,141638,1,8,0:0:0:0:
174,36,142013,2,0,L|95:48,1,79.9999999999999,8|8,0:0|0:0,0:0:0:0:
58,73,142575,1,0,0:0:0:0:
43,114,142763,6,0,P|34:151|43:193,1,79.9999999999999,8|8,0:0|0:0,0:0:0:0:
129,199,143513,2,0,P|138:236|129:278,1,79.9999999999999,8|8,0:0|0:0,0:0:0:0:
115,318,144075,1,0,0:0:0:0:
109,361,144263,2,0,L|188:368,1,79.9999999999999,10|10,0:0|0:0,0:0:0:0:
256,312,145013,1,8,0:0:0:0:
256,224,145388,1,8,0:0:0:0:
281,139,145763,38,0,L|303:58,1,79.9999999999999,10|0,0:0|0:0,0:0:0:0:
390,61,146513,2,0,L|410:138,1,79.9999999999999,8|8,0:0|0:0,0:0:0:0:
425,179,147075,1,2,0:0:0:0:
411,220,147263,2,0,L|390:297,1,79.9999999999999,0|8,0:0|0:0,0:0:0:0:
308,330,148013,2,0,P|267:326|226:331,1,79.9999999999999,8|8,0:0|0:0,0:0:0:0:
186,342,148575,1,0,0:0:0:0:
141,343,148763,6,0,P|136:303|140:263,1,79.9999999999999,8|8,0:0|0:0,0:0:0:0:
225,239,149513,2,0,P|229:199|225:159,1,79.9999999999999,8|8,0:0|0:0,0:0:0:0:
214,117,150075,1,0,0:0:0:0:
198,75,150263,2,0,L|272:35,1,79.9999999999999,10|10,0:0|0:0,0:0:0:0:
354,20,151013,1,8,0:0:0:0:
436,49,151388,1,8,0:0:0:0:
418,135,151763,38,0,P|418:175|423:216,1,79.9999999999999,8|8,3:0|1:0,0:0:0:0:
436,256,152325,1,0,3:0:0:0:
466,287,152513,1,0,1:0:0:0:
444,372,152888,1,0,1:0:0:0:
359,346,153263,2,0,P|319:342|280:341,1,79.9999999999999,0|8,3:0|1:0,0:0:0:0:
235,343,153825,1,0,3:0:0:0:
192,353,154013,1,0,1:0:0:0:
165,269,154388,1,0,1:0:0:0:
143,183,154763,6,0,P|138:143|141:102,1,79.9999999999999,8|8,3:0|1:0,0:0:0:0:
155,62,155325,1,0,3:0:0:0:
179,25,155513,1,0,1:0:0:0:
265,39,155888,1,0,3:0:0:0:
248,125,156263,2,0,P|265:160|289:192,1,79.9999999999999,8|0,1:0|1:0,0:0:0:0:
325,217,156825,1,0,3:0:0:0:
367,229,157013,1,0,1:0:0:0:
450,202,157388,1,0,1:0:0:0:
256,192,157763,12,0,162263,0:0:0:0:
53,116,163763,5,2,3:2:0:0:
96,110,163950,1,2,0:0:0:0:
144,36,164325,2,0,L|185:42,1,40,2|2,0:0|0:0,0:0:0:0:
216,123,164888,2,0,L|298:109,1,79.9999999999999,2|2,0:0|0:0,0:0:0:0:
381,95,165638,1,0,1:0:0:0:
450,148,166013,1,0,1:0:0:0:
464,234,166388,1,12,0:2:0:0:
417,308,166763,5,2,3:2:0:0:
373,316,166950,1,2,0:0:0:0:
318,246,167325,2,0,L|271:238,1,40,2|10,3:2|1:2,0:0:0:0:
227,311,167888,2,0,L|135:329,1,79.9999999999999,2|2,0:0|0:0,0:0:0:0:
61,340,168638,1,0,3:0:0:0:
39,254,169013,2,0,L|31:212,2,40,10|2|2,1:0|0:1|1:0,0:0:0:0:
126,241,169763,37,6,3:2:0:0:
147,203,169950,1,2,0:0:0:0:
233,186,170325,2,0,L|252:220,1,40,2|10,3:2|1:2,0:0:0:0:
340,212,170888,2,0,L|379:142,1,79.9999999999999,2|2,0:0|0:0,0:0:0:0:
412,60,171638,1,0,1:0:0:0:
328,30,172013,1,8,1:0:0:0:
251,72,172388,1,12,0:0:0:0:
224,156,172763,5,2,3:2:0:0:
234,198,172950,1,2,0:0:0:0:
154,236,173325,2,0,L|145:275,1,40,2|10,3:2|1:2,0:0:0:0:
131,362,173888,2,0,L|210:356,1,79.9999999999999,2|2,0:0|0:0,0:0:0:0:
296,334,174638,1,0,3:0:0:0:
364,278,175013,2,0,L|382:199,1,79.9999999999999,10|0,1:0|0:1,0:0:0:0:
402,114,175763,37,6,3:2:0:0:
395,70,175950,1,2,0:0:0:0:
310,44,176325,2,0,L|270:44,1,40,2|10,3:2|1:2,0:0:0:0:
181,49,176888,2,0,P|176:87|182:127,1,79.9999999999999,2|2,0:0|0:0,0:0:0:0:
240,193,177638,1,0,1:0:0:0:
298,258,178013,1,8,1:0:0:0:
312,344,178388,1,12,0:0:0:0:
399,334,178763,5,2,3:2:0:0:
436,311,178950,1,2,0:0:0:0:
397,232,179325,2,0,L|419:197,1,40,2|10,3:2|1:2,0:0:0:0:
362,129,179888,2,0,L|368:42,1,79.9999999999999,2|2,0:0|0:0,0:0:0:0:
279,47,180638,2,0,L|273:126,1,79.9999999999999,0|10,3:0|1:0,0:0:0:0:
273,170,181200,2,0,L|276:217,1,40,2|0,1:0|1:0,0:0:0:0:
229,284,181763,37,6,3:2:0:0:
189,264,181950,1,2,0:0:0:0:
116,214,182325,2,0,L|105:173,1,40,2|10,3:2|1:2,0:0:0:0:
83,89,182888,2,0,P|122:93|163:89,1,79.9999999999999,2|2,0:0|0:0,0:0:0:0:
238,42,183638,1,0,1:0:0:0:
325,40,184013,1,8,1:0:0:0:
407,70,184388,1,12,0:0:0:0:
409,157,184763,5,2,3:2:0:0:
399,199,184950,1,2,0:0:0:0:
377,284,185325,2,0,L|368:324,1,40,2|10,3:2|1:2,0:0:0:0:
279,323,185888,2,0,L|270:283,1,40,0|0,1:0|1:0,0:0:0:0:
259,241,186263,2,0,L|250:201,1,40,0|0,1:0|1:0,0:0:0:0:
242,158,186638,2,0,L|239:75,2,79.9999999999999,2|2|2,1:0|1:0|1:0,0:0:0:0:
329,151,187763,6,0,L|453:144,1,120,4|0,3:1|3:0,0:0:0:0:
473,180,188513,1,8,1:0:0:0:
430,256,188888,2,0,B|413:292|411:345|411:345|372:339|336:347,1,160,0|0,3:0|3:0,0:0:0:0:
256,359,190013,1,8,1:0:0:0:
168,346,190388,1,2,0:1:0:0:
111,278,190763,6,0,L|111:159,1,120,0|0,3:0|3:0,0:0:0:0:
111,113,191513,1,8,1:0:0:0:
180,58,191888,2,0,P|256:79|336:55,1,160,0|8,3:0|3:2,0:0:0:0:
412,20,193013,1,0,1:0:0:0:
483,71,193388,1,0,1:0:0:0:
404,110,193763,38,0,L|346:217,1,120,0|0,3:0|3:0,0:0:0:0:
325,254,194513,1,8,1:0:0:0:
242,224,194888,2,0,B|199:203|146:207|146:207|111:199|83:209,1,160,0|0,3:0|3:0,0:0:0:0:
115,291,196013,1,8,1:0:0:0:
177,352,196388,1,2,0:1:0:0:
262,332,196763,6,0,L|382:344,1,120,0|0,3:0|3:0,0:0:0:0:
425,347,197513,1,8,1:0:0:0:
470,271,197888,2,0,P|483:235|488:193,1,79.9999999999999,0|0,3:0|3:0,0:0:0:0:
476,151,198450,1,8,1:0:0:0:
445,118,198638,2,0,P|432:82|427:40,2,79.9999999999999,0|0|0,3:0|1:0|1:0,0:0:0:0:
365,155,199763,38,0,P|334:105|317:41,1,120,0|0,3:0|3:0,0:0:0:0:
326,3,200513,1,8,1:0:0:0:
238,15,200888,2,0,L|153:27,2,79.9999999999999,0|0|2,3:0|0:0|3:2,0:0:0:0:
248,102,202013,1,8,1:0:0:0:
257,189,202388,1,2,1:0:0:0:
261,276,202763,6,0,P|236:324|183:363,1,120,0|0,3:0|3:0,0:0:0:0:
139,364,203513,1,8,1:0:0:0:
70,308,203888,2,0,L|51:228,2,79.9999999999999,0|0|2,3:0|0:0|3:2,0:0:0:0:
152,276,205013,1,8,1:0:0:0:
203,204,205388,1,0,1:0:0:0:
195,116,205763,38,0,P|219:62|270:26,1,120,0|0,3:0|3:0,0:0:0:0:
311,26,206513,1,8,1:0:0:0:
382,77,206888,2,0,P|453:94|468:95,2,79.9999999999999,0|0|2,3:0|0:0|3:2,0:0:0:0:
302,114,208013,1,8,1:0:0:0:
283,200,208388,1,2,1:0:0:0:
298,286,208763,6,0,L|420:274,1,120,0|0,3:0|3:0,0:0:0:0:
461,271,209513,1,8,1:0:0:0:
450,358,209888,1,0,3:0:0:0:
256,192,210263,12,4,211763,3:2:0:0:
