osu file format v14

[General]
AudioFilename: Experts - Skism.mp3
AudioLeadIn: 0
PreviewTime: 43892
Countdown: 0
SampleSet: Normal
StackLeniency: 0.2
Mode: 0
LetterboxInBreaks: 1
EpilepsyWarning: 1
WidescreenStoryboard: 0

[Editor]
DistanceSpacing: 0.7
BeatDivisor: 4
GridSize: 8
TimelineZoom: 0.9999992

[Metadata]
Title:Experts
TitleUnicode:Experts
Artist:Skism
ArtistUnicode:Skism
Creator:Hisoka
Version:Insane
Source:
Tags:Dubstep Electro
BeatmapID:506950
BeatmapSetID:215894

[Difficulty]
HPDrainRate:6.5
CircleSize:4
OverallDifficulty:7
ApproachRate:9
SliderMultiplier:1.8
SliderTickRate:1

[Events]
//Background and Video events
0,0,"iem-blue.png",0,0
//Break Periods
2,63292,70720
//Storyboard Layer 0 (Background)
//Storyboard Layer 1 (Fail)
//Storyboard Layer 2 (Pass)
//Storyboard Layer 3 (Foreground)
//Storyboard Sound Samples

[TimingPoints]
6.55289622573629,342.857142857143,4,1,1,100,1,0
18520,-80,4,1,1,100,0,0
19206,-88.8888888888889,4,1,1,100,0,0
19549,-66.6666666666667,4,1,1,100,0,0
19892,-53.1914893617021,4,1,1,100,0,0
20235,-44.4444444444445,4,1,1,100,0,0
20577,-66.6666666666667,4,1,1,100,0,0
21949,-166.666666666667,4,1,1,100,0,0
22635,-100,4,1,1,100,0,0
24692,-90.9090909090909,4,1,1,100,0,0
26063,-133.333333333333,4,1,1,100,0,0
26406,-66.6666666666667,4,1,1,100,0,0
27435,-200,4,1,1,100,0,0
28120,-100,4,1,1,100,0,0
30177,-80,4,1,1,100,0,0
30520,-100,4,1,1,100,0,0
31549,-125,4,1,1,100,0,0
32920,-181.818181818182,4,1,1,100,0,0
33949,-100,4,1,1,100,0,0
43892,-71.4285714285714,4,1,1,100,0,1
49035,-133.333333333333,4,1,1,100,0,1
49377,-80,4,1,1,100,0,1
52806,-133.333333333333,4,1,1,100,0,1
54863,-200,4,1,1,100,0,0
55892,-100,4,1,1,100,0,0
59663,-80,4,1,1,100,0,0
61035,-100,4,1,1,100,0,0
74963,428.571428571429,4,1,1,100,1,0
78391,-133.333333333333,4,1,1,100,0,0
79248,-100,4,1,1,100,0,0
80963,-200,4,1,1,100,0,0
81820,-100,4,1,1,100,0,0
82248,-66.6666666666667,4,1,1,100,0,0
85248,-200,4,1,1,100,0,0
88677,-66.6666666666667,4,1,1,100,0,0
89105,-100,4,1,1,100,0,0
89534,-133.333333333333,4,1,1,100,0,0
92105,-200,4,1,1,100,0,0
94677,-100,4,1,1,100,0,0
95534,-166.666666666667,4,1,1,100,0,0
96391,-100,4,1,1,100,0,0
102391,-133.333333333333,4,1,1,100,0,1
103248,-80,4,1,1,100,0,1
105820,-133.333333333333,4,1,1,100,0,1
106677,-80,4,1,1,100,0,1
109248,-133.333333333333,4,1,1,100,0,0
110105,-80,4,1,1,100,0,0
110963,-133.333333333333,4,1,1,100,0,0
113534,-80,4,1,1,100,0,0
114820,-133.333333333333,4,1,1,100,0,0
116105,-133.333333333333,4,1,1,100,0,1
116963,-100,4,1,1,100,0,1
117391,-55.5555555555556,4,1,1,100,0,1
117820,-100,4,1,1,100,0,1
118248,-55.5555555555556,4,1,1,100,0,1
118677,-80,4,1,1,100,0,1
119534,-133.333333333333,4,1,1,100,0,1
120248,-80,4,1,1,100,0,1
122105,-100,4,1,1,100,0,1
122963,-100,4,1,1,100,0,0
124677,-133.333333333333,4,1,1,100,0,0

[HitObjects]
256,192,12006,12,8,16120,0:0:0:0:
88,72,16463,6,0,P|108:113|120:156,1,90,4|0,0:0|0:0,0:0:0:0:
424,312,16806,2,0,P|404:270|392:228,1,90,8|0,0:0|0:0,0:0:0:0:
136,360,17149,2,0,P|176:338|220:328,1,90,0|0,0:0|0:0,0:0:0:0:
376,24,17492,2,0,P|336:46|292:56,1,90,8|0,0:0|0:0,0:0:0:0:
80,192,17835,5,0,0:0:0:0:
144,96,18006,1,0,0:0:0:0:
256,60,18177,1,8,0:0:0:0:
368,96,18349,1,0,0:0:0:0:
436,192,18520,2,0,P|476:224|480:284,1,112.5
412,260,18863,2,0,P|414:314|456:350,1,112.5,8|0,0:0|0:0,0:0:0:0:
244,328,19206,6,0,L|152:288,1,101.250003862381,4|0,0:0|0:0,0:0:0:0:
108,196,19549,2,0,L|248:216,1,135.000005149842,12|0,0:0|0:0,0:0:0:0:
224,112,19892,6,0,P|296:40|364:60,1,168.75,4|0,0:0|0:0,0:0:0:0:
428,276,20235,2,0,P|344:220|312:108,1,202.500007724762,12|0,0:0|0:0,0:0:0:0:
84,72,20577,5,0,0:0:0:0:
92,99,20662,1,0,0:0:0:0:
106,124,20748,1,0,0:0:0:0:
126,145,20834,1,0,0:0:0:0:
144,164,20919,1,8,0:0:0:0:
143,193,21005,1,0,0:0:0:0:
136,221,21091,1,0,0:0:0:0:
124,247,21177,1,0,0:0:0:0:
108,260,21263,6,0,L|152:312,1,67.5000025749208,4|0,0:0|0:0,0:0:0:0:
244,192,21435,2,0,L|232:124,1,67.5000025749208
376,276,21606,2,0,L|444:288,1,67.5000025749208,12|0,0:0|0:0,0:0:0:0:
448,80,21777,2,0,L|392:132,1,67.5000025749208
240,36,21949,6,0,B|256:80|256:80|208:100|264:128|208:144|224:184,1,161.999995056153,4|8,0:0|0:0,0:0:0:0:
148,320,22635,2,0,P|108:284|124:224,1,90
256,344,22977,1,8,0:0:0:0:
256,344,23149,1,0,0:0:0:0:
364,320,23320,2,0,P|404:284|388:224,1,90
256,72,23663,1,8,0:0:0:0:
256,220,23835,1,0,0:0:0:0:
196,92,24006,5,0,0:0:0:0:
316,204,24177,1,0,0:0:0:0:
139,117,24349,1,8,0:0:0:0:
378,185,24520,1,0,0:0:0:0:
116,292,24692,6,0,L|56:212,1,99.0000030212403
224,328,25035,1,8,0:0:0:0:
248,312,25120,1,0,0:0:0:0:
264,288,25206,1,0,0:0:0:0:
296,288,25291,1,0,0:0:0:0:
328,296,25377,5,0,0:0:0:0:
464,276,25549,1,0,0:0:0:0:
328,296,25720,1,8,0:0:0:0:
464,276,25892,1,0,0:0:0:0:
400,64,26063,6,0,B|392:92|380:104|380:104|360:96|324:128,1,101.250003862381,4|0,0:0|0:0,0:0:0:0:
304,168,26406,2,0,P|252:216|184:204,1,135.000005149842,8|0,0:0|0:0,0:0:0:0:
119,186,26749,2,0,P|171:135|239:148,2,135.000005149842,0|0|8,0:0|0:0|0:0,0:0:0:0:
416,296,27435,6,0,B|436:280|436:280|440:264|416:248|416:248|424:236|424:236|408:212|408:176|444:180|456:184,1,157.5,4|0,0:0|0:0,0:0:0:0:
400,64,28120,2,0,P|384:120|336:144,1,90
256,252,28463,1,8,0:0:0:0:
256,132,28635,1,0,0:0:0:0:
112,320,28806,6,0,P|128:264|176:240,1,90
164,80,29149,1,8,0:0:0:0:
324,132,29320,1,0,0:0:0:0:
200,248,29492,1,0,0:0:0:0:
164,80,29663,1,0,0:0:0:0:
324,132,29835,1,8,0:0:0:0:
200,248,30006,1,0,0:0:0:0:
268,52,30177,6,0,B|254:63|253:76|253:76|256:90|256:90|243:98|243:98|249:105|249:105|240:105|240:105|245:125|245:125|222:158,1,112.5,4|0,0:0|0:0,0:0:0:0:
376,248,30520,5,8,0:0:0:0:
372,270,30605,1,0,0:0:0:0:
361,289,30691,1,0,0:0:0:0:
345,304,30777,1,0,0:0:0:0:
324,313,30862,1,0,0:0:0:0:
144,192,31035,1,0,0:0:0:0:
324,70,31206,1,8,0:0:0:0:
116,328,31549,6,0,B|76:292|124:272|124:272|144:248|140:216|140:216|108:208|108:192,1,144,0|8,0:0|0:0,0:0:0:0:
172,84,32064,1,0,0:0:0:0:
172,84,32149,1,0,0:0:0:0:
172,84,32235,1,0,0:0:0:0:
396,248,32406,1,0,0:0:0:0:
364,116,32578,1,8,0:0:0:0:
264,212,32749,1,0,0:0:0:0:
396,248,32920,6,0,B|388:271|400:291|400:291|404:319|384:339|384:339|360:339|340:359|340:359|308:363|291:347,1,198.000006042481,4|0,0:0|0:0,0:0:0:0:
320,280,33777,1,0,0:0:0:0:
120,332,33949,2,0,L|180:256,1,90,8|0,0:0|0:0,0:0:0:0:
72,204,34292,2,0,L|235:129,1,180,0|8,0:0|0:0,0:0:0:0:
235,130,34806,1,0,0:0:0:0:
256,32,34977,2,0,P|301:54|328:96,1,90
440,224,35320,1,8,0:0:0:0:
312,176,35492,1,0,0:0:0:0:
340,336,35663,6,0,L|248:300,1,90
76,256,36006,2,0,L|168:220,1,90,8|0,0:0|0:0,0:0:0:0:
432,127,36349,2,0,L|399:43,1,90
296,120,36692,2,0,L|263:203,1,90,8|0,0:0|0:0,0:0:0:0:
263,203,37035,6,0,P|280:248|336:268,2,90,0|0|8,0:0|0:0|0:0,0:0:0:0:
148,187,37720,1,0,0:0:0:0:
256,256,37892,1,0,0:0:0:0:
377,213,38063,1,8,0:0:0:0:
124,80,38406,6,0,P|176:96|212:124,1,90
388,80,38749,2,0,P|336:96|300:124,1,90,8|0,0:0|0:0,0:0:0:0:
104,192,39092,2,0,L|196:192,1,90
408,192,39435,2,0,L|316:192,1,90,8|0,0:0|0:0,0:0:0:0:
124,304,39777,6,0,P|176:288|212:260,1,90
388,304,40120,2,0,P|336:288|300:260,1,90,8|0,0:0|0:0,0:0:0:0:
168,72,40463,1,0,0:0:0:0:
344,72,40635,1,0,0:0:0:0:
112,180,40806,1,8,0:0:0:0:
400,180,40977,1,0,0:0:0:0:
256,358,41149,6,0,L|256:250,1,90,4|0,0:0|0:0,0:0:0:0:
256,268,41492,1,8,0:0:0:0:
90,192,41663,2,0,L|198:192,1,90,4|0,0:0|0:0,0:0:0:0:
180,192,42006,1,8,0:0:0:0:
422,192,42177,2,0,L|314:192,1,90,4|0,0:0|0:0,0:0:0:0:
216,56,42520,5,0,0:0:0:0:
237,77,42605,1,0,0:0:0:0:
258,98,42691,1,0,0:0:0:0:
279,119,42777,1,0,0:0:0:0:
328,120,42863,5,8,0:0:0:0:
329,149,42948,1,0,0:0:0:0:
330,179,43034,1,0,0:0:0:0:
331,209,43120,1,0,0:0:0:0:
365,241,43206,5,8,0:0:0:0:
348,264,43291,1,0,0:0:0:0:
329,287,43377,1,0,0:0:0:0:
310,311,43463,1,0,0:0:0:0:
288,336,43549,6,0,B|250:253,1,90,8|0,0:0|0:0,0:0:0:0:
72,320,43892,6,0,P|120:268|80:172,1,125.999996154785,4|0,0:0|0:0,0:0:0:0:
258,98,44235,1,8,0:0:0:0:
256,240,44406,1,0,0:0:0:0:
440,320,44577,2,0,P|392:268|432:172,1,125.999996154785,4|0,0:0|0:0,0:0:0:0:
201,142,44920,2,0,P|254:171|315:140,1,125.999996154785,8|0,0:0|0:0,0:0:0:0:
368,56,45263,6,0,L|400:184,1,125.999996154785,0|0,0:0|0:0,0:0:0:0:
144,56,45606,2,0,L|112:184,1,125.999996154785,8|0,0:0|0:0,0:0:0:0:
308,236,45949,2,0,P|305:300|208:225,1,251.999992309571,4|8,0:0|0:0,0:0:0:0:
216,212,46377,1,0,0:0:0:0:
240,192,46463,1,0,0:0:0:0:
260,164,46549,1,0,0:0:0:0:
260,128,46635,6,0,L|136:96,1,125.999996154785,0|0,0:0|0:0,0:0:0:0:
252,256,46977,2,0,L|376:288,1,125.999996154785,8|0,0:0|0:0,0:0:0:0:
352,184,47320,2,0,L|472:140,2,125.999996154785,4|0|8,0:0|0:0|0:0,0:0:0:0:
352,184,47835,1,0,0:0:0:0:
124,76,48006,5,12,0:0:0:0:
72,216,48177,1,4,0:0:0:0:
172,332,48349,1,12,0:0:0:0:
340,332,48520,1,4,0:0:0:0:
440,216,48692,1,4,0:0:0:0:
388,76,48863,1,4,0:0:0:0:
256,232,49035,2,0,B|260:212|260:212|256:196|264:184|264:184|256:152,1,67.5000025749208,12|0,0:0|0:0,0:0:0:0:
328,56,49377,6,0,L|380:160,1,112.5
184,328,49720,2,0,L|132:224,1,112.5,8|0,0:0|0:0,0:0:0:0:
404,256,50063,2,0,P|336:268|304:308,1,112.5,4|0,0:0|0:0,0:0:0:0:
108,128,50406,2,0,P|176:116|208:76,1,112.5,8|0,0:0|0:0,0:0:0:0:
256,192,50749,6,0,L|340:112,2,112.5,0|0|8,0:0|0:0|0:0,0:0:0:0:
184,336,51435,2,0,B|168:316|180:292|180:292|160:280|120:272|120:272|100:228|124:208|168:232|148:160,1,225,4|8,0:0|0:0,0:0:0:0:
140,156,51863,1,0,0:0:0:0:
124,144,51949,1,0,0:0:0:0:
104,144,52035,1,0,0:0:0:0:
92,152,52120,5,0,0:0:0:0:
256,64,52292,1,0,0:0:0:0:
420,152,52463,1,8,0:0:0:0:
360,328,52806,2,0,B|360:304|360:304|340:292|340:292|340:268|340:268|320:256|320:256|320:232|320:232|300:220,1,135.000005149842,4|8,0:0|0:0,0:0:0:0:
256,84,53320,1,0,0:0:0:0:
152,328,53492,2,0,P|88:276|96:152,1,202.500007724762,4|8,0:0|0:0,0:0:0:0:
140,56,54177,2,0,P|204:108|212:163,1,135.000005149842,4|8,0:0|0:0,0:0:0:0:
388,92,54863,6,0,B|360:104|360:124|360:124|392:120|404:156|404:156|392:180|420:204|420:204|392:228,1,180,12|0,0:0|0:0,0:0:0:0:
256,196,55720,1,0,0:0:0:0:
108,216,55892,2,0,P|124:168|100:120,1,90,8|0,0:0|0:0,0:0:0:0:
256,48,56235,2,0,L|256:144,2,90,0|0|8,0:0|0:0|0:0,0:0:0:0:
256,138,56749,1,0,0:0:0:0:
196,248,56920,2,0,L|373:275,1,180,0|8,0:0|0:0,0:0:0:0:
374,275,57435,1,0,0:0:0:0:
432,152,57606,5,0,0:0:0:0:
304,68,57777,1,0,0:0:0:0:
380,208,57949,1,8,0:0:0:0:
252,124,58120,1,0,0:0:0:0:
324,264,58292,5,0,0:0:0:0:
196,180,58463,1,0,0:0:0:0:
272,320,58635,1,8,0:0:0:0:
144,236,58806,1,0,0:0:0:0:
72,136,58977,6,0,L|52:44,2,90,0|0|8,0:0|0:0|0:0,0:0:0:0:
224,152,59663,2,0,L|336:120,1,112.5
284,232,60006,2,0,L|172:264,1,112.5,8|0,0:0|0:0,0:0:0:0:
56,192,60349,5,0,0:0:0:0:
456,192,60692,1,8,0:0:0:0:
384,82,60863,1,0,0:0:0:0:
256,36,61035,2,0,L|256:148,1,90
256,344,61549,2,0,P|310:275|319:180,1,180
132,304,62235,1,0,0:0:0:0:
380,304,62577,1,0,0:0:0:0:
380,304,62749,1,0,0:0:0:0:
115,79,63092,5,4,0:0:0:0:
256,192,71320,12,0,74063,0:0:0:0:
132,84,74963,6,0,P|160:136|132:200,1,90,4|8,0:0|0:0,0:0:0:0:
144,200,75284,1,0,0:0:0:0:
120,224,75391,1,0,0:0:0:0:
256,340,75605,1,8,0:0:0:0:
256,64,75820,1,0,0:0:0:0:
400,152,76034,1,8,0:0:0:0:
412,184,76141,1,0,0:0:0:0:
412,216,76248,5,0,0:0:0:0:
405,246,76355,1,0,0:0:0:0:
392,274,76462,1,8,0:0:0:0:
371,295,76569,1,0,0:0:0:0:
341,303,76676,1,0,0:0:0:0:
311,298,76783,1,0,0:0:0:0:
287,279,76890,1,8,0:0:0:0:
271,253,76997,1,0,0:0:0:0:
262,223,77105,1,0,0:0:0:0:
256,191,77212,1,0,0:0:0:0:
255,213,77319,1,8,0:0:0:0:
246,234,77426,1,0,0:0:0:0:
235,263,77533,1,4,0:0:0:0:
216,287,77640,1,0,0:0:0:0:
189,301,77747,1,8,0:0:0:0:
159,302,77855,1,0,0:0:0:0:
132,287,77962,1,0,0:0:0:0:
113,263,78069,1,0,0:0:0:0:
102,234,78176,1,8,0:0:0:0:
98,204,78283,1,0,0:0:0:0:
108,176,78391,6,0,B|124:152|152:160|152:160|184:164|160:68|204:88,1,135.000005149842
328,64,79034,1,8,0:0:0:0:
272,192,79248,2,0,B|316:204|300:276|240:272|200:240|200:192|200:192|200:152|236:104|296:108|336:152,1,360,4|0,0:0|0:0,0:0:0:0:
348,164,80213,1,0,0:0:0:0:
361,190,80320,1,8,0:0:0:0:
367,219,80427,1,0,0:0:0:0:
363,249,80534,1,0,0:0:0:0:
350,276,80641,1,0,0:0:0:0:
330,298,80748,1,8,0:0:0:0:
304,313,80855,1,0,0:0:0:0:
284,316,80963,6,0,P|252:308|216:320,1,67.5
88,320,81391,2,0,P|120:328|156:316,1,67.5,0|0,0:0|0:0,0:0:0:0:
188,248,81820,6,0,P|180:200|208:160,1,90,0|8,0:0|0:0,0:0:0:0:
248,216,82141,1,0,0:0:0:0:
304,176,82248,2,0,B|296:124|296:124|356:96|356:96|376:56,1,135.000005149842,0|8,0:0|0:0,0:0:0:0:
484,40,82677,1,0,0:0:0:0:
92,76,82891,5,8,0:0:0:0:
115,97,82998,1,0,0:0:0:0:
134,123,83105,1,0,0:0:0:0:
147,152,83212,1,0,0:0:0:0:
148,182,83319,1,8,0:0:0:0:
141,211,83426,1,0,0:0:0:0:
128,230,83533,1,0,0:0:0:0:
155,247,83640,1,0,0:0:0:0:
184,261,83748,1,8,0:0:0:0:
214,272,83855,1,0,0:0:0:0:
245,280,83962,1,0,0:0:0:0:
277,282,84069,1,0,0:0:0:0:
309,279,84176,1,8,0:0:0:0:
340,271,84283,1,0,0:0:0:0:
370,258,84390,1,4,0:0:0:0:
355,234,84498,1,0,0:0:0:0:
350,207,84605,1,8,0:0:0:0:
356,180,84713,1,0,0:0:0:0:
373,159,84820,1,0,0:0:0:0:
398,150,84927,1,0,0:0:0:0:
424,152,85034,1,8,0:0:0:0:
444,169,85141,1,0,0:0:0:0:
453,192,85248,6,0,B|464:225|480:237|480:237|466:246|466:246|483:255|483:255|494:264|481:279|487:283|487:283|480:289|486:296|486:296|483:314,1,135,4|0,0:0|0:0,0:0:0:0:
420,294,86105,6,0,B|380:318|380:318|368:310|368:310|364:331|344:342|344:342|316:358|312:342|312:342|305:339,1,135,4|0,0:0|0:0,0:0:0:0:
309,280,86963,6,0,B|281:280|281:280|261:300|261:300|253:296|253:296|245:291|245:291|229:296|229:296|217:288|217:288|209:300|192:298|192:298|176:304,1,135,4|0,0:0|0:0,0:0:0:0:
143,349,87820,6,0,B|118:341|118:341|118:316|103:326|103:326|89:320|89:320|69:321|76:297|76:297|66:292|66:292|60:277|60:277|59:261,1,135
164,184,88677,6,0,P|216:132|312:124,1,135.000005149842,0|8,0:0|0:0,0:0:0:0:
324,256,89105,2,0,B|368:304,2,45,0|0|8,0:0|0:0|0:0,0:0:0:0:
324,256,89534,1,0,0:0:0:0:
472,84,89748,5,8,0:0:0:0:
452,107,89855,1,0,0:0:0:0:
437,133,89962,1,0,0:0:0:0:
427,162,90069,1,0,0:0:0:0:
433,189,90176,1,8,0:0:0:0:
449,216,90283,1,0,0:0:0:0:
457,245,90390,1,0,0:0:0:0:
459,275,90497,1,0,0:0:0:0:
456,306,90605,1,8,0:0:0:0:
448,335,90712,1,0,0:0:0:0:
417,335,90819,1,0,0:0:0:0:
387,334,90926,1,0,0:0:0:0:
356,334,91033,1,8,0:0:0:0:
326,334,91140,1,0,0:0:0:0:
295,334,91247,1,4,0:0:0:0:
265,335,91355,1,0,0:0:0:0:
239,324,91462,1,8,0:0:0:0:
219,301,91569,1,0,0:0:0:0:
202,275,91676,1,0,0:0:0:0:
175,263,91783,1,0,0:0:0:0:
145,260,91890,1,8,0:0:0:0:
114,263,91997,1,0,0:0:0:0:
88,256,92105,6,0,B|104:216|92:189|92:189|64:184|72:156|72:156|96:128,1,135,0|8,0:0|0:0,0:0:0:0:
256,192,92963,12,12,94248,0:0:0:0:
216,232,94677,6,0,P|256:268|268:312,1,90,0|8,0:0|0:0,0:0:0:0:
336,276,94963,2,0,P|380:264|404:208,1,90
400,156,95248,2,0,P|356:168|332:224,1,90
267,175,95534,6,0,B|256:152|236:144|236:144|224:148|216:128|216:128|204:136|204:136|160:132,1,107.999996704102
148,140,96070,1,0,0:0:0:0:
120,160,96177,1,0,0:0:0:0:
76,264,96391,2,0,P|124:268|160:292,1,90,0|8,0:0|0:0,0:0:0:0:
176,300,96713,5,0,0:0:0:0:
200,309,96820,1,0,0:0:0:0:
226,315,96927,1,0,0:0:0:0:
252,317,97034,1,8,0:0:0:0:
279,315,97141,1,0,0:0:0:0:
304,309,97248,1,0,0:0:0:0:
327,298,97355,1,0,0:0:0:0:
311,277,97462,1,8,0:0:0:0:
299,254,97570,1,0,0:0:0:0:
292,228,97677,1,0,0:0:0:0:
294,202,97784,1,0,0:0:0:0:
304,178,97891,1,8,0:0:0:0:
325,169,97998,1,0,0:0:0:0:
352,171,98105,1,0,0:0:0:0:
378,168,98212,1,0,0:0:0:0:
402,156,98320,1,8,0:0:0:0:
419,137,98427,1,0,0:0:0:0:
429,113,98534,5,0,0:0:0:0:
420,88,98641,2,0,B|408:80|408:80|404:84|404:84|404:72|404:72|396:80|396:80|392:68|392:68|384:76|384:76|380:64|380:64|372:72|372:72|368:60|368:60|360:68|360:68|356:56|356:56|348:64|348:64|344:64,1,135
256,56,99793,5,14,0:0:0:0:
112,280,100114,5,14,0:0:0:0:
400,280,100436,5,14,0:0:0:0:
256,192,100534,12,0,101909,0:0:0:0:
120,104,102391,6,0,B|136:116|140:128|140:128|140:144|147:160|147:160|152:168|168:180|156:192|156:192|192:224,1,135.000005149842,4|8,0:0|0:0,0:0:0:0:
384,68,103248,2,0,L|396:172,1,75
392,142,103534,1,0,0:0:0:0:
276,108,103677,1,8,0:0:0:0:
304,224,103820,1,0,0:0:0:0:
392,142,103963,1,0,0:0:0:0:
432,252,104105,6,0,L|384:316,1,75
387,312,104391,1,0,0:0:0:0:
304,224,104534,1,8,0:0:0:0:
268,340,104677,1,0,0:0:0:0:
180,256,104820,1,0,0:0:0:0:
184,136,104963,6,0,L|104:104,2,75,0|0|0,0:0|0:0|0:0,0:0:0:0:
328,136,105391,2,0,L|408:104,2,75,8|0|0,0:0|0:0|0:0,0:0:0:0:
256,276,105820,6,0,B|284:252|284:252|240:220|265:209|265:209|292:204|256:148,1,135.000005149842,4|8,0:0|0:0,0:0:0:0:
124,72,106677,6,0,L|84:136,1,75
80,240,106963,1,0,0:0:0:0:
160,304,107105,2,0,L|232:328,1,75,8|0,0:0|0:0,0:0:0:0:
336,304,107391,1,0,0:0:0:0:
396,220,107534,1,0,0:0:0:0:
292,208,107677,1,0,0:0:0:0:
352,124,107820,1,0,0:0:0:0:
248,112,107963,2,0,B|224:136|184:132|184:132|192:168|176:171|176:171|140:180|136:228|176:244,1,187.5,12|0,0:0|0:0,0:0:0:0:
168,240,108391,6,0,P|244:256|304:300,1,150,4|0,0:0|0:0,0:0:0:0:
404,280,108820,1,8,0:0:0:0:
444,184,108963,1,0,0:0:0:0:
416,84,109105,1,0,0:0:0:0:
308,80,109248,6,0,B|304:108|304:108|292:116|292:116|304:140|304:140|288:160|288:160|288:192,1,90.0000034332277,4|0,0:0|0:0,0:0:0:0:
232,240,109677,2,0,B|219:224|219:224|231:200|231:200|219:192|219:192|213:164,1,90.0000034332277,8|0,0:0|0:0,0:0:0:0:
168,80,110105,2,0,P|132:96|104:120,1,75
72,224,110391,1,0,0:0:0:0:
128,312,110534,1,8,0:0:0:0:
72,224,110677,1,0,0:0:0:0:
128,312,110820,1,0,0:0:0:0:
232,312,110963,6,0,P|268:276|260:200,1,112.500004291535
284,191,111391,2,0,P|333:217|350:269,1,112.500004291535,8|0,0:0|0:0,0:0:0:0:
340,308,111820,2,0,P|385:338|439:330,1,112.500004291535
256,192,112248,12,8,113105,0:0:0:0:
304,148,113534,5,0,0:0:0:0:
208,236,113677,1,0,0:0:0:0:
256,132,113820,1,0,0:0:0:0:
256,252,113963,1,8,0:0:0:0:
208,148,114105,1,0,0:0:0:0:
304,236,114248,1,0,0:0:0:0:
416,192,114391,6,0,P|392:160|392:116,2,75,0|0|0,0:0|0:0|0:0,0:0:0:0:
432,248,114820,2,0,B|424:288|424:288|392:284|432:336|412:344|412:344|392:344,1,112.500004291535,8|0,0:0|0:0,0:0:0:0:
380,348,115248,2,0,B|348:344|340:328|340:328|316:324|292:344,1,90.0000034332277
240,348,115677,1,8,0:0:0:0:
184,328,115820,1,0,0:0:0:0:
152,280,115963,1,0,0:0:0:0:
156,220,116105,6,0,B|184:188|216:216|216:216|260:212|264:172|264:140,1,135.000005149842,4|8,0:0|0:0,0:0:0:0:
164,32,116963,2,0,P|120:92|168:152,1,120
196,136,117391,2,0,L|328:176,2,107.999996704102,8|0|0,0:0|0:0|0:0,0:0:0:0:
204,200,117820,6,0,P|256:256|240:304,1,120
188,300,118248,2,0,L|68:284,2,120,8|0|0,0:0|0:0|0:0,0:0:0:0:
296,316,118677,1,0,0:0:0:0:
376,264,118820,1,0,0:0:0:0:
392,184,118963,1,0,0:0:0:0:
384,128,119105,1,8,0:0:0:0:
356,104,119248,1,0,0:0:0:0:
328,100,119391,1,0,0:0:0:0:
312,100,119534,6,0,B|277:104|277:104|268:139|268:139|205:146,1,135.000005149842,4|8,0:0|0:0,0:0:0:0:
48,160,120391,1,0,0:0:0:0:
104,248,120534,1,0,0:0:0:0:
104,248,120605,1,0,0:0:0:0:
104,248,120677,1,0,0:0:0:0:
208,240,120820,1,8,0:0:0:0:
160,324,120963,1,0,0:0:0:0:
256,324,121105,1,0,0:0:0:0:
372,284,121248,6,0,P|392:316|436:336,2,75,0|0|0,0:0|0:0|0:0,0:0:0:0:
352,164,121677,1,8,0:0:0:0:
136,72,122105,2,0,P|92:120|68:188,1,120
84,248,122534,1,8,0:0:0:0:
148,292,122677,1,0,0:0:0:0:
224,276,122820,1,0,0:0:0:0:
264,208,122963,6,0,P|360:240|416:312,1,180,4|8,0:0|0:0,0:0:0:0:
364,152,123820,2,0,P|392:140|428:140,2,60,0|0|0,0:0|0:0|0:0,0:0:0:0:
264,208,124248,1,8,0:0:0:0:
160,68,124677,2,0,B|144:92|120:100|120:100|104:120|104:144,1,90.0000034332277
144,176,125105,2,0,P|184:208|168:272,1,90.0000034332277,8|0,0:0|0:0,0:0:0:0:
172,300,125534,2,0,P|92:300|48:352,1,135.000005149842,0|8,0:0|0:0,0:0:0:0:
256,196,126391,1,12,0:0:0:0:
256,192,126463,12,0,129820,0:0:0:0:
