osu file format v14

[General]
AudioFilename: Experts - Skism.mp3
AudioLeadIn: 0
PreviewTime: 43892
Countdown: 0
SampleSet: Normal
StackLeniency: 0.2
Mode: 0
LetterboxInBreaks: 1
EpilepsyWarning: 1
WidescreenStoryboard: 1

[Editor]
DistanceSpacing: 1
BeatDivisor: 4
GridSize: 4
TimelineZoom: 1.399999

[Metadata]
Title:Experts
TitleUnicode:Experts
Artist:Skism
ArtistUnicode:Skism
Creator:Hisoka
Version:Expert
Source:
Tags:Dubstep Electro
BeatmapID:509281
BeatmapSetID:215894

[Difficulty]
HPDrainRate:7
CircleSize:4
OverallDifficulty:8
ApproachRate:9.3
SliderMultiplier:2
SliderTickRate:1

[Events]
//Background and Video events
0,0,"iem-blue.png",0,0
//Break Periods
2,63292,71109
//Storyboard Layer 0 (Background)
//Storyboard Layer 1 (Fail)
//Storyboard Layer 2 (Pass)
//Storyboard Layer 3 (Foreground)
//Storyboard Sound Samples

[TimingPoints]
6.55289622573629,342.857142857143,4,1,1,100,1,0
18520,-80,4,1,1,100,0,0
19206,-133.333333333333,4,1,1,100,0,0
19549,-100,4,1,1,100,0,0
19892,-80,4,1,1,100,0,0
20235,-66.6666666666667,4,1,1,100,0,0
21949,-200,4,1,1,100,0,0
22635,-100,4,1,1,100,0,0
24692,-90.9090909090909,4,1,1,100,0,0
26063,-133.333333333333,4,1,1,100,0,0
26406,-66.6666666666667,4,1,1,100,0,0
27435,-200,4,1,1,100,0,0
28120,-100,4,1,1,100,0,0
30177,-80,4,1,1,100,0,0
30520,-100,4,1,1,100,0,0
31549,-125,4,1,1,100,0,0
32920,-181.818181818182,4,1,1,100,0,0
33949,-100,4,1,1,100,0,0
43549,-50,4,1,1,100,0,0
43892,-71.4285714285714,4,1,1,100,0,1
49035,-133.333333333333,4,1,1,100,0,1
49377,-80,4,1,1,100,0,1
52806,-133.333333333333,4,1,1,100,0,1
54177,-66.6666666666667,4,1,1,100,0,1
54863,-200,4,1,1,100,0,0
55892,-100,4,1,1,100,0,0
59663,-80,4,1,1,100,0,0
61035,-100,4,1,1,100,0,0
74963,428.571428571429,4,1,1,100,1,0
76034,-66.6666666666667,4,1,1,100,0,0
78391,-133.333333333333,4,1,1,100,0,0
79248,-66.6666666666667,4,1,1,100,0,0
80963,-200,4,1,1,100,0,0
81391,-100,4,1,1,100,0,0
81820,-100,4,1,1,100,0,0
82248,-66.6666666666667,4,1,1,100,0,0
82891,-66.6666666666667,4,1,1,100,0,0
85248,-200,4,1,1,100,0,0
88677,-66.6666666666667,4,1,1,100,0,0
89105,-66.6666666666667,4,1,1,100,0,0
92105,-200,4,1,1,100,0,0
94677,-100,4,1,1,100,0,0
95534,-166.666666666667,4,1,1,100,0,0
96391,-66.6666666666667,4,1,1,100,0,0
102391,-133.333333333333,4,1,1,100,0,1
103248,-80,4,1,1,100,0,1
105820,-133.333333333333,4,1,1,100,0,1
106677,-80,4,1,1,100,0,1
109248,-133.333333333333,4,1,1,100,0,0
110105,-80,4,1,1,100,0,0
110963,-133.333333333333,4,1,1,100,0,0
113534,-80,4,1,1,100,0,0
114820,-133.333333333333,4,1,1,100,0,0
116105,-133.333333333333,4,1,1,100,0,1
116963,-100,4,1,1,100,0,1
117391,-55.5555555555556,4,1,1,100,0,1
117820,-100,4,1,1,100,0,1
118248,-55.5555555555556,4,1,1,100,0,1
118677,-80,4,1,1,100,0,1
119534,-133.333333333333,4,1,1,100,0,1
119534,-166.666666666667,4,1,1,100,0,1
120248,-80,4,1,1,100,0,1
122105,-100,4,1,1,100,0,1
122963,-100,4,1,1,100,0,0
124677,-133.333333333333,4,1,1,100,0,0
127677,-133.333333333333,4,1,1,40,0,0

[HitObjects]
256,192,12006,12,0,16120,0:0:0:0:
400,124,16463,6,0,P|400:224|396:228,1,100
296,316,16806,1,8,0:0:0:0:
120,76,16977,1,0,0:0:0:0:
88,308,17149,2,0,P|156:220|156:212,1,100
376,36,17492,2,0,P|308:124|308:132,1,100,8|0,0:0|0:0,0:0:0:0:
64,188,17835,5,0,0:0:0:0:
252,68,18006,1,0,0:0:0:0:
280,332,18177,2,0,P|212:256|212:252,1,100,8|0,0:0|0:0,0:0:0:0:
432,124,18520,2,0,P|364:164|296:148,1,125
103,303,18863,2,0,P|171:263|239:279,1,125,8|0,0:0|0:0,0:0:0:0:
407,47,19206,6,0,P|373:59|353:90,1,75.0000028610231,8|0,0:0|0:0,0:0:0:0:
353,91,19549,1,0,0:0:0:0:
91,179,19720,6,0,P|120:218|165:238,1,100,8|0,0:0|0:0,0:0:0:0:
166,239,20063,1,0,0:0:0:0:
400,340,20235,6,0,P|340:196|328:192,1,150.000005722046,8|0,0:0|0:0,0:0:0:0:
284,296,20577,5,0,0:0:0:0:
316,280,20663,1,0,0:0:0:0:
348,264,20749,1,8,0:0:0:0:
384,248,20834,1,0,0:0:0:0:
372,196,20920,5,0,0:0:0:0:
320,204,21006,1,0,0:0:0:0:
268,212,21091,1,0,0:0:0:0:
216,220,21177,1,0,0:0:0:0:
176,164,21263,5,8,0:0:0:0:
236,136,21349,1,0,0:0:0:0:
296,108,21434,1,0,0:0:0:0:
356,80,21520,1,0,0:0:0:0:
292,28,21606,5,8,0:0:0:0:
212,36,21691,1,0,0:0:0:0:
136,72,21777,1,8,0:0:0:0:
88,140,21863,1,0,0:0:0:0:
88,220,21949,6,0,B|105:228|109:242|109:242|120:235|128:244|128:244|120:268|120:268|128:280|128:280|144:276|141:288|141:288|148:320|172:328,1,150,4|8,0:0|0:0,0:0:0:0:
432,68,22635,6,0,P|440:120|408:168,1,100
256,304,22977,1,8,0:0:0:0:
256,304,23149,1,0,0:0:0:0:
80,68,23320,2,0,P|72:120|104:168,1,100
360,92,23663,1,8,0:0:0:0:
152,292,23835,1,0,0:0:0:0:
256,56,24006,1,0,0:0:0:0:
256,328,24177,1,0,0:0:0:0:
152,92,24349,1,8,0:0:0:0:
360,292,24520,1,0,0:0:0:0:
108,188,24692,6,0,P|168:192|212:228,1,110.000003356934,4|0,0:0|0:0,0:0:0:0:
360,92,25035,1,8,0:0:0:0:
388,124,25120,1,0,0:0:0:0:
404,164,25206,1,0,0:0:0:0:
404,208,25292,1,0,0:0:0:0:
380,244,25377,2,0,P|396:288|452:332,2,110.000003356934,0|0|8,0:0|0:0|0:0,0:0:0:0:
60,328,25892,1,0,0:0:0:0:
193,60,26063,6,0,B|231:76|247:88|247:88|235:100|232:116|250:116|250:116|270:121|274:156,1,150.000005722046,0|8,0:0|0:0,0:0:0:0:
274,156,26577,1,0,0:0:0:0:
48,240,26749,2,0,P|124:264|184:320,1,150.000005722046
464,240,27092,2,0,P|388:264|328:320,1,150.000005722046,8|0,0:0|0:0,0:0:0:0:
256,192,27435,12,8,27949,0:0:0:0:
100,68,28120,6,0,P|128:160|128:172,1,100
384,128,28463,1,8,0:0:0:0:
128,256,28635,1,0,0:0:0:0:
412,316,28806,2,0,P|384:224|384:212,1,100
256,232,29149,1,8,0:0:0:0:
256,152,29320,1,0,0:0:0:0:
192,192,29492,1,0,0:0:0:0:
320,192,29663,1,0,0:0:0:0:
256,320,29835,1,8,0:0:0:0:
256,64,30006,1,0,0:0:0:0:
376,60,30177,6,0,P|448:96|464:176,1,125,4|0,0:0|0:0,0:0:0:0:
436,332,30520,2,0,L|416:276,1,50,8|0,0:0|0:0,0:0:0:0:
168,64,30692,2,0,L|188:120,1,50
152,264,30863,2,0,P|108:288|84:348,1,100
240,256,31206,2,0,P|224:209|162:175,1,100,8|0,0:0|0:0,0:0:0:0:
280,64,31549,6,0,B|284:104|308:136|308:136|344:156|368:189,1,160,0|8,0:0|0:0,0:0:0:0:
369,190,32063,1,0,0:0:0:0:
369,190,32149,1,0,0:0:0:0:
369,190,32235,1,0,0:0:0:0:
416,328,32406,1,0,0:0:0:0:
436,336,32577,1,8,0:0:0:0:
456,332,32749,1,0,0:0:0:0:
231,339,32920,6,0,B|244:305|223:283|223:283|186:319|193:271|181:271|169:278|169:278|155:263|155:263|150:253|150:253|147:255|147:255|143:249|143:249|139:251|139:251|136:247|136:247|135:247|135:247|131:247|131:247|127:243|127:243|121:249|121:249|107:231,1,220.000006713867,4|0,0:0|0:0,0:0:0:0:
108,232,33777,1,0,0:0:0:0:
384,39,33949,2,0,L|364:137,1,100,8|0,0:0|0:0,0:0:0:0:
376,216,34292,2,0,P|291:177|303:85,1,200,0|8,0:0|0:0,0:0:0:0:
364,137,34806,1,0,0:0:0:0:
400,336,34977,1,0,0:0:0:0:
179,215,35149,1,0,0:0:0:0:
356,192,35320,1,8,0:0:0:0:
99,193,35492,1,0,0:0:0:0:
192,52,35663,6,0,P|156:96|92:116,1,100,0|0,0:0|0:0,0:0:0:0:
320,52,36006,2,0,P|356:96|420:116,1,100,8|0,0:0|0:0,0:0:0:0:
394,270,36349,2,0,P|350:292|320:332,1,100
117,270,36692,2,0,P|161:292|192:332,1,100,8|0,0:0|0:0,0:0:0:0:
256,168,37035,2,0,P|240:128|248:72,2,100,0|0|8,0:0|0:0|0:0,0:0:0:0:
343,113,37720,5,0,0:0:0:0:
384,268,37892,1,0,0:0:0:0:
128,268,38063,1,8,0:0:0:0:
372,108,38406,6,0,L|460:52,1,100,4|0,0:0|0:0,0:0:0:0:
55,329,38749,2,0,L|140:276,1,100,8|0,0:0|0:0,0:0:0:0:
372,276,39092,2,0,L|456:329,1,100,0|0,0:0|0:0,0:0:0:0:
55,54,39435,2,0,L|140:108,1,100,8|0,0:0|0:0,0:0:0:0:
256,144,39777,5,0,0:0:0:0:
256,240,39949,1,0,0:0:0:0:
176,192,40120,1,8,0:0:0:0:
336,192,40292,1,0,0:0:0:0:
256,56,40463,1,0,0:0:0:0:
256,328,40635,1,0,0:0:0:0:
64,192,40806,1,8,0:0:0:0:
448,192,40977,1,0,0:0:0:0:
104,64,41149,6,0,P|132:100|188:124,1,100,4|0,0:0|0:0,0:0:0:0:
332,88,41406,1,0,0:0:0:0:
332,88,41492,2,0,P|356:136|336:188,1,100,8|0,0:0|0:0,0:0:0:0:
408,320,41749,1,0,0:0:0:0:
408,320,41835,2,0,P|380:284|324:260,1,100,0|0,0:0|0:0,0:0:0:0:
180,296,42092,5,0,0:0:0:0:
180,296,42177,2,0,P|156:248|176:196,1,100,8|0,0:0|0:0,0:0:0:0:
256,104,42435,1,0,0:0:0:0:
256,104,42520,6,0,L|256:164,1,50
256,324,42692,2,0,L|256:264,1,50
112,104,42863,2,0,L|144:144,1,50,8|0,0:0|0:0,0:0:0:0:
400,280,43035,2,0,L|368:240,1,50
112,280,43206,2,0,L|144:240,1,50,8|0,0:0|0:0,0:0:0:0:
400,104,43378,2,0,L|368:144,1,50
72,192,43549,6,0,L|272:192,1,200,14|4,0:0|0:0,0:0:0:0:
336,76,43892,6,0,P|340:136|420:180,1,139.999995727539
110,179,44235,2,0,P|167:143|176:76,1,139.999995727539,8|0,0:0|0:0,0:0:0:0:
464,264,44577,2,0,L|332:316,1,139.999995727539
48,264,44920,2,0,L|180:316,1,139.999995727539,8|0,0:0|0:0,0:0:0:0:
256,88,45263,5,0,0:0:0:0:
256,252,45435,1,0,0:0:0:0:
64,64,45606,1,8,0:0:0:0:
351,29,45949,2,0,B|357:35|357:35|360:43|354:49|354:49|355:57|368:57|368:57|367:69|354:71|354:71|361:81|379:80|379:80|355:84|348:105|348:105|371:122|405:120|405:120|432:141|425:165|407:197,1,279.999991455078,0|8,0:0|0:0,0:0:0:0:
404,238,46377,1,0,0:0:0:0:
387,276,46463,1,0,0:0:0:0:
352,300,46549,1,0,0:0:0:0:
320,304,46635,6,0,P|256:344|180:320,1,139.999995727539
127,191,46977,2,0,P|124:116|183:62,1,139.999995727539,8|0,0:0|0:0,0:0:0:0:
320,80,47320,2,0,P|387:116|404:193,1,139.999995727539
252,196,47663,1,8,0:0:0:0:
260,192,47835,1,0,0:0:0:0:
64,56,48006,6,0,L|76:132,1,69.9999978637696,4|0,0:0|0:0,0:0:0:0:
256,340,48177,2,0,L|256:264,1,69.9999978637696
448,64,48349,6,0,L|436:140,1,69.9999978637696,8|0,0:0|0:0,0:0:0:0:
256,324,48520,2,0,L|256:248,1,69.9999978637696
64,88,48692,6,0,L|76:164,1,69.9999978637696,4|0,0:0|0:0,0:0:0:0:
256,284,48863,2,0,L|256:208,1,69.9999978637696
348,80,49035,2,0,P|360:112|400:136,1,75.0000028610231,12|0,0:0|0:0,0:0:0:0:
96,328,49377,6,0,L|140:208,1,125,4|0,0:0|0:0,0:0:0:0:
416,56,49720,2,0,L|372:176,1,125,8|0,0:0|0:0,0:0:0:0:
392,352,50063,2,0,P|333:324|272:308,1,125
120,32,50406,2,0,P|172:61|240:76,1,125,8|0,0:0|0:0,0:0:0:0:
204,204,50749,1,0,0:0:0:0:
344,192,50920,1,0,0:0:0:0:
52,176,51092,1,8,0:0:0:0:
472,192,51435,6,0,P|424:88|256:104,1,250,0|8,0:0|0:0,0:0:0:0:
256,108,51863,1,0,0:0:0:0:
232,160,51949,1,0,0:0:0:0:
240,216,52034,1,0,0:0:0:0:
268,260,52120,2,0,B|196:280|144:248|144:248|148:184|96:140,1,250,0|8,0:0|0:0,0:0:0:0:
412,332,52806,6,0,P|392:252|400:176,1,150.000005722046,0|8,0:0|0:0,0:0:0:0:
97,243,53320,1,0,0:0:0:0:
332,56,53492,2,0,B|322:69|322:69|309:69|309:69|316:80|316:80|303:80|303:80|309:90|309:90|297:90|297:90|303:100|303:100|291:100|291:100|297:110|297:110|285:110|285:110|291:120|291:120|267:164|290:203,1,225.000008583069
380,162,54177,2,0,P|356:276|204:253,1,300.000011444092
57,54,54863,6,0,B|69:86|93:98|93:98|94:123|94:123|81:150|133:158|105:194|105:194|141:214|161:202,1,200,4|0,0:0|0:0,0:0:0:0:
277,54,55720,1,0,0:0:0:0:
141,206,55892,1,8,0:0:0:0:
277,54,56063,1,0,0:0:0:0:
404,268,56235,6,0,P|304:280|216:332,1,200,0|8,0:0|0:0,0:0:0:0:
219,329,56749,1,0,0:0:0:0:
108,116,56920,2,0,P|208:104|296:52,1,200,0|8,0:0|0:0,0:0:0:0:
392,72,57606,5,0,0:0:0:0:
388,272,57777,1,0,0:0:0:0:
224,156,57949,1,8,0:0:0:0:
392,72,58120,1,0,0:0:0:0:
224,156,58292,5,0,0:0:0:0:
388,272,58463,1,0,0:0:0:0:
208,360,58635,1,8,0:0:0:0:
224,156,58806,1,0,0:0:0:0:
44,240,58977,2,0,P|44:188|52:140,2,100,0|0|8,0:0|0:0|0:0,0:0:0:0:
428,48,59663,6,0,L|432:172,1,125
84,336,60006,2,0,L|80:212,1,125,8|0,0:0|0:0,0:0:0:0:
48,48,60349,6,0,P|168:68|216:184,1,250,4|8,0:0|0:0,0:0:0:0:
332,223,60863,1,0,0:0:0:0:
305,336,61035,2,0,P|261:315|230:275,1,100,0|8,0:0|0:0,0:0:0:0:
424,56,61549,6,0,P|436:96|304:172,1,200
348,98,62235,1,8,0:0:0:0:
68,192,62577,1,0,0:0:0:0:
224,80,62749,1,8,0:0:0:0:
224,304,63092,1,12,0:0:0:0:
256,192,71663,12,0,74063,0:0:0:0:
116,92,74963,6,0,P|128:144|176:177,1,100,4|0,0:0|0:0,0:0:0:0:
200,97,75284,1,0,0:0:0:0:
251,165,75391,2,0,P|236:224|176:258,1,100,8|0,0:0|0:0,0:0:0:0:
288,84,75820,1,4,0:0:0:0:
384,340,76034,6,0,L|368:264,1,75.0000028610231
404,64,76248,2,0,L|328:80,1,75.0000028610231,8|0,0:0|0:0,0:0:0:0:
128,44,76463,2,0,L|144:120,1,75.0000028610231
120,336,76677,6,0,L|104:260,1,75.0000028610231
392,48,76891,2,0,L|408:124,1,75.0000028610231
400,328,77105,2,0,L|324:344,1,75.0000028610231,8|0,0:0|0:0,0:0:0:0:
112,56,77320,2,0,L|188:40,1,75.0000028610231
256,269,77534,6,0,L|256:344,1,75.0000028610231,4|0,0:0|0:0,0:0:0:0:
256,115,77748,2,0,L|256:40,1,75.0000028610231,0|0,0:0|0:0,0:0:0:0:
124,192,77963,2,0,L|49:192,1,75.0000028610231,8|0,0:0|0:0,0:0:0:0:
388,192,78177,2,0,L|463:192,1,75.0000028610231
242,137,78391,6,0,P|270:137|202:173,1,300.000011444092,0|4,0:0|0:0,0:0:0:0:
144,328,79463,2,0,L|132:248,1,75.0000028610231
184,296,79677,2,0,L|172:216,1,75.0000028610231,8|0,0:0|0:0,0:0:0:0:
368,56,79891,2,0,L|380:136,1,75.0000028610231
328,88,80105,2,0,L|340:168,1,75.0000028610231
448,280,80320,2,0,L|376:256,1,75.0000028610231
56,96,80534,2,0,L|128:120,1,75.0000028610231,8|0,0:0|0:0,0:0:0:0:
328,348,80748,2,0,L|308:268,1,75.0000028610231
184,36,80963,6,0,L|211:115,1,75,4|0,0:0|0:0,0:0:0:0:
258,171,81391,2,0,P|281:144|284:80,1,100,8|0,0:0|0:0,0:0:0:0:
408,248,81820,6,0,P|356:232|296:264,1,100
256,252,82141,1,0,0:0:0:0:
104,248,82248,2,0,P|156:232|216:312,1,150.000005722046,8|0,0:0|0:0,0:0:0:0:
216,294,82677,1,4,0:0:0:0:
432,56,82891,6,0,L|416:96,1,37.5000014305115
376,56,82998,2,0,L|360:96,1,37.5000014305115,0|0,0:0|0:0,0:0:0:0:
320,56,83105,2,0,L|280:124,1,75.0000028610231,8|0,0:0|0:0,0:0:0:0:
192,328,83320,2,0,L|232:260,1,75.0000028610231
84,60,83534,6,0,L|100:144,1,75.0000028610231,0|0,0:0|0:0,0:0:0:0:
428,324,83748,2,0,L|412:240,1,75.0000028610231,0|0,0:0|0:0,0:0:0:0:
48,264,83963,2,0,L|120:244,1,75.0000028610231,8|0,0:0|0:0,0:0:0:0:
464,120,84177,2,0,L|392:140,1,75.0000028610231
324,348,84391,6,0,L|308:268,1,75.0000028610231,4|0,0:0|0:0,0:0:0:0:
188,36,84605,2,0,L|204:116,1,75.0000028610231
202,274,84820,6,0,L|188:348,1,75.0000028610231,8|0,0:0|0:0,0:0:0:0:
309,109,85034,2,0,L|324:36,1,75.0000028610231
140,344,85248,6,0,B|156:312|168:328|168:328|184:336|200:328|200:328|212:356|238:345|238:345|236:324|268:332,1,150
372,40,86105,2,0,B|356:72|324:64|324:64|309:64|300:28|273:38|273:38|264:56|244:52,1,150,4|0,0:0|0:0,0:0:0:0:
104,76,86963,6,0,B|136:92|128:124|128:124|128:138|92:148|102:174|88:196|116:204,1,150
408,308,87820,2,0,B|376:292|384:260|384:260|384:246|420:236|410:210|424:188|396:180,1,150
176,136,88677,6,0,P|112:176|110:260,1,150.000005722046
185,221,89105,2,0,P|188:269|117:309,2,75.0000028610231,8|0|0,0:0|0:0|0:0,0:0:0:0:
185,221,89534,1,4,0:0:0:0:
336,64,89748,6,0,L|392:116,1,75.0000028610231
332,326,89963,2,0,L|384:272,1,75.0000028610231,8|0,0:0|0:0,0:0:0:0:
121,268,90177,2,0,L|176:320,1,75.0000028610231
179,57,90391,2,0,L|128:112,1,75.0000028610231
256,144,90605,6,0,L|260:60,1,75.0000028610231
208,192,90820,2,0,L|124:188,1,75.0000028610231,8|0,0:0|0:0,0:0:0:0:
256,240,91034,2,0,L|252:324,1,75.0000028610231
304,192,91248,6,0,L|388:196,1,75.0000028610231,4|0,0:0|0:0,0:0:0:0:
332,184,91463,2,0,L|415:173,1,75.0000028610231
356,160,91677,2,0,L|430:121,1,75.0000028610231,8|0,0:0|0:0,0:0:0:0:
372,132,91891,2,0,L|404:54,1,75.0000028610231
72,80,92105,6,0,B|108:72|120:92|136:96|136:96|124:120|132:127|132:127|132:140|136:156|136:156|132:176|120:188,1,150
256,192,92963,12,4,94248,0:0:0:0:
120,208,94677,6,0,P|172:166|194:89,1,133.333333333333
392,176,95034,2,0,P|339:217|317:294,1,133.333333333333,8|0,0:0|0:0,0:0:0:0:
280,128,95534,6,0,B|280:160|259:164|244:184|244:184|248:204|248:204|228:216|236:248,1,119.999996337891,4|8,0:0|0:0,0:0:0:0:
234,229,96070,1,0,0:0:0:0:
234,229,96177,1,0,0:0:0:0:
440,56,96391,5,0,0:0:0:0:
52,76,96605,2,0,L|60:152,1,75.0000028610231
92,348,96820,2,0,L|84:272,1,75.0000028610231,8|0,0:0|0:0,0:0:0:0:
136,64,97034,2,0,L|144:140,1,75.0000028610231
176,336,97249,6,0,L|168:260,1,75.0000028610231
220,52,97463,2,0,L|228:128,1,75.0000028610231
260,324,97678,2,0,L|252:248,1,75.0000028610231,8|0,0:0|0:0,0:0:0:0:
304,40,97892,2,0,L|312:116,1,75.0000028610231
344,312,98107,2,0,L|336:236,1,75.0000028610231
388,28,98320,2,0,L|396:104,1,75.0000028610231
256,192,98534,12,4,98963,0:0:0:0:
196,192,99820,6,0,P|208:104|320:96,1,187.500007152558,8|0,0:0|0:0,0:0:0:0:
270,160,100141,2,0,P|258:248|146:256,1,187.500007152558,8|0,0:0|0:0,0:0:0:0:
112,212,100463,1,8,0:0:0:0:
364,308,101105,5,0,0:0:0:0:
148,308,101213,1,0,0:0:0:0:
256,228,101355,1,0,0:0:0:0:
256,228,101427,1,0,0:0:0:0:
256,228,101498,1,0,0:0:0:0:
100,224,101641,1,0,0:0:0:0:
156,128,101784,1,0,0:0:0:0:
256,84,101927,1,8,0:0:0:0:
356,128,102070,1,8,0:0:0:0:
412,224,102213,1,8,0:0:0:0:
256,296,102391,6,0,B|264:284|264:284|248:276|248:276|264:268|264:268|248:260|248:260|264:252|264:252|248:244|248:244|264:236|264:236|248:228|248:228|264:220,1,150.000005722046,4|0,0:0|0:0,0:0:0:0:
88,72,103248,6,0,P|88:116|112:156,1,83.3333333333333,4|0,0:0|0:0,0:0:0:0:
232,80,103534,1,0,0:0:0:0:
156,200,103677,1,8,0:0:0:0:
232,80,103820,1,0,0:0:0:0:
156,200,103963,1,0,0:0:0:0:
424,312,104105,6,0,P|424:268|400:228,1,83.3333333333333,4|0,0:0|0:0,0:0:0:0:
280,304,104391,1,0,0:0:0:0:
356,184,104534,1,8,0:0:0:0:
280,304,104677,1,0,0:0:0:0:
356,184,104820,1,0,0:0:0:0:
184,136,104963,5,0,0:0:0:0:
328,136,105105,1,0,0:0:0:0:
256,272,105248,1,0,0:0:0:0:
184,136,105391,5,8,0:0:0:0:
256,272,105534,1,0,0:0:0:0:
328,136,105677,1,0,0:0:0:0:
175,271,105820,6,0,P|179:247|335:271,1,250.000009536744
440,180,106677,5,0,0:0:0:0:
415,57,106820,1,0,0:0:0:0:
299,106,106963,1,0,0:0:0:0:
72,180,107105,5,0,0:0:0:0:
97,57,107248,1,0,0:0:0:0:
213,106,107391,1,0,0:0:0:0:
256,344,107534,5,4,0:0:0:0:
256,344,107677,1,0,0:0:0:0:
256,344,107820,1,0,0:0:0:0:
189,317,107963,6,0,P|267:272|324:326,1,166.666666666667,8|0,0:0|0:0,0:0:0:0:
256,192,108391,1,0,0:0:0:0:
256,192,108677,1,0,0:0:0:0:
160,120,108820,1,8,0:0:0:0:
352,120,108963,1,0,0:0:0:0:
256,72,109105,1,0,0:0:0:0:
80,196,109248,6,0,P|96:248|88:308,1,100.000003814697,4|0,0:0|0:0,0:0:0:0:
419,292,109677,2,0,P|416:243|432:196,1,100.000003814697,8|0,0:0|0:0,0:0:0:0:
196,328,110105,6,0,P|240:316|280:332,1,83.3333333333333
212,216,110391,2,0,P|256:227|282:261,1,83.3333333333333,0|8,0:0|0:0,0:0:0:0:
292,136,110677,2,0,P|324:168|330:210,1,83.3333333333333
448,108,110963,6,0,B|439:122|438:149|438:149|419:164|416:173|402:170|402:215,1,100.000003814697
428,300,111391,2,0,B|436:285|437:258|437:258|456:243|459:234|473:237|473:192,1,100.000003814697,8|0,0:0|0:0,0:0:0:0:
360,256,111820,1,0,0:0:0:0:
256,192,112248,12,8,113105,0:0:0:0:
88,92,113534,6,0,P|116:120|128:172,2,83.3333333333333,0|0|0,0:0|0:0|0:0,0:0:0:0:
424,92,113963,2,0,P|396:120|384:172,2,83.3333333333333,8|0|0,0:0|0:0|0:0,0:0:0:0:
184,316,114391,1,0,0:0:0:0:
256,252,114534,1,0,0:0:0:0:
328,316,114677,1,0,0:0:0:0:
196,208,114820,6,0,P|248:176|304:196,1,100.000003814697,8|0,0:0|0:0,0:0:0:0:
280,108,115248,2,0,P|338:130|360:188,1,100.000003814697
356,160,115677,1,8,0:0:0:0:
356,160,115820,1,0,0:0:0:0:
356,160,115963,1,0,0:0:0:0:
128,336,116105,6,0,B|96:324|116:304|116:272|95:263|95:263|116:236|82:187,1,150.000005722046,4|8,0:0|0:0,0:0:0:0:
256,192,116963,5,0,0:0:0:0:
256,192,117105,1,0,0:0:0:0:
256,192,117248,1,0,0:0:0:0:
56,84,117391,6,0,L|112:200,2,119.999996337891,8|0|0,0:0|0:0|0:0,0:0:0:0:
256,192,117820,5,0,0:0:0:0:
256,192,117962,1,0,0:0:0:0:
256,192,118105,1,0,0:0:0:0:
456,300,118248,6,0,L|400:184,2,119.999996337891,8|0|0,0:0|0:0|0:0,0:0:0:0:
180,244,118677,5,0,0:0:0:0:
256,112,118820,1,0,0:0:0:0:
332,244,118963,1,0,0:0:0:0:
333,152,119105,5,8,0:0:0:0:
256,284,119248,1,0,0:0:0:0:
179,152,119391,1,0,0:0:0:0:
296,44,119534,6,0,B|324:76|332:48|344:84|344:84|368:84|368:84|376:96|404:88|404:88|416:88|420:100|420:100|420:116|420:116|436:130|436:130|440:132|440:144|440:144|440:152,1,199.999993896485,4|8,0:0|0:0,0:0:0:0:
88,316,120391,5,0,0:0:0:0:
20,192,120534,1,0,0:0:0:0:
20,192,120605,1,0,0:0:0:0:
20,192,120677,1,0,0:0:0:0:
88,68,120820,1,8,0:0:0:0:
172,180,120963,1,0,0:0:0:0:
236,56,121105,1,0,0:0:0:0:
324,162,121248,6,0,P|355:191|420:188,2,83.3333333333333,0|0|0,0:0|0:0|0:0,0:0:0:0:
388,120,121677,2,0,P|463:158|436:264,1,166.666666666667,8|0,0:0|0:0,0:0:0:0:
400,280,122105,6,0,P|324:288|268:324,1,133.333333333333
201,288,122534,2,0,P|195:321|206:354,2,66.6666666666667,8|0|0,0:0|0:0|0:0,0:0:0:0:
80,140,122963,6,0,B|124:128|168:144|168:144|192:112|228:128|228:128|256:132|280:84,1,200,4|8,0:0|0:0,0:0:0:0:
455,132,123820,6,0,P|392:146|348:195,1,133.333333333333
348,196,124248,1,8,0:0:0:0:
348,196,124391,1,0,0:0:0:0:
348,196,124534,1,0,0:0:0:0:
104,320,124677,6,0,L|56:200,1,100.000003814697
168,64,125105,2,0,L|130:156,1,100.000003814697,8|0,0:0|0:0,0:0:0:0:
184,268,125534,2,0,P|208:196|292:176,1,150.000005722046,0|8,0:0|0:0,0:0:0:0:
270,257,126391,1,4,0:0:0:0:
256,192,126418,12,0,128079,0:0:0:0:
