osu file format v14

[General]
AudioFilename: Skillet+-+Sick+Of+It+[+-skillet](music.naij.com).mp3
AudioLeadIn: 0
PreviewTime: 37974
Countdown: 0
SampleSet: Normal
StackLeniency: 0.7
Mode: 0
LetterboxInBreaks: 0
WidescreenStoryboard: 1

[Editor]
DistanceSpacing: 1
BeatDivisor: 4
GridSize: 4
TimelineZoom: 1

[Metadata]
Title:Sick Of It
TitleUnicode:Sick Of It
Artist:Skillet
ArtistUnicode:Skillet
Creator:CDFA
Version:Normal
Source:
Tags:Reditum Rise
BeatmapID:816558
BeatmapSetID:317225

[Difficulty]
HPDrainRate:3
CircleSize:2.5
OverallDifficulty:4
ApproachRate:3.5
SliderMultiplier:1.29999990463257
SliderTickRate:1

[Events]
//Background and Video events
0,0,"anime-girl-with-hellhounds-1366x768.jpg",0,0
//Break Periods
2,31088,36594
2,53765,63523
2,80221,85728
2,102899,108878
2,133135,139114
//Storyboard Layer 0 (Background)
//Storyboard Layer 1 (Fail)
//Storyboard Layer 2 (Pass)
//Storyboard Layer 3 (Foreground)
//Storyboard Sound Samples

[TimingPoints]
651.871776518106,472.44094488189,4,1,0,49,1,0
15888,-100,4,2,0,49,0,0
38447,-100,4,1,0,49,0,1
53565,-100,4,1,0,49,0,0
65021,-100,4,2,0,49,0,0
87581,-100,4,1,0,49,0,1
102699,-100,4,1,0,49,0,0
140494,-100,4,1,0,49,0,1
155612,-100,4,1,0,49,0,0

[Colours]
Combo1 : 214,3,3
Combo2 : 179,102,102
Combo3 : 242,24,57

[HitObjects]
48,48,15769,5,4,0:0:0:0:
72,176,16242,2,0,P|160:180|212:144,1,129.999990463257,4|4,0:3|0:3,0:0:0:0:
304,92,17187,2,0,L|344:28,2,64.9999952316285,4|0|4,0:3|0:0|0:3,0:0:0:0:
280,220,18132,2,0,P|288:292|372:348,2,129.999990463257,4|4|4,0:3|0:3|0:3,0:0:0:0:
372,128,19549,6,0,P|344:60|224:48,1,194.999985694886,4|0,0:3|0:0,0:0:0:0:
180,84,20494,2,0,P|112:96|48:80,1,129.999990463257,4|4,0:3|0:3,0:0:0:0:
16,208,21439,5,4,0:3:0:0:
104,304,21911,1,4,0:3:0:0:
224,252,22384,2,4,P|292:240|316:292,1,129.999990463257,4|4,0:3|0:2,0:3:0:0:
420,364,23329,5,4,0:0:0:0:
484,252,23801,2,0,P|500:192|488:104,1,129.999990463257,0|0,1:0|0:0,0:0:0:0:
448,80,24510,2,0,P|380:64|352:28,1,64.9999952316285,0|0,0:0|1:0,0:0:0:0:
260,28,25218,2,0,B|196:28|196:28|100:56,2,129.999990463257,0|0|0,0:0|1:0|0:0,0:0:0:0:
312,148,26636,1,0,1:0:0:0:
212,232,27108,6,0,L|192:296,2,64.9999952316285,0|0|0,0:0|0:0|1:0,0:0:0:0:
144,124,28053,2,0,P|80:124|24:164,2,129.999990463257,0|0|0,0:0|1:0|0:0,0:0:0:0:
272,148,29470,2,0,B|320:144|320:144|400:176|400:176|468:168,1,194.999985694886,0|0,1:0|1:0,0:0:0:0:
496,112,30415,1,0,1:0:0:0:
380,52,30888,5,4,0:0:0:0:
60,64,37974,5,0,0:0:0:0:
60,64,38447,2,0,P|136:64|200:100,2,129.999990463257,4|8|2,0:0|0:0|0:0,0:0:0:0:
12,184,39864,1,8,0:0:0:0:
84,292,40336,2,0,P|144:304|164:296,1,64.9999952316285,2|0,0:0|0:0,0:0:0:0:
204,272,40809,2,0,P|252:264|344:312,2,129.999990463257,8|2|8,0:0|0:0|0:0,0:0:0:0:
76,304,42226,6,0,P|64:240|88:136,1,129.999990463257,4|8,0:0|0:0,0:0:0:0:
108,120,42935,2,0,B|120:76|120:76|112:24,1,64.9999952316285,0|2,0:0|0:0,0:0:0:0:
8,124,43643,1,8,0:0:0:0:
76,236,44116,2,0,B|136:244|136:244|236:228,2,129.999990463257,2|8|2,0:0|0:0|0:0,0:0:0:0:
124,116,45533,5,8,0:0:0:0:
244,68,46006,2,0,P|300:68|376:140,1,129.999990463257,4|8,0:0|0:0,0:0:0:0:
368,240,46951,2,0,L|404:312,2,64.9999952316285,6|0|8,0:0|0:0|0:0,0:0:0:0:
240,220,47895,2,0,P|176:220|144:248,1,64.9999952316285,6|0,0:0|0:0,0:0:0:0:
120,252,48368,2,0,B|56:276|56:276|-16:264,2,129.999990463257,8|2|8,0:0|0:0|0:0,0:0:0:0:
112,124,49785,6,0,P|184:104|280:144,1,129.999990463257,6|8,0:0|0:0,0:0:0:0:
336,200,50730,2,0,P|344:260|328:296,1,64.9999952316285,2|0,0:0|0:0,0:0:0:0:
308,320,51203,2,0,B|252:336|252:336|140:300,1,129.999990463257,8|4,0:0|0:0,0:0:0:0:
256,192,51911,12,4,53565,0:0:0:0:
68,48,64903,6,0,P|132:40|216:64,1,129.999990463257,0|0,0:0|1:0,0:0:0:0:
260,168,65848,2,0,L|236:248,2,64.9999952316285,0|0|0,0:0|0:0|1:0,0:0:0:0:
380,116,66793,1,0,0:0:0:0:
472,208,67266,1,0,1:0:0:0:
392,312,67738,2,0,B|324:328|324:328|248:312,1,129.999990463257,0|0,0:0|1:0,0:0:0:0:
152,252,68683,5,0,0:0:0:0:
32,304,69155,1,0,1:0:0:0:
4,176,69628,2,0,P|8:128|0:80,2,64.9999952316285,0|0|0,0:0|0:0|1:0,0:0:0:0:
32,304,70573,6,0,P|88:332|160:324,1,129.999990463257
256,248,71518,2,0,L|256:140,2,64.9999952316285,4|0|4,0:0|0:0|0:0,0:0:0:0:
352,336,72462,6,0,B|416:324|416:324|456:248,1,129.999990463257,4|0,0:0|1:0,0:0:0:0:
472,140,73407,2,0,L|500:52,2,64.9999952316285,0|0|0,0:0|0:0|1:0,0:0:0:0:
348,184,74352,2,0,P|268:184|196:132,2,129.999990463257,0|0|0,0:0|1:0|0:0,0:0:0:0:
308,60,75769,1,0,1:0:0:0:
180,52,76242,6,0,P|104:56|60:96,1,129.999990463257,0|0,0:0|1:0,0:0:0:0:
56,220,77187,2,0,L|20:288,2,64.9999952316285,0|0|0,0:0|0:0|1:0,0:0:0:0:
180,176,78132,2,0,P|248:176|292:200,1,64.9999952316285
296,212,78604,2,0,B|360:224|360:224|448:212,2,129.999990463257,0|0|0,1:0|0:0|1:0,0:0:0:0:
324,84,80021,5,4,0:0:0:0:
452,64,87108,5,0,0:0:0:0:
452,64,87581,2,0,P|376:64|312:100,2,129.999990463257,4|8|2,0:0|0:0|0:0,0:0:0:0:
500,184,88998,1,8,0:0:0:0:
428,292,89470,2,0,P|368:304|348:296,1,64.9999952316285,2|0,0:0|0:0,0:0:0:0:
308,272,89943,2,0,P|260:264|168:312,2,129.999990463257,8|2|8,0:0|0:0|0:0,0:0:0:0:
436,304,91360,6,0,P|448:240|424:136,1,129.999990463257,4|8,0:0|0:0,0:0:0:0:
404,120,92069,2,0,B|392:76|392:76|400:24,1,64.9999952316285,0|2,0:0|0:0,0:0:0:0:
504,124,92777,1,8,0:0:0:0:
436,236,93250,2,0,B|376:244|376:244|276:228,2,129.999990463257,2|8|2,0:0|0:0|0:0,0:0:0:0:
388,116,94667,5,8,0:0:0:0:
268,68,95140,2,0,P|212:68|136:140,1,129.999990463257,4|8,0:0|0:0,0:0:0:0:
144,240,96085,2,0,L|108:312,2,64.9999952316285,6|0|8,0:0|0:0|0:0,0:0:0:0:
272,220,97029,2,0,P|336:220|368:248,1,64.9999952316285,6|0,0:0|0:0,0:0:0:0:
392,252,97502,2,0,B|456:276|456:276|528:264,2,129.999990463257,8|2|8,0:0|0:0|0:0,0:0:0:0:
400,124,98919,6,0,P|328:104|232:144,1,129.999990463257,6|8,0:0|0:0,0:0:0:0:
176,200,99864,2,0,P|168:260|184:296,1,64.9999952316285,2|0,0:0|0:0,0:0:0:0:
204,320,100337,2,0,B|260:336|260:336|372:300,1,129.999990463257,8|4,0:0|0:0,0:0:0:0:
256,192,101045,12,4,102699,0:0:0:0:
80,52,110258,6,0,P|156:56|200:176,1,194.999985694886,4|0,0:0|0:0,0:0:0:0:
200,216,111203,2,0,L|176:296,2,64.9999952316285,0|0|0,0:0|2:0|2:0,0:0:0:0:
312,148,112147,6,0,P|404:148|468:188,1,129.999990463257
484,284,113092,2,0,L|496:356,2,64.9999952316285,0|0|0,0:0|2:0|0:0,0:0:0:0:
352,288,114037,6,0,P|288:296|232:256,1,129.999990463257,4|0,0:0|0:0,0:0:0:0:
220,132,114982,2,0,B|212:256|212:256|104:308,1,194.999985694886,0|0,0:0|2:0,0:0:0:0:
84,292,115927,6,0,B|60:216|60:216|-4:192,1,129.999990463257
28,68,116872,2,0,L|0:4,2,64.9999952316285
152,108,117817,5,0,0:0:0:0:
268,48,118289,2,0,P|340:48|424:104,2,129.999990463257,0|4|0,0:0|0:0|0:0,0:0:0:0:
256,176,119706,5,0,0:0:0:0:
164,268,120179,1,0,0:0:0:0:
80,172,120651,2,0,P|80:108|144:28,1,129.999990463257,4|0,0:0|0:0,0:0:0:0:
240,20,121596,5,0,0:0:0:0:
368,36,122069,2,0,B|344:112|344:112|348:208,1,129.999990463257,0|4,0:0|0:0,0:0:0:0:
396,284,123014,1,0,0:0:0:0:
268,280,123486,1,4,0:0:0:0:
256,20,124431,2,0,L|256:164,2,129.999990463257,0|0|4,0:0|2:0|0:0,0:0:0:0:
20,132,126321,6,0,P|16:208|64:296,1,129.999990463257
156,304,127266,2,0,B|232:304|232:304|340:336,3,129.999990463257
408,356,129155,5,4,0:0:0:0:
256,192,129628,12,0,132935,2:0:0:0:
52,48,140494,6,0,P|128:48|172:120,1,129.999990463257,4|8,0:0|0:0,0:0:0:0:
176,212,141439,2,0,L|160:284,2,64.9999952316285,2|0|8,0:0|0:0|0:0,0:0:0:0:
304,180,142384,2,0,P|376:176|424:200,1,64.9999952316285,2|0,0:0|0:0,0:0:0:0:
424,204,142856,2,0,B|432:280|432:280|464:364,2,129.999990463257,8|2|8,0:0|0:0|0:0,0:0:0:0:
428,72,144273,6,0,P|352:40|280:56,1,129.999990463257,0|8,0:0|0:0,0:0:0:0:
252,80,144982,2,0,B|216:92|216:92|144:80,1,64.9999952316285,0|2,0:0|0:0,0:0:0:0:
64,48,145691,1,8,0:0:0:0:
36,176,146163,2,0,P|32:244|96:296,1,129.999990463257,2|8,0:0|0:0,0:0:0:0:
136,292,146872,2,0,P|208:288|232:304,1,64.9999952316285,0|2,0:0|0:0,0:0:0:0:
320,328,147581,5,8,0:0:0:0:
432,260,148053,2,0,L|492:200,2,64.9999952316285,6|0|8,0:0|0:0|0:0,0:0:0:0:
308,216,148998,2,0,P|284:148|312:52,1,129.999990463257,6|8,0:0|0:0,0:0:0:0:
412,40,149943,5,6,0:0:0:0:
460,160,150415,1,8,0:0:0:0:
428,288,150888,2,0,L|432:368,2,64.9999952316285,6|0|8,0:0|0:0|1:0,0:0:0:0:
312,232,151832,5,6,0:0:0:0:
188,200,152305,2,0,P|128:196|76:220,1,64.9999952316285,8|0,0:0|0:0,0:0:0:0:
68,232,152777,2,0,B|44:300|44:300|40:372,2,129.999990463257,2|8|4,0:0|0:0|0:0,0:0:0:0:
256,192,153958,12,4,155612,0:0:0:0:
72,60,156557,6,0,P|136:56|196:160,1,194.999985694886,2|0,0:0|0:0,0:0:0:0:
180,220,157502,2,0,P|188:288|232:332,1,129.999990463257,2|8,0:0|0:0,0:0:0:0:
360,312,158447,2,0,L|444:340,2,64.9999952316285,2|0|8,0:0|0:0|0:0,0:0:0:0:
392,184,159392,5,2,0:0:0:0:
340,64,159864,2,0,P|312:56|236:80,1,64.9999952316285,8|0,0:0|0:0,0:0:0:0:
216,84,160336,2,0,P|156:80|96:20,2,129.999990463257,2|8|2,0:0|0:0|0:0,0:0:0:0:
308,176,161754,2,0,P|328:240|308:296,1,64.9999952316285,8|0,0:0|0:0,0:0:0:0:
304,296,162226,1,2,0:0:0:0:
176,320,162699,1,8,0:0:0:0:
124,200,163171,6,0,P|148:140|120:48,1,129.999990463257,4|8,0:0|0:0,0:0:0:0:
20,24,164116,1,2,0:0:0:0:
4,152,164588,1,8,0:0:0:0:
104,236,165061,2,0,P|120:288|192:316,1,129.999990463257,2|8,0:0|0:0,0:0:0:0:
312,296,166006,2,0,P|372:292|432:324,2,129.999990463257,2|8|4,0:0|0:0|0:0,0:0:0:0:
256,180,167423,6,0,L|256:104,1,64.9999952316285,8|0,0:0|0:0,0:0:0:0:
256,52,167895,2,0,P|332:52|404:92,2,129.999990463257,2|8|4,0:0|0:0|0:0,0:0:0:0:
256,192,169077,12,4,170730,0:0:0:0:
32,188,171675,6,0,P|84:164|224:176,1,194.999985694886,8|0,0:0|0:0,0:0:0:0:
276,200,172620,2,0,P|356:208|420:176,1,129.999990463257,4|2,0:0|0:0,0:0:0:0:
488,92,173565,2,0,L|516:20,2,64.9999952316285,8|0|0,0:0|0:0|0:0,0:0:0:0:
360,120,174510,5,4,0:0:0:0:
272,216,174982,2,0,P|196:228|144:160,1,129.999990463257,0|8,0:0|0:0,0:0:0:0:
92,84,175927,2,0,L|44:32,2,64.9999952316285,0|0|4,0:0|0:0|0:0,0:0:0:0:
220,60,176872,2,0,P|284:48|336:72,1,64.9999952316285
344,68,177344,2,0,P|412:80|500:44,2,129.999990463257,8|0|4,0:0|0:0|0:0,0:0:0:0:
256,192,178525,12,4,185848,0:0:0:0:
