osu file format v14

[General]
AudioFilename: Skillet+-+Sick+Of+It+[+-skillet](music.naij.com).mp3
AudioLeadIn: 0
PreviewTime: 37974
Countdown: 0
SampleSet: Normal
StackLeniency: 0.7
Mode: 0
LetterboxInBreaks: 0
WidescreenStoryboard: 0

[Editor]
DistanceSpacing: 1
BeatDivisor: 4
GridSize: 4
TimelineZoom: 1

[Metadata]
Title:Sick Of It
TitleUnicode:Sick Of It
Artist:Skillet
ArtistUnicode:Skillet
Creator:CDFA
Version:Hard
Source:
Tags:Reditum Rise
BeatmapID:706779
BeatmapSetID:317225

[Difficulty]
HPDrainRate:7
CircleSize:4
OverallDifficulty:7
ApproachRate:7.5
SliderMultiplier:1.99999990463257
SliderTickRate:1

[Events]
//Background and Video events
0,0,"anime-girl-with-hellhounds-1366x768.jpg",0,0
//Break Periods
2,31087,37149
2,53801,64078
2,80221,86283
2,102898,109433
2,133135,139669
//Storyboard Layer 0 (Background)
//Storyboard Layer 1 (Fail)
//Storyboard Layer 2 (Pass)
//Storyboard Layer 3 (Foreground)
//Storyboard Sound Samples

[TimingPoints]
651.871776518106,472.44094488189,4,1,0,49,1,0
15888,-100,4,2,0,49,0,0
38447,-100,4,1,0,49,0,1
53565,-100,4,1,0,49,0,0
65021,-100,4,2,0,49,0,0
87581,-100,4,1,0,49,0,1
102699,-100,4,1,0,49,0,0
140494,-100,4,1,0,49,0,1
155612,-100,4,1,0,49,0,0

[Colours]
Combo1 : 214,3,3
Combo2 : 179,102,102
Combo3 : 242,24,57

[HitObjects]
44,28,15769,5,4,0:0:0:0:
52,128,16006,1,0,0:0:0:0:
108,208,16242,1,4,3:3:0:0:
204,232,16478,1,0,0:0:0:0:
304,216,16714,1,4,0:3:0:0:
380,152,16951,1,0,0:0:0:0:
412,248,17187,2,0,P|396:300|264:304,1,199.999990463257,4|4,3:0|3:0,0:0:0:0:
188,252,17895,5,0,0:0:0:0:
152,156,18132,1,4,3:0:0:0:
180,60,18368,1,0,0:0:0:0:
268,12,18604,2,0,B|328:12|328:12|400:32|400:32|468:32,2,199.999990463257,4|4|4,3:0|3:0|3:0,0:0:0:0:
180,60,19785,5,0,0:0:0:0:
152,156,20021,1,4,3:0:0:0:
188,252,20258,1,0,0:0:0:0:
288,256,20494,2,0,P|336:256|420:272,1,99.9999952316285,4|0,3:0|0:0,0:0:0:0:
480,304,20966,1,4,0:3:0:0:
508,208,21203,1,0,0:0:0:0:
428,144,21439,6,0,L|308:112,1,99.9999952316285,4|0,3:0|0:0,0:0:0:0:
204,232,21911,2,0,L|324:232,1,99.9999952316285,4|0,3:0|0:0,0:0:0:0:
180,118,22384,6,0,L|84:144,1,99.9999952316285,4|0,3:0|0:0,0:0:0:0:
52,180,22738,1,4,3:0:0:0:
36,228,22856,2,0,B|24:280|24:280|52:352,1,99.9999952316285,4|0,1:2|0:0,0:0:0:0:
192,232,23329,6,0,B|152:195|152:195|76:183,1,99.9999952316285,4|0,1:2|0:0,0:0:0:0:
112,360,23801,2,0,B|163:344|163:344|211:284,1,99.9999952316285,0|0,1:2|0:0,0:0:0:0:
244,224,24273,1,4,3:0:0:0:
228,124,24510,1,0,0:0:0:0:
296,48,24746,2,0,B|344:48|344:48|432:88|436:88|436:88|500:88,1,199.999990463257,0|4,1:0|3:0,0:0:0:0:
336,220,25691,5,0,1:0:0:0:
300,312,25927,1,0,0:0:0:0:
212,356,26163,1,4,3:0:0:0:
116,336,26399,1,0,0:0:0:0:
16,348,26636,2,0,B|4:292|4:292|8:212,1,99.9999952316285,0|0,1:0|1:0,0:0:0:0:
40,212,26990,1,0,1:0:0:0:
80,180,27108,6,0,B|144:176|144:176|200:136,1,99.9999952316285
236,76,27581,2,0,B|292:64|292:64|376:80,1,99.9999952316285,0|0,1:0|0:0,0:0:0:0:
360,224,28053,2,0,B|296:232|296:232|232:216,1,99.9999952316285,4|0,3:0|0:0,0:0:0:0:
416,144,28525,2,0,B|448:200|448:200|436:324,1,149.999992847443,0|0,1:0|0:0,0:0:0:0:
400,316,28998,2,0,P|340:328|264:304,1,99.9999952316285,4|0,3:0|0:0,0:0:0:0:
252,152,29470,2,0,P|296:224|288:268,1,99.9999952316285,0|0,1:0|0:0,0:0:0:0:
120,280,29943,2,0,B|64:188|64:188|64:84,2,199.999990463257,8|4|4,3:0|3:0|1:0,0:0:0:0:
256,28,37974,5,2,0:0:0:0:
316,212,38210,1,0,0:0:0:0:
176,96,38447,1,4,1:0:0:0:
336,96,38683,1,0,0:0:0:0:
204,216,38919,2,0,B|136:296|136:296|8:316,2,199.999990463257,8|2|8,1:0|0:1|1:0,0:0:0:0:
256,132,40100,1,0,0:0:0:0:
160,64,40336,6,0,P|256:41|352:64,2,199.999990463257,2|8|2,0:0|0:0|0:0,0:0:0:0:
160,320,41754,6,0,P|256:343|352:320,1,199.999990463257,8|4,0:0|0:0,0:0:0:0:
332,224,42462,1,0,0:0:0:0:
256,160,42699,2,0,L|256:8,1,149.999992847443,8|0,0:0|0:0,0:0:0:0:
208,8,43171,2,0,P|168:60|172:132,1,99.9999952316285,2|0,0:0|0:0,0:0:0:0:
348,92,43643,2,0,P|337:44|304:8,1,99.9999952316285,8|0,0:0|0:0,0:0:0:0:
256,96,44116,2,0,L|256:312,2,199.999990463257,2|8|2,0:0|0:0|0:0,0:0:0:0:
80,192,45533,6,0,P|24:152|20:96,1,99.9999952316285,8|0,0:0|0:0,0:0:0:0:
40,28,46006,1,4,0:0:0:0:
132,64,46242,1,0,0:0:0:0:
188,144,46478,1,8,0:0:0:0:
472,28,46951,5,4,0:0:0:0:
380,64,47187,1,0,0:0:0:0:
324,144,47423,1,8,0:0:0:0:
52,196,47895,5,4,0:0:0:0:
76,292,48132,1,0,0:0:0:0:
156,352,48368,1,8,0:0:0:0:
256,368,48604,1,0,0:0:0:0:
356,352,48840,1,0,0:0:0:0:
436,292,49076,1,8,0:0:0:0:
460,196,49313,1,8,0:0:0:0:
256,24,49785,5,4,0:0:0:0:
184,92,50021,1,0,0:0:0:0:
256,160,50258,2,0,B|236:248|256:248|280:268|256:356,2,199.999990463257,8|2|8,0:0|0:0|0:0,0:0:0:0:
144,324,51675,5,8,0:3:0:0:
368,324,51911,1,8,0:3:0:0:
144,312,52147,1,8,0:3:0:0:
368,312,52383,1,8,0:3:0:0:
144,300,52620,1,4,3:0:0:0:
368,300,52856,1,4,3:0:0:0:
364,296,52974,1,4,3:0:0:0:
360,292,53092,2,0,P|308:260|248:136,1,199.999990463257,8|4,0:0|0:0,0:0:0:0:
48,36,64903,5,4,0:0:0:0:
148,24,65140,1,2,0:0:0:0:
244,48,65376,1,0,1:0:0:0:
312,124,65612,1,2,0:0:0:0:
344,220,65848,1,4,3:0:0:0:
344,320,66084,1,2,0:0:0:0:
432,368,66321,2,0,P|480:332|500:184,1,199.999990463257,0|4,1:0|3:0,0:0:0:0:
432,136,67029,5,2,0:0:0:0:
332,136,67266,1,0,1:0:0:0:
232,136,67502,1,2,0:0:0:0:
132,136,67738,2,0,B|116:188|116:188|120:292|120:292|88:376,2,199.999990463257,4|0|4,3:0|1:0|3:0,0:0:0:0:
180,48,68919,5,2,0:0:0:0:
180,48,69037,1,0,0:0:0:0:
180,48,69155,2,0,L|288:40,1,99.9999952316285,0|2,1:0|0:0,0:0:0:0:
400,140,69628,2,0,L|268:116,1,99.9999952316285,4|2,3:0|0:0,0:0:0:0:
168,216,70100,2,0,P|224:204|276:220,2,99.9999952316285,0|2|0,1:0|0:0|1:0,0:0:0:0:
136,256,70691,1,0,0:0:0:0:
100,292,70809,2,0,B|52:320|52:320|-16:320,2,99.9999952316285,0|2|0,0:0|0:0|0:0,0:0:0:0:
68,196,71518,5,4,1:1:0:0:
192,136,71754,1,2,2:0:0:0:
240,264,71990,2,0,P|284:300|392:284,1,149.999992847443,4|0,1:1|0:0,0:0:0:0:
404,256,72462,6,0,B|392:196|392:196|404:124,1,99.9999952316285,4|2,0:0|0:0,0:0:0:0:
364,64,72935,2,0,B|296:88|296:88|248:80,1,99.9999952316285,0|2,1:0|0:0,0:0:0:0:
140,4,73407,2,0,B|192:4|192:4|256:28,1,99.9999952316285,4|2,3:0|0:0,0:0:0:0:
248,168,73880,2,0,B|176:180|176:180|92:128,1,149.999992847443,0|0,1:0|1:0,0:0:0:0:
68,116,74352,6,0,L|16:216,1,99.9999952316285,4|2,3:0|0:0,0:0:0:0:
108,260,74825,2,0,L|124:368,1,99.9999952316285,0|2,1:0|0:0,0:0:0:0:
216,320,75297,2,0,B|200:208|200:208|216:120,1,199.999990463257,4|0,3:0|1:0,0:0:0:0:
288,56,76006,1,0,1:0:0:0:
288,56,76124,1,0,1:0:0:0:
288,56,76242,6,0,P|336:48|404:60,1,99.9999952316285,4|2,3:0|0:0,0:0:0:0:
376,224,76714,2,0,P|352:176|348:108,1,99.9999952316285,0|2,1:0|0:0,0:0:0:0:
448,176,77187,2,0,P|460:236|436:296,1,99.9999952316285,4|2,3:0|0:0,0:0:0:0:
320,280,77659,2,0,P|264:264|124:332,1,199.999990463257,0|4,1:0|3:0,0:0:0:0:
48,360,78368,1,0,0:0:0:0:
12,268,78604,1,0,1:0:0:0:
16,168,78840,1,0,0:0:0:0:
64,80,79077,2,0,B|176:84|176:84|288:40,2,199.999990463257,8|4|4,3:0|3:0|0:1,0:0:0:0:
256,28,87108,5,2,0:0:0:0:
196,212,87344,1,0,0:0:0:0:
336,96,87581,1,4,1:0:0:0:
176,96,87817,1,0,0:0:0:0:
308,216,88053,2,0,B|376:296|376:296|504:316,2,199.999990463257,8|2|8,1:0|0:1|1:0,0:0:0:0:
256,132,89234,1,0,0:0:0:0:
352,64,89470,6,0,P|256:41|160:64,2,199.999990463257,2|8|2,0:0|0:0|0:0,0:0:0:0:
352,320,90888,6,0,P|256:343|160:320,1,199.999990463257,8|4,0:0|0:0,0:0:0:0:
180,224,91596,1,0,0:0:0:0:
256,160,91833,2,0,L|256:8,1,149.999992847443,8|0,0:0|0:0,0:0:0:0:
304,8,92305,2,0,P|344:60|340:132,1,99.9999952316285,2|0,0:0|0:0,0:0:0:0:
164,92,92777,2,0,P|175:44|208:8,1,99.9999952316285,8|0,0:0|0:0,0:0:0:0:
256,96,93250,2,0,L|256:312,2,199.999990463257,2|8|2,0:0|0:0|0:0,0:0:0:0:
432,192,94667,6,0,P|488:152|492:96,1,99.9999952316285,8|0,0:0|0:0,0:0:0:0:
472,28,95140,1,4,0:0:0:0:
380,64,95376,1,0,0:0:0:0:
324,144,95612,1,8,0:0:0:0:
40,28,96085,5,4,0:0:0:0:
132,64,96321,1,0,0:0:0:0:
188,144,96557,1,8,0:0:0:0:
460,196,97029,5,4,0:0:0:0:
436,292,97266,1,0,0:0:0:0:
356,352,97502,1,8,0:0:0:0:
256,368,97738,1,0,0:0:0:0:
156,352,97974,1,0,0:0:0:0:
76,292,98210,1,8,0:0:0:0:
52,196,98447,1,8,0:0:0:0:
256,24,98919,5,4,0:0:0:0:
328,92,99155,1,0,0:0:0:0:
256,160,99392,2,0,B|276:248|256:248|232:268|256:356,2,199.999990463257,8|2|8,0:0|0:0|0:0,0:0:0:0:
368,324,100809,5,8,0:3:0:0:
144,324,101045,1,8,0:3:0:0:
368,312,101281,1,8,0:3:0:0:
144,312,101517,1,8,0:3:0:0:
368,300,101754,1,4,3:0:0:0:
144,300,101990,1,4,3:0:0:0:
148,296,102108,1,4,3:0:0:0:
152,292,102226,2,0,P|204:260|264:136,1,199.999990463257,8|4,0:0|0:0,0:0:0:0:
80,92,110258,6,0,P|136:128|240:92,1,149.999992847443,4|4,0:0|3:0,0:0:0:0:
260,92,110730,2,0,L|248:208,1,99.9999952316285,8|4,1:3|3:0,0:0:0:0:
252,292,111203,2,0,B|312:304|348:252|348:252|404:268|460:212,1,199.999990463257,0|4,1:0|3:0,0:0:0:0:
316,72,112147,6,0,B|260:80|260:80|220:104|220:104|156:112,1,149.999992847443,4|8,3:0|1:3,0:0:0:0:
144,148,112620,2,0,P|144:200|156:252,1,99.9999952316285,4|4,1:3|3:0,0:0:0:0:
240,296,113092,2,0,P|280:248|280:192,1,99.9999952316285,8|0,3:0|2:0,0:0:0:0:
240,124,113565,2,0,P|196:80|188:8,1,99.9999952316285,4|0,3:0|2:0,0:0:0:0:
84,40,114037,6,0,B|76:96|76:96|84:136|84:136|68:196,1,149.999992847443,4|8,0:0|3:0,0:0:0:0:
48,232,114510,2,0,P|92:252|160:236,1,99.9999952316285,4|4,0:3|3:0,0:0:0:0:
180,152,114982,2,0,B|236:148|256:100|256:100|276:44|336:36,1,199.999990463257,8|4,0:3|0:3,0:0:0:0:
476,184,115927,6,0,P|452:244|352:236,1,149.999992847443,4|8,0:0|0:3,0:0:0:0:
332,224,116399,2,0,B|288:212|288:212|220:232,1,99.9999952316285,4|4,0:3|0:3,0:0:0:0:
256,324,116872,2,0,B|236:228|236:228|256:108,1,199.999990463257,8|4,0:3|3:0,0:0:0:0:
336,72,117581,5,0,2:2:0:0:
380,160,117817,1,4,0:0:0:0:
392,260,118053,1,4,3:0:0:0:
360,356,118289,2,0,B|260:352|260:248|260:248|208:248,2,199.999990463257,4|4|4,3:0|0:0|3:0,0:0:0:0:
456,332,119470,5,0,0:0:0:0:
492,240,119706,1,4,3:0:0:0:
488,140,119943,1,0,0:0:0:0:
444,52,120179,2,0,B|392:44|392:44|280:60|280:60|220:52,2,199.999990463257,4|4|4,3:0|0:0|0:0,0:0:0:0:
380,132,121360,5,0,0:0:0:0:
324,216,121596,1,4,0:0:0:0:
296,312,121832,1,0,0:0:0:0:
220,376,122069,2,0,P|152:360|120:272,1,149.999992847443,4|0,3:0|0:0,0:0:0:0:
148,252,122541,2,0,P|176:196|108:76,1,199.999990463257,8|4,3:0|3:0,0:0:0:0:
68,276,123486,6,0,P|192:252|272:288,1,199.999990463257,4|0,0:0|0:0,0:0:0:0:
344,328,124195,1,0,0:0:0:0:
436,364,124431,2,0,P|464:264|416:160,1,199.999990463257,4|4,0:0|3:0,0:0:0:0:
176,48,125376,6,0,B|192:128|144:192|144:192|112:224|112:304|160:336|224:304|256:245|256:245|288:304|352:336|400:304|400:224|368:192|368:192|320:128|336:48,1,799.999961853028,4|0,0:0|1:0,0:0:0:0:
80,48,127738,5,4,0:0:0:0:
368,240,128210,1,4,0:0:0:0:
80,244,128683,1,4,0:0:0:0:
364,56,129155,1,4,0:0:0:0:
256,192,129392,12,2,132935,2:0:0:0:
256,24,140494,5,4,0:0:0:0:
228,152,140730,1,0,0:0:0:0:
100,128,140966,2,0,P|72:168|108:332,2,199.999990463257,8|2|8,0:0|0:0|0:0,0:0:0:0:
424,310,142384,6,0,P|452:217|412:128,2,199.999990463257,2|8|2,0:0|0:0|0:0,0:0:0:0:
232,368,143801,6,0,P|256:304|256:216,1,149.999992847443,8|0,0:0|0:0,0:0:0:0:
208,208,144273,2,0,P|200:152|208:96,1,99.9999952316285,4|0,0:0|0:0,0:0:0:0:
307,109,144746,2,0,P|311:158|304:208,1,99.9999952316285,8|0,0:0|0:0,0:0:0:0:
256,300,145218,2,0,P|176:300|124:168,1,199.999990463257,2|8,0:0|0:0,0:0:0:0:
156,116,145927,5,0,0:0:0:0:
256,100,146163,2,0,L|256:312,2,199.999990463257,2|8|2,0:0|0:0|0:0,0:0:0:0:
324,28,147344,1,8,3:0:0:0:
372,16,147462,1,8,3:0:0:0:
420,32,147581,1,4,3:0:0:0:
452,68,147699,1,4,3:0:0:0:
460,116,147817,1,4,3:0:0:0:
444,164,147935,1,4,3:0:0:0:
400,188,148053,5,4,0:0:0:0:
332,260,148289,1,0,0:0:0:0:
312,356,148525,1,8,0:0:0:0:
112,188,148998,5,4,0:0:0:0:
180,260,149234,1,0,0:0:0:0:
200,356,149470,1,8,0:0:0:0:
56,208,149943,5,4,0:0:0:0:
92,116,150179,1,0,0:0:0:0:
160,40,150415,1,8,0:0:0:0:
256,20,150651,1,0,0:0:0:0:
352,40,150888,1,4,0:0:0:0:
420,116,151124,1,8,0:0:0:0:
456,208,151360,1,8,0:0:0:0:
336,368,151832,5,4,0:0:0:0:
256,308,152069,1,0,0:0:0:0:
180,244,152305,2,0,P|172:184|256:72,2,199.999990463257,8|2|8,0:0|0:0|0:0,0:0:0:0:
256,308,153486,1,2,3:0:0:0:
320,232,153722,6,8,P|340:184|344:160,3,49.9999976158143,8|8|8|8,0:3|0:3|0:3|0:3,0:3:0:0:
304,152,154195,2,4,P|296:112|300:84,3,49.9999976158143,4|4|4|4,3:0|3:0|3:0|3:0,3:0:0:0:
312,56,154667,2,0,P|264:32|176:144,1,199.999990463257,4|8,0:3|3:0,0:0:0:0:
160,220,155376,1,4,3:0:0:0:
136,224,155494,1,4,3:0:0:0:
112,228,155612,5,4,0:0:0:0:
84,132,155848,1,0,0:0:0:0:
176,96,156084,2,8,P|232:104|296:88,1,99.9999952316285,8|0,0:0|0:0,0:0:0:0:
368,60,156557,2,0,P|432:64|460:204,1,199.999990463257,2|8,0:0|0:0,0:0:0:0:
384,212,157266,1,0,0:0:0:0:
296,164,157502,2,0,P|232:164|188:284,1,199.999990463257,2|8,0:0|0:0,0:0:0:0:
256,344,158210,1,0,0:0:0:0:
312,260,158447,2,0,L|280:44,2,199.999990463257,2|8|2,0:0|0:0|0:0,0:0:0:0:
392,324,159628,5,0,0:0:0:0:
460,252,159864,2,0,P|492:200|480:140,1,99.9999952316285,8|0,0:0|0:0,0:0:0:0:
396,128,160336,2,0,P|336:80|336:48,1,99.9999952316285,2|0,0:0|0:0,0:0:0:0:
432,40,160809,2,0,L|264:192,2,199.999990463257,8|2|8,0:0|0:0|0:0,0:0:0:0:
496,228,162226,1,2,0:0:0:0:
440,308,162462,1,0,0:0:0:0:
344,332,162699,1,8,0:0:0:0:
256,288,162935,1,0,0:0:0:0:
196,208,163171,5,4,0:0:0:0:
196,108,163407,1,0,0:0:0:0:
256,28,163643,1,8,0:0:0:0:
316,208,164116,1,4,0:0:0:0:
316,108,164352,1,0,0:0:0:0:
256,28,164588,1,8,0:0:0:0:
64,192,165061,5,4,0:0:0:0:
164,176,165297,1,0,0:0:0:0:
184,276,165533,1,8,0:0:0:0:
256,344,165769,1,0,0:0:0:0:
328,276,166006,1,2,0:0:0:0:
348,176,166242,1,0,0:0:0:0:
448,192,166478,1,8,0:0:0:0:
176,360,166951,5,2,0:0:0:0:
256,304,167187,1,0,0:0:0:0:
336,360,167423,2,0,P|400:360|456:236,2,199.999990463257,8|2|8,0:0|0:0|0:0,0:0:0:0:
256,300,168604,1,0,0:0:0:0:
196,220,168840,5,8,0:3:0:0:
328,112,169077,1,8,0:3:0:0:
340,280,169313,1,4,0:3:0:0:
228,132,169549,1,4,0:3:0:0:
384,200,169785,1,4,0:3:0:0:
247,295,170021,1,8,0:3:0:0:
196,300,170140,1,8,0:3:0:0:
148,308,170258,1,4,0:3:0:0:
100,316,170376,1,4,0:3:0:0:
52,324,170494,1,4,0:3:0:0:
48,228,170730,6,0,P|80:176|76:80,1,149.999992847443,4|0,0:0|0:0,0:0:0:0:
52,48,171203,2,0,P|108:16|168:32,1,99.9999952316285,8|0,0:3|0:0,0:0:0:0:
224,72,171675,2,0,L|288:268,1,199.999990463257,8|4,0:3|0:3,0:0:0:0:
352,72,172620,6,0,P|432:72|484:156,1,149.999992847443,4|4,0:3|0:3,0:0:0:0:
456,164,173092,2,0,B|444:224|444:224|464:284,1,99.9999952316285,8|0,0:3|0:0,0:0:0:0:
496,352,173565,2,0,B|432:352|432:352|384:328,1,99.9999952316285,8|0,0:3|0:0,0:0:0:0:
328,264,174037,2,0,P|276:248|224:276,1,99.9999952316285,4|0,0:3|0:0,0:0:0:0:
136,252,174510,6,0,P|132:200|152:152,1,99.9999952316285,4|0,0:3|0:0,0:0:0:0:
248,148,174982,2,0,P|308:168|364:148,1,99.9999952316285,4|0,0:3|0:0,0:0:0:0:
420,100,175455,2,0,B|464:160|416:228|416:228|420:300,1,199.999990463257,8|4,0:3|0:3,0:0:0:0:
228,344,176399,6,0,P|164:348|84:308,1,149.999992847443,4|8,0:3|0:3,0:0:0:0:
104,264,176872,2,0,B|121:219|121:219|117:167,1,99.9999952316285,4|4,0:3|0:3,0:0:0:0:
104,68,177344,2,0,B|208:60|208:60|308:112,1,199.999990463257,8|4,0:3|0:3,0:0:0:0:
256,300,178289,5,4,0:0:0:0:
256,192,178525,12,4,185848,0:0:0:0:
