osu file format v14

[General]
AudioFilename: Skillet+-+Sick+Of+It+[+-skillet](music.naij.com).mp3
AudioLeadIn: 0
PreviewTime: 37974
Countdown: 0
SampleSet: Soft
StackLeniency: 0.7
Mode: 0
LetterboxInBreaks: 0
WidescreenStoryboard: 0

[Editor]
DistanceSpacing: 1
BeatDivisor: 2
GridSize: 4
TimelineZoom: 1

[Metadata]
Title:Sick Of It
TitleUnicode:Sick Of It
Artist:Skillet
ArtistUnicode:Skillet
Creator:CDFA
Version:Easy
Source:
Tags:Reditum Rise
BeatmapID:713561
BeatmapSetID:317225

[Difficulty]
HPDrainRate:2
CircleSize:2
OverallDifficulty:2
ApproachRate:3
SliderMultiplier:0.999999904632569
SliderTickRate:1

[Events]
//Background and Video events
0,0,"anime-girl-with-hellhounds-1366x768.jpg",0,0
//Break Periods
2,31088,36534
2,53765,63463
2,80221,85668
2,102899,108818
2,133135,139054
//Storyboard Layer 0 (Background)
//Storyboard Layer 1 (Fail)
//Storyboard Layer 2 (Pass)
//Storyboard Layer 3 (Foreground)
//Storyboard Sound Samples

[TimingPoints]
651.871776518106,472.44094488189,4,1,0,49,1,0
15888,-100,4,2,0,49,0,0
38447,-100,4,1,0,49,0,1
53565,-100,4,1,0,49,0,0
65021,-100,4,2,0,49,0,0
87581,-100,4,1,0,49,0,1
102699,-100,4,1,0,49,0,0
140494,-100,4,1,0,49,0,1
155612,-100,4,1,0,49,0,0

[Colours]
Combo1 : 214,3,3
Combo2 : 179,102,102
Combo3 : 242,24,57

[HitObjects]
76,72,15769,6,0,P|144:64|232:164,1,199.999980926514,4|4,0:0|0:3,0:0:0:0:
232,252,17187,2,0,P|264:308|328:312,1,99.9999904632569,4|4,3:0|3:0,0:0:0:0:
384,272,18132,1,4,3:0:0:0:
436,188,18604,2,0,B|408:132|408:132|420:64,1,99.9999904632569,4|4,3:0|3:0,0:0:0:0:
336,28,19549,6,0,B|316:128|316:128|252:168|200:128,1,199.999980926514,4|4,3:0|3:0,0:0:0:0:
148,76,20966,1,4,3:0:0:0:
80,152,21439,2,0,B|88:204|88:204|68:268,1,99.9999904632569,4|4,3:0|3:0,0:0:0:0:
4,320,22384,2,0,P|84:348|172:256,1,199.999980926514,8|4,3:0|0:0,0:0:0:0:
192,188,23801,6,0,P|224:136|288:129,2,99.9999904632569,0|4|0,1:0|3:0|1:0,0:0:0:0:
216,284,25218,1,4,3:0:0:0:
304,332,25691,2,0,B|344:332|344:332|360:312|360:312|412:312,1,99.9999904632569,0|4,1:0|3:0,0:0:0:0:
496,316,26636,2,0,P|504:256|476:180,1,99.9999904632569,0|4,1:0|3:0,0:0:0:0:
436,140,27581,5,0,1:0:0:0:
348,96,28053,2,0,P|264:96|192:192,1,199.999980926514,4|4,3:0|3:0,0:0:0:0:
168,276,29470,2,0,P|168:160|108:64,1,199.999980926514,0|0,1:0|1:0,0:0:0:0:
48,32,30888,5,4,0:0:0:0:
256,32,37974,5,2,0:0:0:0:
256,132,38447,1,4,0:0:0:0:
256,232,38919,2,0,B|244:284|256:280|268:276|256:332,2,99.9999904632569,8|2|8,1:0|0:0|0:0,0:0:0:0:
348,192,40336,1,4,0:0:0:0:
428,132,40809,1,8,0:0:0:0:
452,36,41281,2,0,P|380:24|320:40,1,99.9999904632569,2|8,0:0|0:0,0:0:0:0:
288,104,42226,6,0,P|216:120|84:80,1,199.999980926514,4|2,0:0|0:0,0:0:0:0:
24,20,43643,1,8,0:0:0:0:
0,120,44116,2,0,P|4:184|76:308,1,199.999980926514,2|2,0:0|0:0,0:0:0:0:
160,340,45533,1,8,0:0:0:0:
200,248,46006,5,4,0:0:0:0:
296,224,46478,1,8,0:0:0:0:
384,268,46951,2,0,P|448:248|464:200,1,99.9999904632569,0|8,0:0|0:0,0:0:0:0:
420,132,47895,2,0,P|420:76|460:21,2,99.9999904632569,4|8|2,0:0|0:0|0:0,0:0:0:0:
328,172,49313,2,0,P|276:152|212:160,1,99.9999904632569,8|4,0:0|0:0,0:0:0:0:
136,172,50258,6,0,P|124:88|132:44,1,99.9999904632569,8|2,0:0|0:0,0:0:0:0:
220,36,51203,1,8,0:0:0:0:
240,132,51675,2,0,B|324:160|388:112|388:112|392:200|476:220,1,299.999971389771,4|8,0:0|0:0,0:0:0:0:
488,120,53565,1,4,0:0:0:0:
76,56,64903,6,0,P|128:40|176:44,1,99.9999904632569,4|0,0:0|1:0,0:0:0:0:
236,120,65848,2,0,P|224:180|240:216,1,99.9999904632569,4|0,3:0|1:0,0:0:0:0:
328,256,66793,1,4,3:0:0:0:
428,252,67266,1,0,1:0:0:0:
432,152,67738,2,0,P|440:96|420:40,1,99.9999904632569,4|0,3:0|1:0,0:0:0:0:
332,40,68683,5,4,3:0:0:0:
232,28,69155,1,0,1:0:0:0:
168,104,69628,2,0,P|152:164|116:188,1,99.9999904632569,4|0,3:0|1:0,0:0:0:0:
36,140,70573,6,0,L|-4:248,1,99.9999904632569,4|0,3:0|0:0,0:0:0:0:
44,324,71518,2,0,B|92:324|92:324|160:268,2,99.9999904632569,4|4|4,0:0|0:0|3:0,0:0:0:0:
52,224,72935,5,0,1:0:0:0:
148,192,73407,2,0,P|228:188|332:100,1,199.999980926514,4|4,3:0|3:0,0:0:0:0:
404,64,74825,2,0,P|420:128|404:176,1,99.9999904632569,0|4,1:0|3:0,0:0:0:0:
352,240,75769,1,0,1:0:0:0:
352,240,76242,6,0,P|296:236|236:256,1,99.9999904632569,4|0,3:0|1:0,0:0:0:0:
164,292,77187,2,0,P|96:300|28:188,1,199.999980926514,4|4,3:0|3:0,0:0:0:0:
128,204,78604,2,0,P|168:156|168:20,1,199.999980926514,0|0,1:0|1:0,0:0:0:0:
69,20,80021,5,4,0:0:0:0:
256,32,87108,5,2,0:0:0:0:
256,132,87581,1,4,0:0:0:0:
256,232,88053,2,0,B|244:284|256:280|268:276|256:332,2,99.9999904632569,8|2|8,1:0|0:0|0:0,0:0:0:0:
348,192,89470,1,4,0:0:0:0:
428,132,89943,1,8,0:0:0:0:
452,36,90415,2,0,P|380:24|320:40,1,99.9999904632569,2|8,0:0|0:0,0:0:0:0:
288,104,91360,6,0,P|216:120|84:80,1,199.999980926514,4|2,0:0|0:0,0:0:0:0:
24,20,92777,1,8,0:0:0:0:
0,120,93250,2,0,P|4:184|76:308,1,199.999980926514,2|2,0:0|0:0,0:0:0:0:
160,340,94667,1,8,0:0:0:0:
200,248,95140,5,4,0:0:0:0:
296,224,95612,1,8,0:0:0:0:
384,268,96085,2,0,P|448:248|464:200,1,99.9999904632569,0|8,0:0|0:0,0:0:0:0:
420,132,97029,2,0,P|420:76|460:21,2,99.9999904632569,4|8|2,0:0|0:0|0:0,0:0:0:0:
328,172,98447,2,0,P|276:152|212:160,1,99.9999904632569,8|4,0:0|0:0,0:0:0:0:
136,172,99392,6,0,P|124:88|132:44,1,99.9999904632569,8|2,0:0|0:0,0:0:0:0:
220,36,100337,1,8,0:0:0:0:
240,132,100809,2,0,B|324:160|388:112|388:112|392:200|476:220,1,299.999971389771,4|8,0:0|0:0,0:0:0:0:
488,120,102699,1,4,0:0:0:0:
88,68,110258,6,0,P|172:56|280:76,2,149.999985694885,4|4|4,0:0|3:0|3:0,0:0:0:0:
68,164,112147,2,0,P|72:224|104:272,1,99.9999904632569,4|0,3:0|0:0,0:0:0:0:
192,252,113092,2,0,P|260:244|308:272,1,99.9999904632569,8|4,3:0|3:0,0:0:0:0:
352,332,114037,6,0,P|416:328|476:224,2,149.999985694885,4|4|4,3:0|3:0|3:0,0:0:0:0:
296,248,115927,1,4,0:0:0:0:
304,148,116399,1,4,3:0:0:0:
212,104,116872,2,0,P|144:100|100:120,1,99.9999904632569,8|4,3:0|3:0,0:0:0:0:
64,196,117817,6,4,P|80:260|208:300,1,199.999980926514,4|4,3:0|0:0,0:0:0:0:
256,224,119234,1,0,0:0:0:0:
316,304,119706,2,4,P|410:284|448:196,1,199.999980926514,4|4,3:0|0:0,0:0:0:0:
352,160,121124,1,0,0:0:0:0:
356,60,121596,6,0,L|156:60,1,199.999980926514,4|4,3:0|0:0,0:0:0:0:
160,160,123014,1,0,0:0:0:0:
160,256,123486,2,0,B|160:320|256:360|256:360|352:320|352:256,1,299.999971389771,4|0,0:0|2:0,0:0:0:0:
256,228,125376,5,4,0:0:0:0:
336,160,125848,2,0,P|256:109|176:160,1,199.999980926514
152,256,127266,2,0,B|104:300|104:300|28:320,2,99.9999904632569
248,248,128683,1,0,0:0:0:0:
296,336,129155,5,4,0:0:0:0:
256,192,129392,12,2,132935,2:0:0:0:
44,48,140494,6,0,P|104:40|204:144,1,199.999980926514,4|2,0:0|0:0,0:0:0:0:
168,220,141911,1,8,0:0:0:0:
256,272,142384,6,0,L|256:388,2,99.9999904632569,2|8|2,0:0|0:0|0:0,0:0:0:0:
344,220,143801,1,8,0:0:0:0:
310,127,144273,6,0,P|371:51|468:48,1,199.999980926514,4|2,0:0|0:0,0:0:0:0:
496,144,145691,1,8,0:0:0:0:
496,244,146163,6,0,P|472:312|424:348,2,99.9999904632569,2|8|2,0:0|0:0|0:0,0:0:0:0:
404,208,147581,2,0,B|352:204|352:204|276:212,2,99.9999904632569,8|4|8,0:0|0:0|0:0,0:0:0:0:
356,296,148998,2,0,L|244:304,1,99.9999904632569,4|8,0:0|0:0,0:0:0:0:
156,304,149943,5,4,0:0:0:0:
88,232,150415,1,8,0:0:0:0:
164,168,150888,2,0,P|188:112|176:56,1,99.9999904632569,2|8,0:0|0:0,0:0:0:0:
96,28,151832,1,4,0:0:0:0:
256,192,152305,12,4,155612,0:0:0:0:
52,64,157502,6,0,P|112:56|188:184,1,199.999980926514,4|2,0:0|0:0,0:0:0:0:
256,232,158919,1,8,0:0:0:0:
319,154,159392,6,0,P|364:70|460:64,1,199.999980926514,4|2,0:0|0:0,0:0:0:0:
496,156,160809,1,8,0:0:0:0:
476,252,161281,2,0,P|424:304|292:252,1,199.999980926514,2|2,0:0|0:0,0:0:0:0:
256,192,162699,5,0,0:0:0:0:
202,279,163171,2,0,P|111:310|36:252,1,199.999980926514,4|2,0:0|0:0,0:0:0:0:
108,184,164588,2,0,P|140:132|132:68,1,99.9999904632569,8|2,0:0|0:0,0:0:0:0:
56,44,165533,2,0,P|156:96|264:56,1,199.999980926514,8|8,0:0|0:0,0:0:0:0:
324,28,166951,5,4,0:0:0:0:
408,84,167423,2,0,P|404:152|284:224,1,199.999980926514,8|8,0:0|0:0,0:0:0:0:
204,204,168840,6,0,P|152:196|100:216,2,99.9999904632569,8|8|8,0:3|0:3|0:3,0:0:0:0:
264,284,170258,1,8,0:0:0:0:
364,284,170730,6,0,P|424:236|424:140,2,149.999985694885,4|4|4,0:0|0:3|0:3,0:0:0:0:
276,240,172620,5,4,0:0:0:0:
180,272,173092,1,0,0:0:0:0:
112,200,173565,2,0,P|132:144|120:80,2,99.9999904632569,8|0|4,0:0|0:0|0:0,0:0:0:0:
256,340,175455,6,0,P|332:344|400:236,1,199.999980926514,8|4,0:0|0:0,0:0:0:0:
328,184,176872,1,0,0:0:0:0:
332,84,177344,2,0,B|388:80|388:80|452:96,2,99.9999904632569,8|0|4,0:0|0:0|0:0,0:0:0:0:
256,192,178762,12,4,185848,0:0:0:0:
