osu file format v14

[General]
AudioFilename: Skillet+-+Sick+Of+It+[+-skillet](music.naij.com).mp3
AudioLeadIn: 0
PreviewTime: 37974
Countdown: 0
SampleSet: Normal
StackLeniency: 0.7
Mode: 0
LetterboxInBreaks: 0
WidescreenStoryboard: 0

[Editor]
DistanceSpacing: 1
BeatDivisor: 4
GridSize: 4
TimelineZoom: 1

[Metadata]
Title:Sick Of It
TitleUnicode:Sick Of It
Artist:Skillet
ArtistUnicode:Skillet
Creator:CDFA
Version:Advanced
Source:
Tags:Reditum Rise
BeatmapID:709374
BeatmapSetID:317225

[Difficulty]
HPDrainRate:4
CircleSize:3
OverallDifficulty:4
ApproachRate:5
SliderMultiplier:1.59999990463257
SliderTickRate:1

[Events]
//Background and Video events
0,0,"anime-girl-with-hellhounds-1366x768.jpg",0,0
//Break Periods
2,31087,36774
2,53765,63703
2,80221,85908
2,102899,109058
2,133135,139294
//Storyboard Layer 0 (Background)
//Storyboard Layer 1 (Fail)
//Storyboard Layer 2 (Pass)
//Storyboard Layer 3 (Foreground)
//Storyboard Sound Samples

[TimingPoints]
651.871776518106,472.44094488189,4,1,0,49,1,0
15888,-100,4,2,0,49,0,0
38447,-100,4,1,0,49,0,1
53565,-100,4,1,0,49,0,0
65021,-100,4,2,0,49,0,0
87581,-100,4,1,0,49,0,1
102699,-100,4,1,0,49,0,0
140494,-100,4,1,0,49,0,1
155612,-100,4,1,0,49,0,0

[Colours]
Combo1 : 214,3,3
Combo2 : 179,102,102
Combo3 : 242,24,57

[HitObjects]
68,40,15769,5,4,0:0:0:0:
84,200,16242,1,4,3:0:0:0:
156,236,16478,1,0,0:0:0:0:
232,216,16714,2,0,B|320:200|320:200|408:264,2,159.999990463257,4|4|4,3:0|3:0|3:0,0:0:0:0:
140,348,18132,5,4,3:0:0:0:
68,316,18368,1,0,0:0:0:0:
28,248,18604,2,0,P|24:188|72:68,2,159.999990463257,4|0|4,3:0|3:0|3:0,0:0:0:0:
176,192,20021,5,4,3:0:0:0:
252,216,20258,1,0,0:0:0:0:
308,160,20494,1,4,3:0:0:0:
388,176,20730,1,0,0:0:0:0:
436,112,20966,2,4,B|424:80|440:32|440:32|368:32|336:12,1,159.999990463257,4|4,3:0|3:0,3:0:0:0:
204,36,21911,5,4,3:0:0:0:
124,32,22147,1,0,0:0:0:0:
44,32,22384,2,0,B|40:112|40:112|24:124|24:124|20:200,1,159.999990463257,8|4,3:0|3:0,0:0:0:0:
64,340,23329,6,0,P|136:328|192:232,1,159.999990463257,4|0,0:0|1:0,0:0:0:0:
187,182,24037,1,0,0:0:0:0:
138,118,24273,2,0,P|206:78|302:82,1,159.999990463257,2|0,0:0|1:0,0:0:0:0:
436,128,25218,5,2,0:0:0:0:
456,288,25691,2,0,B|404:288|404:288|340:320|340:320|280:320,2,159.999990463257,0|2|0,1:0|0:0|1:0,0:0:0:0:
484,132,27108,5,4,0:0:0:0:
492,52,27344,1,0,0:0:0:0:
420,20,27581,2,0,P|360:16|268:88,2,159.999990463257,0|2|0,1:0|0:0|1:0,0:0:0:0:
392,176,28998,6,0,P|372:228|360:284,1,79.9999952316285,4|0,0:0|0:0,0:0:0:0:
324,320,29470,2,0,P|268:328|224:344,1,79.9999952316285,0|0,1:0|0:0,0:0:0:0:
168,356,29943,2,0,P|152:272|180:164,2,159.999990463257,8|4|4,3:0|3:0|0:0,0:0:0:0:
64,56,37974,6,0,P|124:44|168:60,1,79.9999952316285,2|0,0:0|0:0,0:0:0:0:
212,84,38447,2,0,P|256:88|304:68,1,79.9999952316285,4|0,0:0|0:0,0:0:0:0:
356,32,38919,2,0,P|408:24|492:112,2,159.999990463257,8|2|8,0:0|0:0|0:0,0:0:0:0:
256,160,40336,6,0,B|240:216|256:236|280:260|256:324,2,159.999990463257,2|8|2,0:0|0:0|0:0,0:0:0:0:
416,156,41754,6,0,P|400:208|352:244,1,79.9999952316285,8|0,0:0|0:0,0:0:0:0:
308,252,42226,2,0,P|236:252|196:272,1,79.9999952316285,4|0,0:0|0:0,0:0:0:0:
164,300,42699,2,0,P|96:316|60:304,1,79.9999952316285,8|0,0:0|0:0,0:0:0:0:
32,256,43171,2,0,P|44:200|32:80,1,159.999990463257,2|8,0:0|0:0,0:0:0:0:
16,20,43880,5,0,0:0:0:0:
96,32,44116,2,0,P|160:44|268:8,2,159.999990463257,2|8|2,0:0|0:0|0:0,0:0:0:0:
192,160,45533,6,0,P|244:148|284:152,1,79.9999952316285,8|0,0:0|0:0,0:0:0:0:
328,204,46006,2,0,P|392:256|480:220,1,159.999990463257,4|8,0:0|0:0,0:0:0:0:
488,80,46951,5,4,0:0:0:0:
440,16,47187,1,0,0:0:0:0:
360,32,47423,1,8,0:0:0:0:
212,92,47895,6,0,P|236:136|232:192,1,79.9999952316285,4|0,0:0|0:0,0:0:0:0:
220,244,48368,2,0,P|208:304|224:344,1,79.9999952316285,8|0,0:0|0:0,0:0:0:0:
284,352,48840,2,0,P|356:328|456:340,1,159.999990463257,2|8,0:0|0:0,0:0:0:0:
488,180,49785,5,4,0:0:0:0:
500,100,50021,1,0,0:0:0:0:
436,52,50258,2,0,P|380:40|328:56,1,79.9999952316285,8|0,0:0|0:0,0:0:0:0:
296,96,50730,2,0,P|244:140|132:112,2,159.999990463257,2|8|4,0:0|0:0|0:0,0:0:0:0:
256,192,51911,12,4,53565,0:0:0:0:
44,48,64903,5,4,0:0:0:0:
72,204,65376,2,0,P|128:220|180:200,1,79.9999952316285,0|2,1:0|0:0,0:0:0:0:
216,176,65848,2,0,P|268:164|320:176,1,79.9999952316285,4|2,0:3|0:0,0:0:0:0:
356,220,66321,2,0,P|436:248|516:204,1,159.999990463257,0|4,1:0|3:0,0:0:0:0:
492,60,67266,5,0,1:0:0:0:
424,20,67502,1,2,0:0:0:0:
360,68,67738,2,0,P|300:80|252:72,1,79.9999952316285,4|2,3:0|0:0,0:0:0:0:
216,36,68210,2,0,P|260:112|256:200,1,159.999990463257,0|4,1:0|0:0,0:0:0:0:
148,296,69155,5,0,1:0:0:0:
68,316,69392,1,2,0:0:0:0:
20,252,69628,2,0,P|28:200|24:148,2,79.9999952316285,4|2|0,3:0|0:0|1:0,0:0:0:0:
152,160,70573,6,0,L|260:132,1,79.9999952316285,4|0,3:0|0:0,0:0:0:0:
281,208,71045,2,0,L|181:236,1,79.9999952316285
152,160,71518,2,0,L|107:86,2,79.9999952316285,4|0|4,0:0|0:0|0:0,0:0:0:0:
20,256,72462,6,0,P|72:288|124:288,1,79.9999952316285,4|2,0:0|0:0,0:0:0:0:
160,256,72935,2,0,P|204:240|260:252,1,79.9999952316285,0|2,1:0|0:0,0:0:0:0:
280,308,73407,2,0,P|240:244|260:148,1,159.999990463257,4|0,3:0|1:0,0:0:0:0:
372,48,74352,5,4,3:0:0:0:
420,116,74588,1,2,0:0:0:0:
384,188,74825,2,0,P|384:236|404:280,1,79.9999952316285,0|2,1:0|0:0,1:0:0:0:
476,276,75297,2,0,B|384:276|384:276|292:308,1,159.999990463257,4|0,3:0|1:0,0:0:0:0:
164,332,76242,5,4,3:0:0:0:
68,204,76714,1,0,1:0:0:0:
96,128,76951,1,2,0:0:0:0:
176,140,77187,2,0,P|256:136|332:72,1,159.999990463257,4|0,3:0|1:0,0:0:0:0:
388,48,77895,1,2,0:0:0:0:
392,128,78132,6,0,P|396:208|472:268,2,159.999990463257,4|0|8,3:0|1:0|3:0,0:0:0:0:
296,256,79549,1,4,3:0:0:0:
148,196,80021,1,4,0:0:0:0:
448,56,87108,6,0,P|388:44|344:48,1,79.9999952316285,2|0,0:0|0:0,0:0:0:0:
300,84,87581,2,0,P|256:88|208:68,1,79.9999952316285,4|0,0:0|0:0,0:0:0:0:
156,32,88053,2,0,P|104:24|20:112,2,159.999990463257,8|2|8,0:0|0:0|0:0,0:0:0:0:
256,156,89470,6,0,B|314:160|330:140|348:111|416:121,2,159.999990463257,2|8|2,0:0|0:0|0:0,0:0:0:0:
96,156,90888,6,0,P|112:208|160:244,1,79.9999952316285,8|0,0:0|0:0,0:0:0:0:
204,252,91360,2,0,P|276:252|316:272,1,79.9999952316285,4|0,0:0|0:0,0:0:0:0:
348,300,91833,2,0,P|416:316|452:304,1,79.9999952316285,8|0,0:0|0:0,0:0:0:0:
480,256,92305,2,0,P|468:200|480:80,1,159.999990463257,2|8,0:0|0:0,0:0:0:0:
496,20,93014,5,0,0:0:0:0:
416,32,93250,2,0,P|352:44|244:8,2,159.999990463257,2|8|2,0:0|0:0|0:0,0:0:0:0:
320,160,94667,6,0,P|268:148|228:152,1,79.9999952316285,8|0,0:0|0:0,0:0:0:0:
184,204,95140,2,0,P|120:256|32:220,1,159.999990463257,4|8,0:0|0:0,0:0:0:0:
24,80,96085,5,4,0:0:0:0:
72,16,96321,1,0,0:0:0:0:
152,32,96557,1,8,0:0:0:0:
300,92,97029,6,0,P|276:136|280:192,1,79.9999952316285,4|0,0:0|0:0,0:0:0:0:
292,244,97502,2,0,P|304:304|288:344,1,79.9999952316285,8|0,0:0|0:0,0:0:0:0:
228,352,97974,2,0,P|156:328|56:340,1,159.999990463257,2|8,0:0|0:0,0:0:0:0:
24,180,98919,5,4,0:0:0:0:
12,100,99155,1,0,0:0:0:0:
76,52,99392,2,0,P|132:40|184:56,1,79.9999952316285,8|0,0:0|0:0,0:0:0:0:
216,96,99864,2,0,P|268:140|380:112,2,159.999990463257,2|8|4,0:0|0:0|0:0,0:0:0:0:
256,192,101045,12,4,102699,0:0:0:0:
256,32,110258,6,0,P|252:104|208:134,2,119.999992847443,4|4|0,0:0|3:0|0:0,0:0:0:0:
180,60,111203,2,0,P|140:108|172:200,1,159.999990463257,8|4,3:0|3:0,0:0:0:0:
324,192,112147,6,0,P|396:184|456:220,2,119.999992847443,4|4|4,3:0|3:0|3:0,0:0:0:0:
280,260,113092,2,0,P|312:192|280:108,1,159.999990463257,8|4,3:0|3:0,0:0:0:0:
172,228,114037,6,0,P|176:288|252:336,2,119.999992847443,4|4|0,3:0|3:0|0:0,0:0:0:0:
204,156,114982,2,0,B|256:156|256:104|256:104|256:48|296:48,1,159.999990463257,8|4,3:0|3:0,0:0:0:0:
452,52,115927,6,0,P|475:108|459:180,2,119.999992847443,4|4|4,3:0|3:0|3:0,0:0:0:0:
372,40,116872,1,8,3:0:0:0:
288,176,117344,1,4,3:0:0:0:
256,248,117581,5,0,3:0:0:0:
204,308,117817,2,0,P|152:316|112:308,1,79.9999952316285,4|0,0:0|0:0,0:0:0:0:
88,240,118289,2,0,P|104:180|72:72,2,159.999990463257,4|8|4,3:0|3:0|3:0,0:0:0:0:
236,304,119706,5,4,0:3:0:0:
288,244,119943,1,0,0:0:0:0:
368,232,120179,2,0,P|376:168|344:56,2,159.999990463257,4|8|4,3:0|3:0|3:0,0:0:0:0:
260,352,121596,5,4,3:0:0:0:
180,356,121832,1,0,0:0:0:0:
136,288,122069,2,0,P|152:232|136:184,1,79.9999952316285,4|0,3:0|0:0,0:0:0:0:
100,148,122541,2,0,P|68:112|104:0,1,159.999990463257,8|4,3:0|3:0,0:0:0:0:
248,20,123486,6,0,L|268:188,1,159.999990463257,4|0,0:0|0:0,0:0:0:0:
288,256,124195,1,0,0:0:0:0:
228,308,124431,2,0,P|276:336|360:288,1,159.999990463257,4|0,0:0|0:0,0:0:0:0:
416,144,125376,6,0,B|416:64|368:16|272:32|256:80|256:80|240:32|144:16|96:64|96:144,1,479.999971389771,4|0,0:0|0:0,0:0:0:0:
204,264,127266,6,0,P|248:248|296:248,1,79.9999952316285,0|0,0:0|2:0,0:0:0:0:
326,312,127738,2,0,P|282:328|234:328,1,79.9999952316285,0|0,0:0|2:0,0:0:0:0:
204,264,128210,2,0,B|128:232|128:232|28:252,2,159.999990463257,0|0|4,0:0|0:0|0:0,0:0:0:0:
256,192,129392,12,2,132935,2:0:0:0:
60,68,140494,6,0,P|108:56|152:68,1,79.9999952316285,4|0,0:0|0:0,0:0:0:0:
204,104,140966,2,0,P|256:120|304:112,1,79.9999952316285,8|0,0:0|0:0,0:0:0:0:
360,96,141439,2,0,P|376:172|332:260,1,159.999990463257,2|8,0:0|0:0,0:0:0:0:
151,96,142384,6,0,P|136:173|166:245,2,159.999990463257,2|8|2,0:0|0:0|0:0,0:0:0:0:
300,40,143801,6,0,L|328:144,1,79.9999952316285,8|0,0:0|0:0,0:0:0:0:
288,188,144273,2,0,L|296:296,1,79.9999952316285,4|0,0:0|0:0,0:0:0:0:
232,320,144746,2,0,B|176:376|176:376|120:368|96:316,1,159.999990463257,8|2,0:0|0:0,0:0:0:0:
40,192,145691,5,8,0:0:0:0:
28,112,145927,1,0,0:0:0:0:
44,32,146163,2,0,P|128:12|208:48,2,159.999990463257,2|8|2,0:0|0:0|0:0,0:0:0:0:
168,140,147581,5,8,0:0:0:0:
240,108,147817,1,0,0:0:0:0:
320,124,148053,1,4,0:0:0:0:
372,184,148289,1,0,0:0:0:0:
376,264,148525,1,8,0:0:0:0:
136,216,148998,5,4,0:0:0:0:
164,292,149234,1,0,0:0:0:0:
232,336,149470,1,8,0:0:0:0:
317,200,149943,6,0,P|329:148|317:92,1,79.9999952316285,4|0,0:0|0:0,0:0:0:0:
297,48,150415,2,0,L|197:48,1,79.9999952316285,8|0,0:0|0:0,0:0:0:0:
187,121,150888,2,0,P|185:161|197:200,2,79.9999952316285,0|8|8,0:0|0:0|0:0,0:0:0:0:
304,32,151832,5,4,0:0:0:0:
384,20,152069,1,0,0:0:0:0:
400,96,152305,2,0,P|412:160|492:252,2,159.999990463257,8|2|8,0:0|0:0|0:0,0:0:0:0:
256,164,153722,5,4,0:0:0:0:
256,192,153958,12,8,155140,0:0:0:0:
60,48,155612,5,4,0:0:0:0:
60,48,156084,2,0,P|104:40|140:60,1,79.9999952316285,8|0,0:0|0:0,0:0:0:0:
196,108,156557,2,0,P|272:116|344:48,2,159.999990463257,2|8|2,0:0|0:0|0:0,0:0:0:0:
332,192,157974,2,0,P|332:232|312:272,1,79.9999952316285,8|0,0:0|0:0,0:0:0:0:
236,260,158447,2,0,P|172:244|96:312,1,159.999990463257,2|8,0:0|0:0,0:0:0:0:
32,152,159392,5,4,0:0:0:0:
16,72,159628,1,0,0:0:0:0:
76,20,159864,2,0,B|120:20|120:20|176:48|176:48|240:48,1,159.999990463257,8|2,0:0|0:0,0:0:0:0:
389,48,160809,1,8,0:0:0:0:
468,40,161045,1,0,0:0:0:0:
460,120,161281,2,0,B|456:204|456:204|488:288,2,159.999990463257,2|8|2,0:0|0:0|0:0,0:0:0:0:
300,144,162699,5,8,0:0:0:0:
256,208,162935,1,0,0:0:0:0:
176,216,163171,2,0,P|116:216|96:232,2,79.9999952316285,4|0|8,0:0|0:0|0:0,0:0:0:0:
316,296,164116,1,2,0:0:0:0:
392,272,164352,1,0,0:0:0:0:
384,192,164588,2,0,P|368:140|424:48,1,159.999990463257,8|2,0:0|0:0,0:0:0:0:
500,188,165533,5,8,0:0:0:0:
484,268,165769,1,0,0:0:0:0:
408,292,166006,2,0,P|364:284|328:304,1,79.9999952316285,2|0,0:0|0:0,0:0:0:0:
264,336,166478,2,0,P|188:328|136:232,1,159.999990463257,8|4,0:0|0:0,0:0:0:0:
172,192,167187,5,0,0:0:0:0:
132,124,167423,2,0,P|200:116|246:214,2,159.999990463257,8|2|8,0:0|0:0|0:0,0:0:0:0:
20,236,168840,5,4,0:0:0:0:
256,192,169077,12,4,170730,0:0:0:0:
48,60,171675,6,0,P|144:48|208:100,1,159.999990463257,8|0,0:0|0:0,0:0:0:0:
256,132,172384,1,0,0:0:0:0:
318,80,172620,2,0,P|387:43|464:60,1,159.999990463257,4|0,0:0|0:0,0:0:0:0:
504,132,173329,1,0,0:0:0:0:
472,204,173565,2,0,B|464:276|464:276|492:372,2,159.999990463257,8|8|4,0:0|0:3|0:3,0:0:0:0:
320,152,174982,5,4,0:3:0:0:
252,196,175218,1,0,0:0:0:0:
176,172,175455,2,0,P|112:184|64:276,1,159.999990463257,8|8,0:0|0:3,0:0:0:0:
212,324,176399,6,0,B|256:324|256:324|288:336|288:336|352:336,2,119.999992847443,4|4|4,0:3|0:3|0:3,0:0:0:0:
140,288,177344,2,0,P|120:236|128:176,1,79.9999952316285,8|0,0:3|0:0,0:0:0:0:
164,144,177817,1,4,0:3:0:0:
164,64,178053,1,0,0:0:0:0:
88,36,178289,1,4,0:0:0:0:
256,192,178525,12,4,185848,0:0:0:0:
