osu file format v14

[General]
AudioFilename: audio.mp3
AudioLeadIn: 0
PreviewTime: 184
Countdown: 0
SampleSet: Soft
StackLeniency: 0.3
Mode: 0
LetterboxInBreaks: 0
WidescreenStoryboard: 0

[Editor]
Bookmarks: 27869,34425,58961,66072,160425,175203
DistanceSpacing: 1
BeatDivisor: 4
GridSize: 16
TimelineZoom: 0.8

[Metadata]
Title:Monster
TitleUnicode:Monster
Artist:Skillet
ArtistUnicode:Skillet
Creator:Testo
Version:Hard
Source:
Tags:Awake alternative christian music mirash
BeatmapID:1571318
BeatmapSetID:738909

[Difficulty]
HPDrainRate:4
CircleSize:4
OverallDifficulty:6
ApproachRate:7
SliderMultiplier:1.89999990463257
SliderTickRate:1

[Events]
//Background and Video events
0,0,"berserk.jpg",0,0
//Break Periods
2,66161,70395
2,131939,136172
//Storyboard Layer 0 (Background)
//Storyboard Layer 1 (Fail)
//Storyboard Layer 2 (Pass)
//Storyboard Layer 3 (Foreground)
//Storyboard Sound Samples

[TimingPoints]
184,444.444444444444,4,2,1,40,1,0
184,-142.857142857143,4,2,1,40,0,0
1517,-142.857142857143,4,2,1,40,0,0
3295,-142.857142857143,4,2,1,40,0,0
3739,-142.857142857143,4,2,1,40,0,0
5072,-142.857142857143,4,2,1,40,0,0
5183,-142.857142857143,4,2,1,40,0,0
7295,-125,4,2,1,50,0,0
14406,-125,4,2,1,50,0,0
28628,-125,4,2,1,50,0,0
33961,-125,4,2,1,50,0,0
34295,-125,4,2,1,10,0,0
34406,-125,4,2,1,50,0,0
34739,-125,4,2,1,10,0,0
34850,-125,4,2,1,50,0,0
35739,-125,4,2,1,50,0,0
41072,-125,4,2,1,50,0,0
41406,-125,4,2,1,10,0,0
41517,-125,4,2,1,50,0,0
41850,-125,4,2,1,10,0,0
41961,-125,4,2,1,50,0,0
42295,-125,4,2,1,10,0,0
42406,-125,4,2,1,50,0,0
42739,-125,4,2,1,10,0,0
42850,-125,4,2,1,50,0,0
44628,-100,4,2,1,65,0,1
46295,-100,4,2,1,10,0,1
46406,-100,4,2,1,65,0,1
48073,-100,4,2,1,10,0,1
48184,-100,4,2,1,65,0,1
49961,-100,4,2,1,60,0,1
51740,-100,4,2,1,60,0,1
53406,-100,4,2,1,10,0,1
53517,-100,4,2,1,65,0,1
55184,-100,4,2,1,10,0,1
55295,-100,4,2,1,65,0,1
57072,-100,4,2,1,60,0,1
58851,-100,4,2,1,60,0,1
65961,-100,4,2,1,50,0,0
71295,-142.857142857143,4,2,1,50,0,0
73072,-125,4,2,1,50,0,0
78406,-125,4,2,1,50,0,0
78739,-125,4,2,1,10,0,0
78850,-125,4,2,1,50,0,0
79184,-125,4,2,1,10,0,0
79295,-125,4,2,1,50,0,0
80184,-125,4,2,1,50,0,0
85517,-125,4,2,1,50,0,0
85850,-125,4,2,1,10,0,0
85961,-125,4,2,1,50,0,0
86295,-125,4,2,1,10,0,0
86406,-125,4,2,1,50,0,0
86739,-125,4,2,1,10,0,0
86850,-125,4,2,1,50,0,0
87184,-125,4,2,1,10,0,0
87295,-125,4,2,1,50,0,0
89072,-100,4,2,1,65,0,1
90739,-100,4,2,1,10,0,1
90850,-100,4,2,1,65,0,1
92517,-100,4,2,1,10,0,1
92628,-100,4,2,1,65,0,1
94406,-100,4,2,1,65,0,1
96184,-100,4,2,1,65,0,1
97850,-100,4,2,1,10,0,1
97961,-100,4,2,1,65,0,1
99628,-100,4,2,1,10,0,1
99739,-100,4,2,1,65,0,1
101517,-100,4,2,1,65,0,1
103295,-100,4,2,1,65,0,1
104961,-100,4,2,1,10,0,1
105073,-100,4,2,1,65,0,1
106739,-100,4,2,1,10,0,1
106850,-100,4,2,1,65,0,1
108628,-100,4,2,1,65,0,1
110406,-100,4,2,1,65,0,1
117517,-100,4,2,1,65,0,0
129961,-100,4,2,1,65,0,0
131295,-125,4,2,1,40,0,0
137072,-166.666666666667,4,2,1,40,0,0
138850,-100,4,2,1,65,0,1
140517,-100,4,2,1,10,0,1
140628,-100,4,2,1,65,0,1
142295,-100,4,2,1,10,0,1
142406,-100,4,2,1,65,0,1
144183,-100,4,2,1,65,0,1
145961,-100,4,2,1,65,0,1
147628,-100,4,2,1,10,0,1
147739,-100,4,2,1,65,0,1
149406,-100,4,2,1,10,0,1
149517,-100,4,2,1,65,0,1
151295,-100,4,2,1,65,0,1
153073,-100,4,2,1,65,0,1
154739,-100,4,2,1,10,0,1
154850,-100,4,2,1,65,0,1
156517,-100,4,2,1,10,0,1
156628,-100,4,2,1,65,0,1
158406,-100,4,2,1,65,0,1
160184,-100,4,2,1,65,0,1
174406,-100,4,2,1,20,0,0

[Colours]
Combo1 : 0,91,183
Combo2 : 0,106,53
Combo3 : 187,187,0
Combo4 : 183,0,123
Combo5 : 89,0,179
Combo6 : 164,0,33

[HitObjects]
307,177,184,6,0,L|314:260,2,66.4999946327211,0|0|0,0:0|0:0|0:0,0:0:0:0:
301,90,850,1,2,0:0:0:0:
301,90,1295,1,0,0:0:0:0:
232,37,1517,2,2,B|201:26|177:37|177:37|161:28|161:28|135:42|90:30,1,132.999989265442,0|0,0:0|0:0,0:0:0:0:
56,104,2183,6,0,P|63:137|58:181,1,66.4999946327212,0|0,0:0|0:0,0:0:0:0:
38,253,2628,1,2,0:0:0:0:
38,253,3072,1,0,0:0:0:0:
105,307,3295,2,2,B|181:278|171:327|241:293,1,132.999989265442,0|0,0:0|0:0,0:0:0:0:
295,235,3961,6,0,P|334:238|363:251,1,66.4999946327212,0|0,0:0|0:0,0:0:0:0:
427,301,4406,1,2,0:0:0:0:
427,301,4850,1,0,0:0:0:0:
473,228,5072,2,2,P|460:194|461:142,1,66.4999946327212,0|0,0:0|0:0,0:0:0:0:
408,92,5517,6,2,L|271:81,1,132.999989265442,0|0,0:0|0:0,0:0:0:0:
251,242,6406,2,2,L|383:231,1,132.999989265442,0|0,0:0|0:0,0:0:0:0:
182,187,7295,6,0,P|145:196|108:189,1,75.9999961853028,0|2,3:0|0:0,0:0:0:0:
240,118,7739,1,0,3:0:0:0:
240,118,7961,2,0,P|249:86|297:41,1,75.9999961853028,2|0,0:0|3:0,0:0:0:0:
274,194,8406,1,2,0:0:0:0:
274,194,8628,2,0,P|311:241|316:342,1,151.999992370606,0|0,3:0|3:0,0:0:0:0:
319,330,9295,5,2,0:0:0:0:
235,366,9517,1,0,3:0:0:0:
235,366,9739,2,0,P|198:365|158:344,1,75.9999961853028,2|0,0:0|3:0,0:0:0:0:
99,283,10183,1,2,0:0:0:0:
99,283,10406,2,0,B|118:196|67:220|92:126,1,151.999992370606,0|0,3:0|3:0,0:0:0:0:
89,134,11072,5,2,0:0:0:0:
170,91,11295,1,0,3:0:0:0:
223,164,11517,2,0,P|274:166|314:177,1,75.9999961853028,2|0,0:0|3:0,0:0:0:0:
364,233,11961,1,2,0:0:0:0:
364,233,12183,2,0,P|358:171|392:80,1,151.999992370606,0|0,3:0|3:0,0:0:0:0:
144,242,13072,6,0,P|200:267|262:342,1,151.999992370606,0|0,3:0|3:0,0:0:0:0:
190,62,13961,1,0,3:0:0:0:
190,62,14406,6,0,L|265:55,1,75.9999961853028,4|2,3:2|0:0,0:0:0:0:
352,83,14850,1,0,3:0:0:0:
352,83,15072,1,2,0:0:0:0:
413,150,15295,2,0,P|403:185|410:248,1,75.9999961853028,0|2,3:0|0:0,0:0:0:0:
476,279,15739,2,0,P|422:257|342:297,1,151.999992370606,8|0,3:2|3:0,0:0:0:0:
284,368,16406,5,2,0:0:0:0:
284,368,16628,2,0,P|244:378|183:353,1,75.9999961853028,0|2,3:0|0:0,0:0:0:0:
177,286,17072,2,0,P|188:246|240:206,1,75.9999961853028,0|2,3:0|0:0,0:0:0:0:
302,234,17517,2,0,P|330:263|339:328,1,75.9999961853028,8|0,3:2|0:0,0:0:0:0:
268,160,17961,6,0,L|274:66,1,75.9999961853028,0|2,3:0|0:0,0:0:0:0:
343,26,18406,1,0,3:0:0:0:
343,26,18628,1,2,0:0:0:0:
407,89,18850,2,0,L|411:164,1,75.9999961853028,0|2,3:0|0:0,0:0:0:0:
420,255,19295,1,8,3:2:0:0:
352,316,19517,1,0,0:0:0:0:
281,258,19739,5,0,3:0:0:0:
440,346,20183,1,0,3:0:0:0:
281,258,20628,1,0,3:0:0:0:
122,346,21072,1,0,3:0:0:0:
281,258,21517,6,0,P|273:217|277:164,1,75.9999961853028,4|2,3:2|0:0,0:0:0:0:
301,96,21961,1,0,3:0:0:0:
301,96,22183,1,2,0:0:0:0:
213,122,22406,2,0,P|175:122|137:114,1,75.9999961853028,0|2,3:0|0:0,0:0:0:0:
68,219,22850,2,0,P|150:207|234:204,1,151.999992370606,8|0,3:2|3:0,0:0:0:0:
306,231,23517,5,2,0:0:0:0:
306,231,23739,2,0,L|391:219,1,75.9999961853028,0|2,3:0|0:0,0:0:0:0:
472,218,24183,1,0,3:0:0:0:
472,218,24628,2,0,L|461:293,1,75.9999961853028,8|0,3:2|0:0,0:0:0:0:
386,345,25072,6,0,P|346:338|284:353,1,75.9999961853028,0|2,3:0|0:0,0:0:0:0:
235,290,25517,2,0,P|195:297|133:282,1,75.9999961853028,0|2,3:0|0:0,0:0:0:0:
103,221,25961,1,0,3:0:0:0:
103,221,26183,1,2,0:0:0:0:
167,156,26406,2,0,P|204:151|241:158,1,75.9999961853028,8|0,3:2|0:0,0:0:0:0:
95,110,26850,5,0,3:0:0:0:
264,41,27295,1,0,3:0:0:0:
441,186,27739,1,8,3:2:0:0:
441,186,27850,1,8,3:2:0:0:
441,186,27961,1,0,3:0:0:0:
441,186,28072,1,0,3:0:0:0:
441,186,28183,2,0,L|451:277,1,75.9999961853028,12|0,3:2|0:0,0:0:0:0:
392,333,28628,6,0,P|356:322|316:323,1,75.9999961853028,4|0,3:2|0:0,0:0:0:0:
231,247,29072,2,0,P|268:247|305:236,1,75.9999961853028,8|2,3:2|0:0,0:0:0:0:
369,171,29517,1,0,3:0:0:0:
369,171,29739,1,2,0:0:0:0:
436,109,29961,2,0,P|405:176|428:247,1,151.999992370606,8|0,3:2|3:0,0:0:0:0:
351,362,30628,5,2,0:0:0:0:
351,362,30850,2,0,P|357:320|351:284,1,75.9999961853028,8|2,3:2|0:0,0:0:0:0:
292,217,31295,1,0,3:0:0:0:
292,217,31517,1,2,0:0:0:0:
212,261,31739,2,0,B|120:278|160:233|59:251,1,151.999992370606,8|0,3:2|3:0,0:0:0:0:
14,173,32406,5,2,0:0:0:0:
14,173,32628,2,0,P|22:147|21:90,1,75.9999961853028,8|2,3:2|0:0,0:0:0:0:
6,8,33072,1,0,3:0:0:0:
6,8,33295,1,2,0:0:0:0:
89,44,33517,2,0,L|168:48,1,75.9999961853028,8|0,3:2|0:0,0:0:0:0:
255,51,33961,5,0,3:0:0:0:
447,173,34406,1,8,3:2:0:0:
245,278,34850,1,0,3:0:0:0:
189,205,35072,2,0,L|137:197,2,37.9999980926514,8|8|8,3:2|3:2|3:2,0:0:0:0:
280,193,35516,1,4,0:0:0:0:
245,278,35739,6,0,L|157:290,1,75.9999961853028,0|2,3:2|0:0,0:0:0:0:
223,360,36183,2,0,L|311:348,1,75.9999961853028,8|2,3:2|0:0,0:0:0:0:
375,300,36628,1,0,3:0:0:0:
375,300,36850,1,2,0:0:0:0:
439,363,37072,2,0,P|421:305|468:207,1,151.999992370606,8|0,3:2|3:0,0:0:0:0:
509,150,37739,5,2,0:0:0:0:
509,150,37961,2,0,P|502:102|511:68,1,75.9999961853028,8|2,3:2|0:0,0:0:0:0:
443,10,38406,1,0,3:0:0:0:
443,10,38628,1,2,0:0:0:0:
363,54,38850,2,0,P|311:41|207:69,1,151.999992370606,8|0,3:2|3:0,0:0:0:0:
157,132,39517,5,2,0:0:0:0:
157,132,39739,2,0,L|68:122,1,75.9999961853028,8|2,3:2|0:0,0:0:0:0:
230,190,40183,1,0,3:0:0:0:
230,190,40406,1,2,0:0:0:0:
159,248,40628,2,0,L|70:258,1,75.9999961853028,8|0,3:2|0:0,0:0:0:0:
287,259,41072,6,0,P|331:260|376:269,1,75.9999961853028,4|0,3:2|0:0,0:0:0:0:
457,172,41517,2,0,P|419:177|381:178,1,75.9999961853028,8|0,3:2|0:0,0:0:0:0:
443,263,41961,6,0,P|455:310|446:355,1,75.9999961853028,0|0,3:0|0:0,0:0:0:0:
295,205,42406,2,0,P|292:167|304:131,1,75.9999961853028,8|0,3:2|0:0,0:0:0:0:
352,306,42850,5,4,3:2:0:0:
352,306,43072,1,0,3:0:0:0:
415,217,43295,1,12,3:2:0:0:
415,217,43517,1,0,3:0:0:0:
352,306,43739,2,0,L|258:320,1,75.9999961853028,4|0,3:2|3:0,0:0:0:0:
131,254,44183,2,0,P|182:261|221:287,1,75.9999961853028,8|0,3:2|3:0,0:0:0:0:
38,369,44628,6,0,L|54:257,1,94.9999952316285,4|0,3:2|3:0,0:0:0:0:
117,160,45072,2,0,L|130:253,1,94.9999952316285,8|0,3:2|3:0,0:0:0:0:
186,331,45517,1,8,3:0:0:0:
186,331,45739,1,8,3:0:0:0:
243,255,45961,2,0,L|252:139,1,94.9999952316285,12|0,3:2|0:0,0:0:0:0:
404,89,46406,6,0,P|356:85|310:95,1,94.9999952316285,8|0,3:0|3:0,0:0:0:0:
416,243,46850,2,0,P|442:204|458:146,1,94.9999952316285,8|0,3:2|3:0,0:0:0:0:
292,205,47295,1,8,3:0:0:0:
292,205,47517,1,8,3:0:0:0:
224,272,47739,2,0,B|118:291|147:233|31:252,1,189.999990463257,12|8,3:2|3:0,0:0:0:0:
297,209,48406,5,0,3:0:0:0:
297,209,48628,2,0,P|347:206|403:220,1,94.9999952316285,8|0,3:2|3:0,0:0:0:0:
459,281,49072,1,8,3:0:0:0:
459,281,49295,1,8,3:0:0:0:
381,335,49517,1,12,3:2:0:0:
381,335,49739,1,8,3:0:0:0:
287,349,49961,6,0,P|241:352|172:337,1,94.9999952316285,4|0,3:2|3:0,0:0:0:0:
110,297,50406,1,8,3:2:0:0:
110,297,50628,1,8,3:0:0:0:
55,219,50850,6,0,P|52:173|67:104,1,94.9999952316285,12|0,3:2|3:0,0:0:0:0:
150,32,51295,2,0,P|157:79|155:127,1,94.9999952316285,8|0,3:2|3:0,0:0:0:0:
221,194,51739,6,0,L|315:180,1,94.9999952316285,4|0,3:2|3:0,0:0:0:0:
372,281,52183,2,0,L|278:268,1,94.9999952316285,8|0,3:2|3:0,0:0:0:0:
422,206,52628,1,8,3:0:0:0:
422,206,52850,1,8,3:0:0:0:
468,280,53072,2,0,P|454:326|452:392,1,94.9999952316285,12|0,3:2|0:0,0:0:0:0:
355,376,53517,6,0,P|308:372|250:388,1,94.9999952316285,8|0,3:0|3:0,0:0:0:0:
184,328,53961,2,0,P|137:332|79:316,1,94.9999952316285,8|0,3:2|3:0,0:0:0:0:
25,251,54406,1,8,3:0:0:0:
25,251,54628,1,8,3:0:0:0:
69,167,54850,2,0,P|147:178|244:126,1,189.999990463257,12|8,3:2|3:0,0:0:0:0:
353,69,55517,5,0,3:0:0:0:
353,69,55739,2,0,P|306:51|248:48,1,94.9999952316285,8|0,3:2|3:0,0:0:0:0:
426,132,56183,1,8,3:0:0:0:
426,132,56406,1,8,3:0:0:0:
351,190,56628,1,12,3:2:0:0:
351,190,56850,1,8,3:0:0:0:
430,241,57072,6,0,L|441:356,1,94.9999952316285,4|0,3:2|3:0,0:0:0:0:
313,383,57517,1,8,3:2:0:0:
313,383,57739,1,8,3:0:0:0:
240,321,57961,6,0,P|250:266|267:218,1,94.9999952316285,12|0,3:2|3:0,0:0:0:0:
334,137,58406,2,0,P|349:183|357:230,1,94.9999952316285,8|0,3:2|3:0,0:0:0:0:
240,117,58850,5,4,3:2:0:0:
240,117,59072,1,8,3:0:0:0:
240,117,59295,2,0,P|154:133|45:67,1,189.999990463257,8|8,3:2|3:0,0:0:0:0:
52,193,59961,1,8,3:0:0:0:
52,193,60184,2,0,P|46:242|20:289,1,94.9999952316285,8|0,3:2|3:0,0:0:0:0:
115,346,60628,6,0,L|230:332,1,94.9999952316285,4|0,3:2|3:0,0:0:0:0:
311,289,61072,1,8,3:2:0:0:
311,289,61295,1,8,3:0:0:0:
237,229,61517,2,0,L|122:215,1,94.9999952316285,12|0,3:2|3:0,0:0:0:0:
326,199,61961,2,0,L|441:185,1,94.9999952316285,8|0,3:2|0:0,0:0:0:0:
246,125,62406,5,4,3:2:0:0:
246,125,62628,1,8,3:0:0:0:
246,125,62850,2,0,L|228:325,1,189.999990463257,8|8,3:2|3:0,0:0:0:0:
349,377,63517,1,8,3:0:0:0:
349,377,63739,2,0,L|335:262,1,94.9999952316285,8|0,3:2|3:0,0:0:0:0:
463,212,64183,6,0,P|410:201|365:206,1,94.9999952316285,4|0,3:2|3:0,0:0:0:0:
276,223,64628,1,8,3:2:0:0:
276,223,64850,1,8,3:0:0:0:
213,151,65072,2,0,P|224:98|219:53,1,94.9999952316285,12|0,3:2|3:0,0:0:0:0:
180,241,65517,2,0,P|176:288|187:334,1,94.9999952316285,8|0,3:2|0:0,0:0:0:0:
115,174,65961,1,4,3:2:0:0:
184,140,71295,6,0,P|255:142|326:109,1,132.999989265442,0|0,3:0|3:0,0:0:0:0:
470,256,72183,1,8,3:2:0:0:
470,256,72295,1,8,3:2:0:0:
470,256,72406,1,0,3:0:0:0:
470,256,72517,1,0,3:0:0:0:
470,256,72628,2,0,L|478:174,1,66.4999946327212,12|0,3:2|0:0,0:0:0:0:
424,114,73072,6,0,P|388:103|348:104,1,75.9999961853028,4|2,3:2|0:0,0:0:0:0:
300,198,73516,2,0,P|337:197|374:186,1,75.9999961853028,8|2,3:2|0:0,0:0:0:0:
251,122,73961,1,0,3:0:0:0:
251,122,74183,1,2,0:0:0:0:
202,198,74405,2,0,P|211:277|182:351,1,151.999992370606,8|0,3:2|3:0,0:0:0:0:
272,376,75072,5,2,0:0:0:0:
272,376,75294,2,0,P|314:370|350:376,1,75.9999961853028,8|2,3:2|0:0,0:0:0:0:
429,335,75739,1,0,3:0:0:0:
429,335,75961,1,2,0:0:0:0:
470,253,76183,2,0,P|452:176|471:94,1,151.999992370606,8|0,3:2|3:0,0:0:0:0:
386,60,76850,5,2,0:0:0:0:
386,60,77072,2,0,P|360:68|303:67,1,75.9999961853028,8|2,3:2|0:0,0:0:0:0:
221,53,77516,1,0,3:0:0:0:
221,53,77739,1,2,0:0:0:0:
159,120,77961,2,0,P|161:154|155:199,1,75.9999961853028,8|0,3:2|0:0,0:0:0:0:
139,285,78405,5,0,3:0:0:0:
315,236,78850,1,8,3:2:0:0:
139,285,79294,1,0,3:0:0:0:
198,216,79517,2,0,L|205:163,2,37.9999980926514,8|8|8,3:2|3:2|3:2,0:0:0:0:
239,296,79960,1,4,0:0:0:0:
139,285,80183,6,0,L|51:273,1,75.9999961853028,0|2,3:0|0:0,0:0:0:0:
239,296,80627,2,0,L|327:284,1,75.9999961853028,8|2,3:2|0:0,0:0:0:0:
205,217,81072,1,0,3:0:0:0:
205,217,81294,1,2,0:0:0:0:
273,156,81517,2,0,L|449:132,1,151.999992370606,8|0,3:2|3:0,0:0:0:0:
512,224,82183,5,2,0:0:0:0:
512,224,82405,2,0,P|464:217|430:226,1,75.9999961853028,8|2,3:2|0:0,0:0:0:0:
369,283,82850,1,0,3:0:0:0:
369,283,83072,1,0,0:0:0:0:
296,338,83294,2,0,P|234:356|143:318,1,151.999992370606,8|0,3:2|3:0,0:0:0:0:
98,255,83961,5,2,0:0:0:0:
98,255,84183,2,0,L|187:245,1,75.9999961853028,8|2,3:2|0:0,0:0:0:0:
263,232,84627,1,0,3:0:0:0:
263,232,84850,1,2,0:0:0:0:
336,177,85072,2,0,L|425:187,1,75.9999961853028,8|0,3:2|0:0,0:0:0:0:
338,261,85517,6,0,P|347:297|344:335,1,75.9999961853028,4|0,3:2|0:0,0:0:0:0:
482,295,85961,2,0,P|479:257|488:220,1,75.9999961853028,8|0,3:2|0:0,0:0:0:0:
391,113,86406,6,0,P|408:153|411:190,1,75.9999961853028,4|0,3:2|0:0,0:0:0:0:
254,134,86850,2,0,P|280:99|310:78,1,75.9999961853028,8|0,3:2|0:0,0:0:0:0:
308,234,87295,5,4,3:2:0:0:
308,234,87517,1,0,0:0:0:0:
211,261,87739,1,12,3:2:0:0:
211,261,87961,1,0,0:0:0:0:
295,329,88184,2,0,P|331:328|389:343,1,75.9999961853028,4|0,3:2|0:0,0:0:0:0:
200,361,88628,2,0,P|162:368|124:367,1,75.9999961853028,8|0,3:2|3:0,0:0:0:0:
60,297,89072,6,0,P|72:250|64:184,1,94.9999952316285,4|0,3:2|3:0,0:0:0:0:
142,142,89517,2,0,P|189:144|235:132,1,94.9999952316285,8|0,3:2|3:0,0:0:0:0:
328,116,89961,1,8,3:0:0:0:
328,116,90183,1,8,3:0:0:0:
375,213,90406,2,0,P|329:201|281:203,1,94.9999952316285,12|0,3:2|0:0,0:0:0:0:
417,127,90850,6,0,L|408:23,1,94.9999952316285,8|0,3:0|3:0,0:0:0:0:
375,213,91295,2,0,L|366:307,1,94.9999952316285,8|0,0:0|3:0,0:0:0:0:
282,351,91739,1,8,3:0:0:0:
282,351,91961,1,8,3:0:0:0:
213,285,92183,2,0,P|126:307|22:270,1,189.999990463257,12|8,3:2|3:0,0:0:0:0:
229,204,92850,5,0,3:0:0:0:
229,204,93072,2,0,P|279:201|335:215,1,94.9999952316285,8|0,0:0|3:0,0:0:0:0:
409,248,93516,1,8,3:0:0:0:
409,248,93739,1,8,3:0:0:0:
446,335,93961,1,8,0:0:0:0:
446,335,94183,1,8,3:0:0:0:
352,319,94405,6,0,P|308:317|238:338,1,94.9999952316285,4|0,3:2|3:0,0:0:0:0:
163,325,94850,1,8,0:0:0:0:
163,325,95072,1,8,3:0:0:0:
88,266,95294,2,0,P|81:219|100:151,1,94.9999952316285,12|0,3:2|3:0,0:0:0:0:
182,67,95739,2,0,P|191:114|184:161,1,94.9999952316285,8|0,3:2|3:0,0:0:0:0:
257,223,96183,6,0,P|304:210|351:209,1,94.9999952316285,4|0,3:2|3:0,0:0:0:0:
180,280,96628,2,0,P|132:278|87:265,1,94.9999952316285,8|0,3:2|3:0,0:0:0:0:
266,325,97072,1,8,3:0:0:0:
266,325,97294,1,8,3:0:0:0:
355,376,97517,2,0,L|467:362,1,94.9999952316285,12|0,3:2|0:0,0:0:0:0:
504,287,97961,6,0,P|498:238|511:186,1,94.9999952316285,8|0,3:3|3:0,0:0:0:0:
426,144,98406,2,0,P|432:95|419:43,1,94.9999952316285,8|0,0:0|3:0,0:0:0:0:
334,15,98850,1,8,3:0:0:0:
334,15,99072,1,8,3:0:0:0:
257,72,99295,2,0,B|145:114|188:43|64:87,1,189.999990463257,12|8,3:2|3:0,0:0:0:0:
19,162,99961,5,0,3:0:0:0:
19,162,100183,2,0,P|14:210|21:264,1,94.9999952316285,8|0,3:2|3:0,0:0:0:0:
77,330,100627,1,8,3:0:0:0:
77,330,100850,1,8,3:0:0:0:
144,263,101072,1,8,3:2:0:0:
144,263,101294,1,8,3:0:0:0:
213,327,101516,6,0,P|262:312|328:316,1,94.9999952316285,4|0,3:2|3:0,0:0:0:0:
396,341,101961,1,8,3:2:0:0:
396,341,102183,1,8,3:0:0:0:
454,265,102406,2,0,L|443:167,1,94.9999952316285,12|0,3:2|3:0,0:0:0:0:
355,93,102850,2,0,L|344:187,1,94.9999952316285,8|8,3:2|3:2,0:0:0:0:
325,221,103183,1,8,3:2:0:0:
325,221,103295,6,0,P|277:219|232:206,1,94.9999952316285,4|0,3:2|3:0,0:0:0:0:
154,152,103739,2,0,P|106:153|61:166,1,94.9999952316285,8|0,3:2|3:0,0:0:0:0:
30,256,104184,1,8,3:0:0:0:
30,256,104406,1,8,3:0:0:0:
84,333,104628,2,0,P|129:345|176:347,1,94.9999952316285,12|0,3:2|0:0,0:0:0:0:
265,312,105073,6,0,P|264:259|276:212,1,94.9999952316285,8|0,3:0|3:0,0:0:0:0:
363,186,105517,2,0,P|373:232|371:279,1,94.9999952316285,8|0,3:2|3:0,0:0:0:0:
294,135,105962,1,8,3:0:0:0:
294,135,106184,1,8,3:0:0:0:
225,69,106407,2,0,P|135:87|30:49,1,189.999990463257,12|8,3:2|3:0,0:0:0:0:
0,195,107073,5,0,3:0:0:0:
0,195,107295,2,0,P|47:189|95:163,1,94.9999952316285,8|0,3:2|3:0,0:0:0:0:
182,183,107739,1,8,3:0:0:0:
182,183,107962,1,8,3:0:0:0:
133,264,108184,1,8,3:2:0:0:
133,264,108406,1,8,3:0:0:0:
200,331,108628,6,0,P|245:313|304:313,1,94.9999952316285,4|0,3:2|3:0,0:0:0:0:
383,333,109073,1,8,3:2:0:0:
383,333,109295,1,8,3:0:0:0:
448,264,109518,6,0,L|437:166,1,94.9999952316285,12|0,3:2|3:0,0:0:0:0:
353,84,109962,2,0,L|343:179,1,94.9999952316285,8|0,3:2|3:0,0:0:0:0:
262,49,110405,5,4,3:2:0:0:
262,49,110627,1,8,3:0:0:0:
262,49,110850,2,0,P|176:65|67:-1,1,189.999990463257,8|8,3:2|3:0,0:0:0:0:
24,94,111516,1,8,3:0:0:0:
24,94,111739,2,0,L|36:199,1,94.9999952316285,8|0,3:2|3:0,0:0:0:0:
83,269,112183,6,0,P|138:263|201:271,1,94.9999952316285,4|0,3:2|3:0,0:0:0:0:
269,290,112627,1,8,3:2:0:0:
269,290,112850,1,8,3:0:0:0:
325,213,113072,2,0,P|319:173|330:110,1,94.9999952316285,12|0,3:2|3:0,0:0:0:0:
368,291,113517,2,0,P|375:337|369:384,1,94.9999952316285,8|0,3:2|0:0,0:0:0:0:
505,222,113961,5,4,3:2:0:0:
505,222,114183,1,8,3:0:0:0:
505,222,114405,2,0,P|417:192|308:223,1,189.999990463257,8|8,3:2|3:0,0:0:0:0:
241,258,115072,1,8,3:0:0:0:
241,258,115294,2,0,L|126:244,1,94.9999952316285,8|0,3:2|3:0,0:0:0:0:
21,134,115739,6,0,P|67:140|105:168,1,94.9999952316285,4|0,3:2|3:0,0:0:0:0:
73,248,116183,1,8,3:2:0:0:
73,248,116405,1,8,3:0:0:0:
146,307,116627,2,0,P|199:296|244:301,1,94.9999952316285,12|0,3:2|3:0,0:0:0:0:
313,240,117072,1,8,3:2:0:0:
313,240,117295,1,8,3:2:0:0:
381,306,117517,6,0,P|351:251|410:125,1,189.999990463257,4|8,3:2|3:2,0:0:0:0:
438,57,118183,1,0,3:0:0:0:
438,57,118406,2,0,L|321:46,1,94.9999952316285,4|8,3:2|3:0,0:0:0:0:
277,115,118850,2,0,L|81:137,1,189.999990463257,12|4,3:2|3:2,0:0:0:0:
31,212,119517,5,0,3:0:0:0:
31,212,119739,2,0,P|30:263|21:308,1,94.9999952316285,8|0,3:2|3:0,0:0:0:0:
122,350,120183,2,0,P|113:303|112:255,1,94.9999952316285,4|8,3:2|3:0,0:0:0:0:
177,186,120628,2,0,P|228:200|343:135,1,189.999990463257,12|4,3:2|3:2,0:0:0:0:
388,54,121295,5,0,3:0:0:0:
388,54,121517,2,0,L|489:44,1,94.9999952316285,8|0,3:2|3:0,0:0:0:0:
341,137,121961,2,0,L|240:127,1,94.9999952316285,8|8,3:0|3:0,0:0:0:0:
418,199,122406,2,0,L|519:189,1,94.9999952316285,8|0,3:2|3:0,0:0:0:0:
343,266,122850,6,0,B|231:272|278:231|155:237,1,189.999990463257,4|8,3:2|3:2,0:0:0:0:
66,263,123517,1,0,3:0:0:0:
66,263,123739,2,0,P|61:212|51:167,1,94.9999952316285,8|8,3:0|3:2,0:0:0:0:
35,147,124072,1,8,3:2:0:0:
35,147,124183,2,0,P|40:96|50:51,1,94.9999952316285,4|8,3:2|3:2,0:0:0:0:
70,30,124517,1,8,3:2:0:0:
70,30,124628,6,0,P|171:45|268:12,1,189.999990463257,4|8,3:2|3:2,0:0:0:0:
343,52,125295,1,0,3:0:0:0:
343,52,125517,2,0,P|334:108|337:154,1,94.9999952316285,4|0,3:2|3:0,0:0:0:0:
411,203,125961,2,0,P|364:181|236:225,1,189.999990463257,12|4,3:2|3:2,0:0:0:0:
170,287,126628,5,0,3:0:0:0:
170,287,126850,2,0,L|51:275,1,94.9999952316285,8|0,3:2|3:0,0:0:0:0:
243,341,127295,2,0,L|362:329,1,94.9999952316285,8|8,3:0|3:0,0:0:0:0:
411,272,127739,2,0,L|530:284,1,94.9999952316285,12|0,3:2|0:0,0:0:0:0:
335,212,128183,6,0,P|329:163|340:113,1,94.9999952316285,4|0,3:2|3:0,0:0:0:0:
242,46,128628,2,0,P|251:93|245:140,1,94.9999952316285,8|0,3:2|3:0,0:0:0:0:
196,221,129072,1,8,3:0:0:0:
196,221,129295,1,8,3:0:0:0:
258,292,129517,2,0,P|322:278|391:285,1,94.9999952316285,8|0,3:2|3:0,0:0:0:0:
426,221,129961,6,0,L|435:120,1,94.9999952316285,12|0,3:2|3:0,0:0:0:0:
444,31,130406,1,8,3:2:0:0:
444,31,130628,1,8,3:2:0:0:
364,82,130850,6,0,L|263:91,1,94.9999952316285,12|0,3:2|3:0,0:0:0:0:
209,164,131295,2,2,L|43:149,1,151.999992370606,0|0,0:0|0:0,0:0:0:0:
187,115,137072,6,0,L|309:102,1,113.999990798951,0|0,0:0|0:0,0:0:0:0:
300,217,137961,2,2,L|180:204,1,113.999990798951,0|0,0:0|0:0,0:0:0:0:
11,330,138850,6,0,P|23:283|8:218,1,94.9999952316285,4|0,3:2|3:0,0:0:0:0:
84,170,139295,2,0,P|131:172|181:155,1,94.9999952316285,8|0,3:2|3:0,0:0:0:0:
264,123,139739,1,8,3:0:0:0:
264,123,139961,1,8,3:0:0:0:
324,196,140183,2,0,P|371:194|421:211,1,94.9999952316285,12|0,3:2|0:0,0:0:0:0:
424,303,140628,6,0,L|415:199,1,94.9999952316285,8|0,3:0|3:0,0:0:0:0:
333,101,141073,2,0,L|324:195,1,94.9999952316285,8|0,3:2|3:0,0:0:0:0:
317,290,141517,1,8,3:0:0:0:
317,290,141739,1,8,3:0:0:0:
222,283,141961,2,0,L|243:57,1,189.999990463257,12|8,3:2|3:0,0:0:0:0:
175,40,142628,5,0,3:0:0:0:
175,40,142850,2,0,P|125:37|71:56,1,94.9999952316285,8|0,3:2|3:0,0:0:0:0:
32,130,143294,1,8,3:0:0:0:
32,130,143517,1,8,3:0:0:0:
112,180,143739,1,8,3:2:0:0:
112,180,143961,1,0,3:0:0:0:
36,238,144183,6,0,P|44:282|28:352,1,94.9999952316285,4|0,3:2|3:0,0:0:0:0:
123,370,144628,1,8,3:2:0:0:
123,370,144850,1,8,3:0:0:0:
193,306,145072,2,0,P|185:259|193:212,1,94.9999952316285,12|0,3:2|3:0,0:0:0:0:
279,98,145517,2,0,P|288:145|281:192,1,94.9999952316285,8|0,3:2|3:0,0:0:0:0:
283,335,145961,6,0,P|332:334|377:321,1,94.9999952316285,4|0,3:2|3:0,0:0:0:0:
459,247,146406,2,0,P|413:234|366:233,1,94.9999952316285,8|0,3:2|3:0,0:0:0:0:
271,233,146850,1,8,3:0:0:0:
271,233,147072,1,8,3:0:0:0:
196,292,147295,2,0,P|150:304|103:305,1,94.9999952316285,12|0,3:2|0:0,0:0:0:0:
193,205,147739,6,0,L|200:104,1,94.9999952316285,8|0,3:0|3:0,0:0:0:0:
315,65,148183,2,0,L|321:159,1,94.9999952316285,8|0,3:2|3:0,0:0:0:0:
334,254,148628,1,8,3:0:0:0:
334,254,148850,1,8,3:0:0:0:
274,328,149073,2,0,P|202:295|81:313,1,189.999990463257,12|8,3:2|3:0,0:0:0:0:
51,221,149739,5,0,3:0:0:0:
51,221,149961,2,0,P|56:173|43:122,1,94.9999952316285,8|0,3:2|3:0,0:0:0:0:
108,56,150405,1,8,3:0:0:0:
108,56,150628,1,8,3:0:0:0:
190,102,150850,1,8,3:2:0:0:
190,102,151072,1,0,3:0:0:0:
264,42,151295,6,0,P|309:38|375:59,1,94.9999952316285,4|0,3:2|3:0,0:0:0:0:
423,117,151739,1,8,3:2:0:0:
423,117,151961,1,0,3:0:0:0:
458,204,152183,2,0,L|453:322,1,94.9999952316285,12|0,3:2|3:0,0:0:0:0:
365,335,152628,2,0,L|247:330,1,94.9999952316285,8|8,3:2|3:2,0:0:0:0:
239,332,152961,1,8,3:2:0:0:
239,332,153072,6,0,L|121:337,1,94.9999952316285,4|0,3:2|3:0,0:0:0:0:
108,247,153517,2,0,L|202:251,1,94.9999952316285,8|0,3:2|3:0,0:0:0:0:
298,254,153962,1,8,3:0:0:0:
298,254,154184,1,8,3:0:0:0:
368,190,154406,2,0,P|367:143|382:98,1,94.9999952316285,12|0,3:2|0:0,0:0:0:0:
433,254,154850,6,0,L|442:354,1,94.9999952316285,8|0,3:0|3:0,0:0:0:0:
289,348,155295,2,0,L|297:253,1,94.9999952316285,8|0,3:2|3:0,0:0:0:0:
368,183,155740,1,8,3:0:0:0:
368,183,155962,1,8,3:0:0:0:
291,125,156183,2,0,B|183:155|223:90|100:118,1,189.999990463257,12|8,3:2|3:0,0:0:0:0:
42,187,156850,5,0,3:0:0:0:
42,187,157073,2,0,P|31:245|37:287,1,94.9999952316285,8|0,3:2|3:0,0:0:0:0:
100,349,157517,1,8,3:0:0:0:
100,349,157740,1,8,3:0:0:0:
177,293,157962,1,8,3:2:0:0:
177,293,158184,1,8,3:0:0:0:
236,366,158406,6,0,P|286:353|344:353,1,94.9999952316285,4|0,3:2|3:0,0:0:0:0:
424,352,158851,1,8,3:2:0:0:
424,352,159073,1,8,3:0:0:0:
446,259,159296,6,0,P|434:206|435:161,1,94.9999952316285,12|0,3:2|3:0,0:0:0:0:
352,88,159739,2,0,P|352:135|341:182,1,94.9999952316285,8|8,3:2|3:2,0:0:0:0:
272,246,160183,6,0,L|158:258,2,94.9999952316285,8|8|0,3:2|3:0|0:0,0:0:0:0:
352,88,161072,2,0,L|466:100,2,94.9999952316285,8|8|0,3:2|3:0|0:0,0:0:0:0:
169,35,161961,6,0,P|124:37|69:61,1,94.9999952316285,4|0,3:2|3:0,0:0:0:0:
27,135,162406,1,8,3:2:0:0:
27,135,162628,1,8,3:0:0:0:
112,176,162850,2,0,L|125:273,1,94.9999952316285,0|0,3:2|3:0,0:0:0:0:
189,143,163295,2,0,L|202:240,1,94.9999952316285,8|0,3:2|0:0,0:0:0:0:
307,322,163739,6,0,P|257:313|198:324,2,94.9999952316285,8|8|0,3:2|3:0|0:0,0:0:0:0:
419,168,164628,2,0,P|465:173|512:164,2,94.9999952316285,8|8|0,3:2|3:0|0:0,0:0:0:0:
245,89,165517,6,0,L|144:97,1,94.9999952316285,4|0,3:2|3:0,0:0:0:0:
68,145,165961,1,8,3:2:0:0:
68,145,166183,1,8,3:0:0:0:
6,218,166406,2,0,L|-2:319,1,94.9999952316285,12|0,3:2|3:0,0:0:0:0:
86,347,166850,2,0,L|180:339,1,94.9999952316285,8|0,3:2|0:0,0:0:0:0:
269,243,167295,5,4,3:2:0:0:
269,243,167517,1,8,3:0:0:0:
269,243,167740,2,0,B|161:256|200:208|71:226,1,189.999990463257,8|8,3:2|3:0,0:0:0:0:
29,145,168406,1,8,3:0:0:0:
29,145,168629,2,0,P|40:98|37:41,1,94.9999952316285,8|0,3:2|3:0,0:0:0:0:
126,14,169073,6,0,L|236:8,1,94.9999952316285,4|0,3:2|3:0,0:0:0:0:
308,44,169517,1,8,3:2:0:0:
308,44,169740,1,8,3:0:0:0:
390,90,169962,2,0,P|386:136|395:194,1,94.9999952316285,12|0,3:2|3:0,0:0:0:0:
442,261,170406,1,8,3:2:0:0:
470,355,170628,1,8,3:2:0:0:
470,355,170739,1,8,3:2:0:0:
470,355,170850,1,4,3:2:0:0:
376,324,171072,5,8,3:0:0:0:
376,324,171295,2,0,P|288:294|182:333,1,189.999990463257,8|8,3:2|3:0,0:0:0:0:
118,267,171962,1,8,3:0:0:0:
118,267,172184,2,0,P|132:213|121:150,1,94.9999952316285,8|0,3:2|3:0,0:0:0:0:
233,60,172629,6,0,P|230:113|248:174,1,94.9999952316285,12|0,3:2|3:0,0:0:0:0:
296,228,173073,1,8,3:2:0:0:
296,228,173295,1,8,3:0:0:0:
369,288,173517,2,0,L|478:277,1,94.9999952316285,12|0,3:2|0:0,0:0:0:0:
282,320,173961,6,0,L|64:298,1,189.999990463257,12|0,3:2|0:0,0:0:0:0:
