osu file format v14

[General]
AudioFilename: audio.mp3
AudioLeadIn: 0
PreviewTime: 184
Countdown: 0
SampleSet: Soft
StackLeniency: 0.5
Mode: 0
LetterboxInBreaks: 0
WidescreenStoryboard: 0

[Editor]
Bookmarks: 27869,34425,58961,66072,160425,175203
DistanceSpacing: 1.8
BeatDivisor: 4
GridSize: 16
TimelineZoom: 0.8

[Metadata]
Title:Monster
TitleUnicode:Monster
Artist:Skillet
ArtistUnicode:Skillet
Creator:Testo
Version:Extra
Source:
Tags:Awake alternative christian music mirash
BeatmapID:1559384
BeatmapSetID:738909

[Difficulty]
HPDrainRate:6
CircleSize:4
OverallDifficulty:8
ApproachRate:9
SliderMultiplier:3.39999990463257
SliderTickRate:1

[Events]
//Background and Video events
0,0,"berserk.jpg",0,0
//Break Periods
2,66161,70695
2,131939,136472
//Storyboard Layer 0 (Background)
//Storyboard Layer 1 (Fail)
//Storyboard Layer 2 (Pass)
//Storyboard Layer 3 (Foreground)
//Storyboard Sound Samples

[TimingPoints]
184,444.444444444444,4,2,1,40,1,0
1517,-500,4,2,1,40,0,0
3295,-500,4,2,1,40,0,0
3739,-100,4,2,1,40,0,0
5072,-500,4,2,1,40,0,0
5183,-333.333333333333,4,2,1,40,0,0
7295,-200,4,2,1,50,0,0
14406,-200,4,2,1,50,0,0
28628,-200,4,2,1,50,0,0
33961,-142.857142857143,4,2,1,50,0,0
34295,-142.857142857143,4,2,1,10,0,0
34406,-142.857142857143,4,2,1,50,0,0
34739,-142.857142857143,4,2,1,10,0,0
34850,-142.857142857143,4,2,1,50,0,0
35739,-200,4,2,1,50,0,0
41072,-142.857142857143,4,2,1,50,0,0
41406,-142.857142857143,4,2,1,10,0,0
41517,-142.857142857143,4,2,1,50,0,0
41850,-142.857142857143,4,2,1,10,0,0
41961,-142.857142857143,4,2,1,50,0,0
42295,-142.857142857143,4,2,1,10,0,0
42406,-142.857142857143,4,2,1,50,0,0
42739,-142.857142857143,4,2,1,10,0,0
42850,-142.857142857143,4,2,1,50,0,0
44628,-100,4,2,1,65,0,1
46295,-100,4,2,1,10,0,1
46406,-100,4,2,1,65,0,1
48073,-100,4,2,1,10,0,1
48184,-100,4,2,1,65,0,1
49961,-83.3333333333333,4,2,1,60,0,1
51740,-100,4,2,1,60,0,1
53406,-100,4,2,1,10,0,1
53517,-100,4,2,1,65,0,1
55184,-100,4,2,1,10,0,1
55295,-100,4,2,1,65,0,1
57072,-83.3333333333333,4,2,1,60,0,1
58851,-100,4,2,1,60,0,1
65961,-200,4,2,1,50,0,0
71295,-200,4,2,1,50,0,0
78406,-142.857142857143,4,2,1,50,0,0
78739,-142.857142857143,4,2,1,10,0,0
78850,-142.857142857143,4,2,1,50,0,0
79184,-142.857142857143,4,2,1,10,0,0
79295,-142.857142857143,4,2,1,50,0,0
80184,-200,4,2,1,50,0,0
85517,-142.857142857143,4,2,1,50,0,0
85850,-142.857142857143,4,2,1,10,0,0
85961,-142.857142857143,4,2,1,50,0,0
86295,-142.857142857143,4,2,1,10,0,0
86406,-142.857142857143,4,2,1,50,0,0
86739,-142.857142857143,4,2,1,10,0,0
86850,-142.857142857143,4,2,1,50,0,0
87184,-142.857142857143,4,2,1,10,0,0
87295,-142.857142857143,4,2,1,50,0,0
89072,-100,4,2,1,65,0,1
90739,-100,4,2,1,10,0,1
90850,-100,4,2,1,65,0,1
92517,-100,4,2,1,10,0,1
92628,-100,4,2,1,65,0,1
94406,-83.3333333333333,4,2,1,65,0,1
96183,-100,4,2,1,65,0,1
97850,-100,4,2,1,10,0,1
97961,-100,4,2,1,65,0,1
99628,-100,4,2,1,10,0,1
99739,-100,4,2,1,65,0,1
101517,-83.3333333333333,4,2,1,65,0,1
103295,-100,4,2,1,65,0,1
104961,-100,4,2,1,10,0,1
105073,-100,4,2,1,65,0,1
106739,-100,4,2,1,10,0,1
106850,-100,4,2,1,65,0,1
108628,-83.3333333333333,4,2,1,65,0,1
110406,-100,4,2,1,65,0,1
117517,-100,4,2,1,65,0,0
129961,-83.3333333333333,4,2,1,65,0,0
131295,-500,4,2,1,40,0,0
138850,-100,4,2,1,65,0,1
140517,-100,4,2,1,10,0,1
140628,-100,4,2,1,65,0,1
142295,-100,4,2,1,10,0,1
142406,-100,4,2,1,65,0,1
144183,-83.3333333333333,4,2,1,65,0,1
145961,-100,4,2,1,65,0,1
147628,-100,4,2,1,10,0,1
147739,-100,4,2,1,65,0,1
149406,-100,4,2,1,10,0,1
149517,-100,4,2,1,65,0,1
151295,-83.3333333333333,4,2,1,65,0,1
153072,-100,4,2,1,65,0,1
154739,-100,4,2,1,10,0,1
154850,-100,4,2,1,65,0,1
156517,-100,4,2,1,10,0,1
156628,-100,4,2,1,65,0,1
158406,-83.3333333333333,4,2,1,65,0,1
160184,-100,4,2,1,65,0,1
174406,-100,4,2,1,20,0,0

[Colours]
Combo1 : 0,91,183
Combo2 : 0,106,53
Combo3 : 187,187,0
Combo4 : 183,0,123
Combo5 : 89,0,179
Combo6 : 164,0,33

[HitObjects]
117,194,184,5,0,0:0:0:0:
173,131,406,1,0,0:0:0:0:
256,128,628,1,0,0:0:0:0:
317,184,850,1,2,0:0:0:0:
317,184,1295,5,0,0:0:0:0:
320,188,1517,2,2,L|315:259,1,67.9999980926514,0|0,0:0|0:0,0:0:0:0:
274,330,2183,1,0,0:0:0:0:
189,323,2406,1,0,0:0:0:0:
238,253,2628,1,2,0:0:0:0:
238,253,3072,5,0,0:0:0:0:
234,256,3295,2,2,P|232:220|222:174,1,67.9999980926514,0|0,0:0|0:0,0:0:0:0:
181,116,3961,1,0,0:0:0:0:
159,33,4183,1,0,0:0:0:0:
241,51,4406,1,2,0:0:0:0:
238,253,4850,5,0,0:0:0:0:
234,256,5072,2,2,P|232:220|226:194,1,50.9999985694885,0|0,0:0|0:0,0:0:0:0:
134,134,5517,6,2,P|136:182|123:253,1,101.999994026184,0|0,0:0|0:0,0:0:0:0:
383,235,6406,2,2,P|376:184|378:134,1,101.999994026184,0|0,0:0|0:0,0:0:0:0:
126,235,7295,5,0,3:0:0:0:
216,191,7517,1,2,0:0:0:0:
209,290,7739,1,0,3:0:0:0:
133,136,7961,2,0,L|45:126,1,84.9999976158143,2|0,0:0|3:0,0:0:0:0:
216,191,8406,5,2,0:0:0:0:
219,196,8628,2,0,L|395:176,1,169.999995231629,0|0,3:0|3:0,0:0:0:0:
465,327,9295,1,2,0:0:0:0:
380,287,9517,1,0,3:0:0:0:
309,354,9739,2,0,P|269:341|209:343,1,84.9999976158143,2|0,0:0|3:0,0:0:0:0:
68,303,10183,5,2,0:0:0:0:
72,299,10406,2,0,P|90:224|52:113,1,169.999995231629,0|0,3:0|3:0,0:0:0:0:
165,19,11072,1,2,0:0:0:0:
147,107,11295,1,0,3:0:0:0:
233,80,11517,2,0,P|274:85|334:73,1,84.9999976158143,2|0,0:0|3:0,0:0:0:0:
436,183,11961,5,2,0:0:0:0:
360,284,12183,2,0,P|323:293|271:320,1,84.9999976158143,0|0,3:0|0:0,0:0:0:0:
433,188,12628,2,0,B|345:212|367:158|261:177,4,169.999995231629,0|0|0|0|4,3:0|3:0|3:0|3:0|3:2,0:0:0:0:
110,351,14628,5,2,0:0:0:0:
135,265,14850,1,0,3:0:0:0:
75,197,15072,1,2,0:0:0:0:
135,265,15295,2,0,P|175:251|239:247,1,84.9999976158143,0|2,3:0|0:0,0:0:0:0:
288,306,15739,6,0,P|251:259|295:145,1,169.999995231629,8|0,3:2|3:0,0:0:0:0:
435,108,16406,1,2,0:0:0:0:
339,80,16628,1,0,3:0:0:0:
371,173,16850,1,2,0:0:0:0:
274,157,17072,2,0,P|235:144|170:146,1,84.9999976158143,0|2,3:0|0:0,0:0:0:0:
44,255,17517,6,0,B|139:214|129:269|220:226,1,169.999995231629,8|0,3:2|3:0,0:0:0:0:
407,262,18183,1,2,0:0:0:0:
316,238,18406,1,0,3:0:0:0:
382,172,18628,1,2,0:0:0:0:
338,326,18850,2,0,P|273:342|236:340,1,84.9999976158143,0|2,3:0|0:0,0:0:0:0:
160,209,19295,5,8,3:2:0:0:
184,300,19517,1,0,0:0:0:0:
208,128,19739,6,0,P|273:144|374:98,4,169.999995231629,0|0|0|0|4,3:0|3:0|3:0|3:0|3:2,0:0:0:0:
59,61,21739,1,2,0:0:0:0:
73,153,21961,1,0,3:0:0:0:
91,244,22183,1,2,0:0:0:0:
164,361,22406,2,0,P|177:321|177:279,1,84.9999976158143,0|2,3:0|0:0,0:0:0:0:
91,244,22850,6,0,B|192:206|171:271|269:224,1,169.999995231629,8|0,3:2|3:0,0:0:0:0:
431,214,23517,1,2,0:0:0:0:
362,150,23739,1,0,3:0:0:0:
421,78,23961,1,2,0:0:0:0:
278,166,24183,2,0,P|230:176|178:147,1,84.9999976158143,0|2,3:0|0:0,0:0:0:0:
171,51,24628,6,0,P|240:84|275:197,1,169.999995231629,8|0,3:2|3:0,0:0:0:0:
179,342,25295,1,2,0:0:0:0:
218,257,25517,1,0,3:0:0:0:
266,336,25739,1,2,0:0:0:0:
135,273,25961,2,0,L|39:283,1,84.9999976158143,0|2,3:0|0:0,0:0:0:0:
266,336,26406,6,0,B|344:346|344:346|361:362|361:362|455:372,2,169.999995231629,8|0|0,3:2|3:0|3:0,0:0:0:0:
11,81,27739,5,8,3:2:0:0:
24,156,27850,1,8,3:2:0:0:
43,233,27961,1,0,3:0:0:0:
43,233,28072,1,0,3:0:0:0:
97,176,28183,6,0,P|161:203|252:157,1,169.999995231629,12|4,3:2|3:2,0:0:0:0:
463,137,28850,1,0,0:0:0:0:
362,105,29072,1,8,3:2:0:0:
476,120,29295,1,2,0:0:0:0:
406,270,29517,2,0,L|398:174,1,84.9999976158143,0|2,3:0|0:0,0:0:0:0:
252,95,29961,6,0,L|237:272,1,169.999995231629,8|0,3:2|3:0,0:0:0:0:
355,348,30628,1,2,0:0:0:0:
222,367,30850,1,8,3:2:0:0:
323,268,31072,1,2,0:0:0:0:
140,339,31295,2,0,P|98:323|41:321,1,84.9999976158143,0|2,3:0|0:0,0:0:0:0:
323,267,31739,6,0,P|399:233|484:232,1,169.999995231629,8|0,3:2|3:0,0:0:0:0:
242,239,32406,1,2,0:0:0:0:
113,165,32628,1,8,3:2:0:0:
196,152,32850,1,2,0:0:0:0:
67,319,33072,2,0,P|75:269|69:224,1,84.9999976158143,0|2,3:0|0:0,0:0:0:0:
146,87,33517,5,8,3:2:0:0:
267,113,33739,1,0,0:0:0:0:
410,223,33961,6,0,P|357:193|235:218,1,178.499989545823,0|0,3:0|0:0,0:0:0:0:
316,359,34406,2,0,P|368:328|407:209,1,178.499989545823,8|0,3:2|0:0,0:0:0:0:
324,101,34850,2,0,P|291:105|251:120,1,59.4999965152742,0|0,3:0|0:0,0:0:0:0:
168,246,35072,5,8,3:2:0:0:
176,171,35183,1,8,3:2:0:0:
127,114,35295,1,8,3:2:0:0:
104,291,35517,1,4,0:0:0:0:
205,96,35739,5,0,3:2:0:0:
327,106,35961,1,2,0:0:0:0:
317,228,36183,1,8,3:2:0:0:
195,218,36406,1,2,0:0:0:0:
397,322,36628,2,0,L|481:313,1,84.9999976158143,0|2,3:0|0:0,0:0:0:0:
333,120,37072,6,0,L|317:290,1,169.999995231629,8|0,3:2|3:0,0:0:0:0:
403,79,37739,1,2,0:0:0:0:
259,112,37961,1,8,3:2:0:0:
313,43,38183,1,2,0:0:0:0:
177,127,38406,2,0,P|133:129|76:107,1,84.9999976158143,0|2,3:0|0:0,0:0:0:0:
307,181,38850,6,0,P|351:179|470:268,1,169.999995231629,8|0,3:2|3:0,0:0:0:0:
259,112,39517,1,2,0:0:0:0:
150,210,39739,1,8,3:2:0:0:
177,127,39961,1,2,0:0:0:0:
266,243,40183,2,0,P|265:286|277:351,1,84.9999976158143,0|2,3:0|0:0,0:0:0:0:
171,138,40628,5,8,3:2:0:0:
112,276,40850,1,0,0:0:0:0:
411,305,41072,6,0,B|434:270|434:270|419:169|419:169|363:128,1,178.499989545823,4|0,3:2|0:0,0:0:0:0:
266,243,41517,2,0,B|283:280|283:280|379:318|379:318|442:290,1,178.499989545823,8|0,3:2|0:0,0:0:0:0:
209,176,41961,6,0,P|150:157|22:204,1,178.499989545823,0|0,3:0|0:0,0:0:0:0:
290,141,42406,2,0,P|349:160|477:113,1,178.499989545823,8|0,3:2|0:0,0:0:0:0:
171,121,42850,5,4,3:2:0:0:
215,373,43072,1,0,3:0:0:0:
188,35,43295,5,12,3:2:0:0:
145,252,43517,1,0,3:0:0:0:
171,121,43739,5,4,3:2:0:0:
198,195,43961,1,0,3:0:0:0:
284,108,44183,6,0,L|415:95,1,118.999993030548,8|0,3:2|3:0,0:0:0:0:
481,87,44517,1,0,3:0:0:0:
481,87,44628,6,0,P|423:160|414:250,1,169.999995231629,4|0,3:2|3:0,0:0:0:0:
321,348,44961,1,0,3:0:0:0:
248,341,45072,2,0,P|232:301|192:268,1,84.9999976158143,8|0,3:2|0:0,0:0:0:0:
178,154,45295,2,0,P|220:160|268:142,1,84.9999976158143,0|0,3:0|0:0,0:0:0:0:
133,227,45517,6,0,P|88:226|45:237,1,84.9999976158143,8|0,3:0|0:0,0:0:0:0:
248,341,45739,2,0,P|293:342|336:331,1,84.9999976158143,8|0,3:0|0:0,0:0:0:0:
429,56,45961,6,0,B|377:210|461:162|412:305,1,254.999992847443,12|0,3:2|0:0,0:0:0:0:
357,10,46406,6,0,P|276:41|201:0,1,169.999995231629,8|0,3:0|3:0,0:0:0:0:
138,113,46739,1,0,3:0:0:0:
142,190,46850,2,0,P|180:211|212:244,1,84.9999976158143,8|0,3:2|0:0,0:0:0:0:
40,139,47072,2,0,P|51:180|51:227,1,84.9999976158143,0|0,3:0|0:0,0:0:0:0:
211,89,47295,6,0,P|224:40|246:2,1,84.9999976158143,8|0,3:0|0:0,0:0:0:0:
361,169,47517,2,0,P|396:204|418:242,1,84.9999976158143,8|0,3:0|0:0,0:0:0:0:
255,318,47739,6,0,B|192:356|118:339|69:296|69:296|109:304|123:295,1,254.999992847443,12|0,3:2|0:0,0:0:0:0:
330,282,48183,6,0,P|408:277|493:338,1,169.999995231629,8|0,3:0|3:0,0:0:0:0:
479,204,48517,1,0,3:0:0:0:
405,182,48628,2,0,P|398:140|402:97,1,84.9999976158143,8|0,3:2|0:0,0:0:0:0:
235,76,48850,6,0,L|320:69,1,84.9999976158143,0|0,3:0|0:0,0:0:0:0:
194,205,49072,2,0,L|24:189,1,169.999995231629,8|8,3:0|3:0,0:0:0:0:
254,266,49406,5,0,3:0:0:0:
254,266,49517,2,0,L|338:258,1,84.9999976158143,12|0,3:2|0:0,0:0:0:0:
470,194,49739,2,0,L|386:187,1,84.9999976158143,8|0,3:0|0:0,0:0:0:0:
231,382,49961,6,0,P|253:318|180:197,1,203.999988052369,4|0,3:2|3:0,0:0:0:0:
34,164,50295,1,0,3:0:0:0:
95,219,50406,2,0,P|136:223|214:189,1,101.999994026184,8|0,3:2|0:0,0:0:0:0:
297,55,50628,2,0,P|256:51|176:77,1,101.999994026184,8|0,3:0|0:0,0:0:0:0:
95,219,50850,6,0,B|212:237|182:171|291:186,1,203.999988052369,12|0,3:2|3:0,0:0:0:0:
402,332,51183,1,0,3:0:0:0:
339,278,51295,2,0,P|325:227|401:94,1,203.999988052369,8|0,3:2|3:0,0:0:0:0:
302,353,51628,1,0,3:0:0:0:
302,353,51739,6,0,P|236:367|92:253,1,203.999988052369,4|0,3:2|3:0,0:0:0:0:
37,105,52072,1,0,3:0:0:0:
112,98,52183,2,0,P|152:111|190:132,1,84.9999976158143,8|0,3:2|0:0,0:0:0:0:
341,66,52406,2,0,P|309:94|272:116,1,84.9999976158143,0|0,3:0|0:0,0:0:0:0:
118,307,52628,6,0,P|165:287|224:287,1,84.9999976158143,8|0,3:0|0:0,0:0:0:0:
397,258,52850,2,0,P|354:252|316:234,1,84.9999976158143,8|0,3:0|0:0,0:0:0:0:
46,366,53072,6,0,P|93:250|64:128,1,254.999992847443,12|0,3:2|0:0,0:0:0:0:
170,48,53517,6,0,P|257:75|349:41,1,169.999995231629,8|0,3:0|3:0,0:0:0:0:
509,88,53850,1,0,3:0:0:0:
446,131,53961,2,0,P|435:171|437:221,1,84.9999976158143,8|0,3:2|0:0,0:0:0:0:
288,243,54183,2,0,P|258:213|213:190,1,84.9999976158143,0|0,3:0|0:0,0:0:0:0:
449,298,54406,6,0,L|356:279,1,84.9999976158143,8|0,3:0|0:0,0:0:0:0:
138,210,54628,2,0,L|231:191,1,84.9999976158143,8|0,3:0|0:0,0:0:0:0:
74,332,54850,6,0,B|94:235|94:235|128:202|128:202|149:95,1,254.999992847443,12|0,3:2|0:0,0:0:0:0:
162,349,55295,6,0,P|228:318|349:322,1,169.999995231629,8|0,3:0|3:0,0:0:0:0:
488,219,55628,1,0,3:0:0:0:
460,147,55739,2,0,P|418:157|349:151,1,84.9999976158143,8|0,3:2|0:0,0:0:0:0:
212,183,55961,6,0,P|256:192|323:179,1,84.9999976158143,0|0,3:0|0:0,0:0:0:0:
162,349,56183,2,0,P|65:332|-25:374,1,169.999995231629,8|8,3:0|3:0,0:0:0:0:
251,305,56517,1,0,3:0:0:0:
251,305,56628,2,0,P|295:296|362:309,1,84.9999976158143,12|0,3:2|0:0,0:0:0:0:
495,207,56850,2,0,P|457:182|419:125,1,84.9999976158143,8|0,3:0|0:0,0:0:0:0:
247,38,57072,6,0,P|250:100|151:223,1,203.999988052369,4|0,3:2|3:0,0:0:0:0:
29,298,57406,1,0,3:0:0:0:
71,228,57517,2,0,L|179:211,1,101.999994026184,8|0,3:2|0:0,0:0:0:0:
351,289,57739,2,0,L|243:306,1,101.999994026184,8|0,3:0|0:0,0:0:0:0:
101,146,57961,6,0,L|302:114,1,203.999988052369,12|0,3:2|3:0,0:0:0:0:
475,190,58295,1,0,3:0:0:0:
396,212,58406,2,0,P|351:153|354:14,1,203.999988052369,8|0,3:2|3:0,0:0:0:0:
456,277,58739,1,0,3:0:0:0:
456,277,58850,5,4,3:2:0:0:
372,292,59072,1,8,3:0:0:0:
327,365,59295,2,0,B|233:366|270:321|160:325,1,169.999995231629,8|0,3:2|3:0,0:0:0:0:
58,153,59739,5,8,3:0:0:0:
128,200,59961,1,8,3:0:0:0:
210,183,60183,2,0,B|304:184|267:139|377:143,1,169.999995231629,8|0,3:2|3:0,0:0:0:0:
146,360,60628,6,0,P|113:282|127:199,1,169.999995231629,4|0,3:2|3:0,0:0:0:0:
215,15,60961,1,0,3:0:0:0:
215,15,61072,2,0,P|222:60|222:106,1,84.9999976158143,8|0,3:2|0:0,0:0:0:0:
364,227,61295,2,0,P|364:184|371:142,1,84.9999976158143,8|0,3:0|0:0,0:0:0:0:
440,293,61517,6,0,P|382:268|256:306,1,169.999995231629,12|0,3:2|3:0,0:0:0:0:
226,365,61850,1,0,3:0:0:0:
226,365,61961,2,0,P|241:306|134:149,1,254.999992847443,8|0,3:2|3:0,0:0:0:0:
39,30,62406,5,4,3:2:0:0:
120,53,62628,1,8,3:0:0:0:
202,34,62850,2,0,P|291:18|391:30,1,169.999995231629,8|0,3:2|3:0,0:0:0:0:
454,159,63295,5,8,3:0:0:0:
373,136,63517,1,8,3:0:0:0:
291,155,63739,2,0,P|202:171|102:159,1,169.999995231629,8|0,3:2|3:0,0:0:0:0:
11,343,64183,6,0,B|114:307|96:363|210:317,1,169.999995231629,4|0,3:2|3:0,0:0:0:0:
419,351,64517,1,0,3:0:0:0:
419,351,64628,2,0,P|385:308|377:271,1,84.9999976158143,8|0,3:2|0:0,0:0:0:0:
291,155,64850,2,0,P|273:206|233:238,1,84.9999976158143,8|0,3:0|0:0,0:0:0:0:
79,43,65072,6,0,P|148:69|196:154,1,169.999995231629,12|0,3:2|3:0,0:0:0:0:
78,283,65406,1,0,3:0:0:0:
78,283,65517,2,0,P|41:162|78:42,1,254.999992847443,8|0,3:2|3:0,0:0:0:0:
149,329,65961,5,4,3:2:0:0:
213,177,71295,6,0,B|247:186|272:173|292:152|292:152|338:133|405:172,1,169.999995231629,0|0,3:0|3:0,0:0:0:0:
128,286,72183,1,8,3:2:0:0:
137,210,72295,1,8,3:2:0:0:
147,134,72406,1,0,3:0:0:0:
147,134,72517,1,0,3:0:0:0:
73,164,72628,6,0,L|271:140,1,169.999995231629,12|4,3:2|3:2,0:0:0:0:
412,218,73295,1,2,0:0:0:0:
324,172,73517,1,8,3:2:0:0:
407,114,73739,1,2,0:0:0:0:
241,143,73961,2,0,L|144:137,1,84.9999976158143,0|2,3:0|0:0,0:0:0:0:
317,306,74406,6,0,B|434:299|434:299|507:266,1,169.999995231629,8|0,3:2|3:0,0:0:0:0:
151,228,75072,1,2,0:0:0:0:
99,335,75295,1,8,3:2:0:0:
216,317,75517,1,2,0:0:0:0:
53,171,75739,2,0,P|63:215|63:268,1,84.9999976158143,0|2,3:0|0:0,0:0:0:0:
260,384,76183,6,0,P|261:341|327:203,1,169.999995231629,8|0,3:2|3:0,0:0:0:0:
473,88,76850,1,2,0:0:0:0:
352,146,77072,1,8,3:2:0:0:
246,80,77295,1,2,0:0:0:0:
130,226,77517,2,0,P|183:218|228:227,1,84.9999976158143,0|2,3:0|0:0,0:0:0:0:
56,286,77961,5,8,3:2:0:0:
81,151,78183,1,0,0:0:0:0:
213,222,78406,6,0,P|295:225|367:158,1,178.499989545823,0|0,3:0|0:0,0:0:0:0:
145,271,78850,2,0,B|129:243|125:212|142:180|142:180|114:145|121:114|138:65,1,178.499989545823,8|0,3:2|0:0,0:0:0:0:
219,312,79295,2,0,P|214:341|206:370,1,59.4999965152742,0|0,3:0|0:0,0:0:0:0:
60,275,79517,5,8,3:2:0:0:
145,271,79628,1,8,3:2:0:0:
213,222,79739,1,8,3:2:0:0:
374,348,79961,1,4,0:0:0:0:
451,240,80183,5,0,3:0:0:0:
374,132,80406,1,2,0:0:0:0:
297,240,80628,1,8,3:2:0:0:
374,348,80850,1,2,0:0:0:0:
264,139,81072,2,0,P|218:151|150:150,1,84.9999976158143,0|2,3:0|0:0,0:0:0:0:
442,180,81517,2,0,P|400:155|353:107,1,84.9999976158143,8|0,3:2|0:0,0:0:0:0:
259,38,81961,5,0,3:0:0:0:
180,153,82183,1,2,0:0:0:0:
337,288,82406,2,0,P|325:241|326:173,1,84.9999976158143,8|2,3:2|0:0,0:0:0:0:
184,143,82850,5,0,3:0:0:0:
105,344,83072,1,0,0:0:0:0:
0,243,83295,6,0,L|179:222,1,169.999995231629,8|0,3:2|3:0,0:0:0:0:
311,128,83961,1,2,0:0:0:0:
184,143,84183,1,8,3:2:0:0:
199,270,84406,1,2,0:0:0:0:
326,255,84628,2,0,L|430:242,1,84.9999976158143,0|2,3:0|0:0,0:0:0:0:
184,143,85072,5,8,3:2:0:0:
65,129,85295,1,0,0:0:0:0:
282,350,85517,6,0,P|282:265|243:158,1,178.499989545823,4|0,3:2|0:0,0:0:0:0:
89,114,85961,2,0,P|162:156|274:176,1,178.499989545823,8|0,3:2|0:0,0:0:0:0:
447,123,86406,6,0,P|373:165|300:252,1,178.499989545823,4|0,3:2|0:0,0:0:0:0:
475,296,86850,2,0,P|475:211|436:104,1,178.499989545823,8|0,3:2|0:0,0:0:0:0:
342,100,87295,5,4,3:2:0:0:
134,147,87517,1,0,0:0:0:0:
446,122,87739,5,12,3:2:0:0:
238,75,87961,1,0,0:0:0:0:
314,176,88183,5,4,3:2:0:0:
209,199,88406,1,0,0:0:0:0:
383,238,88628,5,8,3:2:0:0:
325,225,88739,1,0,3:0:0:0:
267,212,88850,1,0,3:0:0:0:
209,199,88961,1,0,3:0:0:0:
151,186,89072,6,0,P|180:265|169:348,1,169.999995231629,4|0,3:2|3:0,0:0:0:0:
105,124,89406,1,0,3:0:0:0:
180,112,89517,2,0,L|280:93,1,84.9999976158143,8|0,3:2|0:0,0:0:0:0:
411,158,89739,2,0,L|327:142,1,84.9999976158143,0|0,3:0|0:0,0:0:0:0:
451,308,89961,6,0,P|443:267|446:225,1,84.9999976158143,8|0,3:0|0:0,0:0:0:0:
333,58,90183,2,0,P|335:100|327:141,1,84.9999976158143,8|0,3:0|0:0,0:0:0:0:
224,322,90406,6,0,P|309:270|462:319,1,254.999992847443,12|0,3:2|0:0,0:0:0:0:
170,227,90850,6,0,P|111:210|-1:245,1,169.999995231629,8|0,3:0|3:0,0:0:0:0:
236,177,91183,1,0,3:0:0:0:
286,119,91295,2,0,P|291:79|282:30,1,84.9999976158143,8|0,0:0|0:0,0:0:0:0:
288,232,91517,2,0,P|320:256|367:273,1,84.9999976158143,0|0,3:0|0:0,0:0:0:0:
450,94,91739,6,0,P|410:105|341:113,1,84.9999976158143,8|0,3:0|0:0,0:0:0:0:
153,194,91961,2,0,P|193:183|262:175,1,84.9999976158143,8|0,3:0|0:0,0:0:0:0:
453,360,92183,6,0,P|387:360|211:274,1,254.999992847443,12|0,3:2|0:0,0:0:0:0:
91,111,92628,6,0,P|106:158|88:289,1,169.999995231629,8|0,3:0|3:0,0:0:0:0:
288,232,92961,1,0,3:0:0:0:
271,156,93072,2,0,P|273:111|293:66,1,84.9999976158143,8|0,0:0|0:0,0:0:0:0:
446,256,93295,6,0,P|403:263|349:251,1,84.9999976158143,0|0,3:0|0:0,0:0:0:0:
91,262,93517,2,0,B|136:245|179:251|221:285|221:285|167:304,1,169.999995231629,8|8,3:0|3:0,0:0:0:0:
33,192,93850,5,0,3:0:0:0:
33,192,93961,2,0,L|42:97,1,84.9999976158143,8|0,0:0|0:0,0:0:0:0:
182,3,94183,2,0,L|190:87,1,84.9999976158143,8|0,3:0|0:0,0:0:0:0:
291,246,94406,6,0,B|357:277|432:258|443:207|443:207|404:222,1,203.999988052369,4|0,3:2|3:0,0:0:0:0:
177,337,94739,1,0,3:0:0:0:
204,258,94850,2,0,P|210:221|188:155,1,101.999994026184,8|0,0:0|0:0,0:0:0:0:
62,40,95072,2,0,P|44:87|49:137,1,101.999994026184,8|0,3:0|0:0,0:0:0:0:
204,258,95295,6,0,B|215:221|212:171|171:134|171:134|140:142|121:165|97:233,1,203.999988052369,12|0,3:2|3:0,0:0:0:0:
260,319,95628,1,0,3:0:0:0:
329,355,95739,2,0,P|411:308|547:323,1,203.999988052369,8|0,3:2|3:0,0:0:0:0:
380,127,96072,1,0,3:0:0:0:
380,127,96183,6,0,P|327:128|245:51,1,169.999995231629,4|0,3:2|3:0,0:0:0:0:
87,42,96517,1,0,3:0:0:0:
50,109,96628,2,0,P|49:154|65:219,1,84.9999976158143,8|0,3:2|0:0,0:0:0:0:
202,233,96850,2,0,P|233:265|290:300,1,84.9999976158143,0|0,3:0|0:0,0:0:0:0:
380,127,97072,6,0,P|336:127|278:146,1,84.9999976158143,8|0,3:0|0:0,0:0:0:0:
162,62,97295,2,0,P|206:62|264:43,1,84.9999976158143,8|0,3:0|0:0,0:0:0:0:
460,0,97517,6,0,P|430:62|476:274,1,254.999992847443,12|0,3:2|0:0,0:0:0:0:
342,346,97961,6,0,B|249:369|276:315|165:334,1,169.999995231629,8|0,3:3|3:0,0:0:0:0:
103,224,98295,1,0,3:0:0:0:
168,183,98406,2,0,P|164:140|156:98,1,84.9999976158143,8|0,0:0|0:0,0:0:0:0:
316,169,98628,2,0,P|307:210|304:253,1,84.9999976158143,0|0,3:0|0:0,0:0:0:0:
389,57,98850,6,0,L|502:39,1,84.9999976158143,8|0,3:0|0:0,0:0:0:0:
217,43,99072,2,0,L|309:110,1,84.9999976158143,8|0,3:0|0:0,0:0:0:0:
60,44,99295,6,0,L|101:302,1,254.999992847443,12|0,3:2|0:0,0:0:0:0:
323,334,99739,6,0,P|245:307|166:334,1,169.999995231629,8|0,3:0|3:0,0:0:0:0:
387,291,100072,1,0,3:0:0:0:
425,225,100183,2,0,P|429:172|423:136,1,84.9999976158143,8|0,3:2|0:0,0:0:0:0:
226,228,100406,6,0,L|131:237,1,84.9999976158143,0|0,3:0|0:0,0:0:0:0:
227,54,100628,2,0,L|421:72,1,169.999995231629,8|8,3:0|3:0,0:0:0:0:
160,111,100961,5,0,3:0:0:0:
160,111,101072,2,0,L|65:120,1,84.9999976158143,8|0,3:2|0:0,0:0:0:0:
171,293,101295,2,0,L|231:219,1,84.9999976158143,8|0,3:0|0:0,0:0:0:0:
396,46,101517,6,0,P|433:109|402:263,1,203.999988052369,4|0,3:2|3:0,0:0:0:0:
272,163,101850,1,0,3:0:0:0:
308,89,101961,2,0,P|345:56|406:46,1,101.999994026184,8|0,3:2|0:0,0:0:0:0:
311,233,102183,2,0,P|321:281|299:339,1,101.999994026184,8|0,3:0|0:0,0:0:0:0:
195,161,102406,6,0,B|145:155|106:100|108:57|108:57|146:46|187:71,1,203.999988052369,12|0,3:2|3:0,0:0:0:0:
110,229,102739,1,0,3:0:0:0:
110,229,102850,2,0,P|64:234|6:257,1,101.999994026184,8|0,3:2|0:0,0:0:0:0:
224,349,103072,1,8,3:2:0:0:
323,366,103183,1,8,3:2:0:0:
420,336,103295,6,0,P|410:262|446:143,1,169.999995231629,4|0,3:2|3:0,0:0:0:0:
362,41,103628,1,0,3:0:0:0:
372,116,103739,2,0,P|332:145|285:156,1,84.9999976158143,8|0,3:2|0:0,0:0:0:0:
148,73,103961,2,0,P|193:93|226:128,1,84.9999976158143,0|0,3:0|0:0,0:0:0:0:
90,225,104183,6,0,P|47:240|1:240,1,84.9999976158143,8|0,3:0|0:0,0:0:0:0:
249,250,104406,2,0,P|292:235|338:235,1,84.9999976158143,8|0,3:0|0:0,0:0:0:0:
160,322,104628,6,0,B|111:176|197:221|142:56,1,254.999992847443,12|0,3:2|0:0,0:0:0:0:
262,358,105072,6,0,P|307:338|441:347,1,169.999995231629,8|0,3:0|3:0,0:0:0:0:
492,191,105406,1,0,3:0:0:0:
423,225,105517,2,0,P|384:221|331:186,1,84.9999976158143,8|0,3:2|0:0,0:0:0:0:
506,30,105739,2,0,L|500:117,1,84.9999976158143,0|0,3:0|0:0,0:0:0:0:
296,112,105961,6,0,P|332:91|374:86,1,84.9999976158143,8|0,3:0|0:0,0:0:0:0:
252,257,106183,2,0,L|165:251,1,84.9999976158143,8|0,3:0|0:0,0:0:0:0:
0,50,106406,6,0,B|103:44|103:44|139:56|139:56|273:46,1,254.999992847443,12|0,3:2|0:0,0:0:0:0:
421,143,106850,6,0,P|358:121|254:166,1,169.999995231629,8|0,3:0|3:0,0:0:0:0:
267,287,107183,1,0,3:0:0:0:
227,221,107295,2,0,P|186:208|134:211,1,84.9999976158143,8|0,3:2|0:0,0:0:0:0:
328,340,107517,6,0,P|370:340|410:327,1,84.9999976158143,0|0,3:0|0:0,0:0:0:0:
481,114,107739,2,0,P|454:147|458:270,1,169.999995231629,8|8,3:0|3:0,0:0:0:0:
414,70,108072,5,0,3:0:0:0:
414,70,108183,2,0,P|368:73|307:58,1,84.9999976158143,8|0,3:2|0:0,0:0:0:0:
178,140,108406,2,0,P|136:133|93:136,1,84.9999976158143,8|0,3:0|0:0,0:0:0:0:
286,339,108628,6,0,P|304:269|259:127,1,203.999988052369,4|0,3:2|3:0,0:0:0:0:
11,272,108961,1,0,3:0:0:0:
78,319,109072,2,0,L|186:302,1,101.999994026184,8|0,3:2|0:0,0:0:0:0:
372,159,109295,2,0,L|264:142,1,101.999994026184,8|0,3:0|0:0,0:0:0:0:
174,382,109517,6,0,B|271:367|271:367|291:382|291:382|404:362,1,203.999988052369,12|0,3:2|3:0,0:0:0:0:
449,175,109850,1,0,3:0:0:0:
372,159,109961,2,0,L|145:123,1,203.999988052369,8|0,3:2|3:0,0:0:0:0:
425,101,110295,1,0,3:0:0:0:
425,101,110406,5,4,3:2:0:0:
451,181,110628,1,8,3:0:0:0:
411,256,110850,2,0,P|354:277|234:238,1,169.999995231629,8|0,3:2|3:0,0:0:0:0:
45,319,111295,5,8,3:0:0:0:
19,239,111517,1,8,3:0:0:0:
59,163,111739,2,0,P|139:140|219:167,1,169.999995231629,8|0,3:2|3:0,0:0:0:0:
495,132,112183,6,0,P|414:122|338:38,1,169.999995231629,4|0,3:2|3:0,0:0:0:0:
220,15,112517,1,0,3:0:0:0:
220,15,112628,2,0,P|228:78|217:117,1,84.9999976158143,8|0,3:2|0:0,0:0:0:0:
241,282,112850,2,0,P|291:243|330:233,1,84.9999976158143,8|0,3:0|0:0,0:0:0:0:
159,158,113072,6,0,P|74:117|-36:120,1,169.999995231629,12|0,3:2|3:0,0:0:0:0:
235,189,113406,1,0,3:0:0:0:
235,189,113517,2,0,B|281:153|346:135|384:144|384:144|418:192|404:274,1,254.999992847443,8|0,3:2|0:0,0:0:0:0:
316,328,113961,5,4,3:2:0:0:
243,282,114183,1,8,3:0:0:0:
170,328,114406,2,0,B|100:337|100:337|74:327|74:327|-3:334,1,169.999995231629,8|0,3:2|3:0,0:0:0:0:
89,189,114850,5,8,3:0:0:0:
162,143,115072,1,8,3:0:0:0:
235,189,115295,2,0,B|305:198|305:198|331:188|331:188|408:195,1,169.999995231629,8|0,3:2|3:0,0:0:0:0:
499,384,115739,6,0,P|476:323|481:211,1,169.999995231629,4|0,3:2|3:0,0:0:0:0:
478,42,116072,1,0,3:0:0:0:
478,42,116183,2,0,P|438:57|385:54,1,84.9999976158143,8|0,3:2|0:0,0:0:0:0:
235,189,116406,2,0,P|275:174|328:177,1,84.9999976158143,8|0,3:0|0:0,0:0:0:0:
136,315,116628,6,0,P|152:243|120:116,1,169.999995231629,12|0,3:2|3:0,0:0:0:0:
8,100,116961,1,0,3:0:0:0:
8,100,117072,2,0,L|129:80,1,84.9999976158143,8|0,3:2|0:0,0:0:0:0:
235,189,117295,2,0,L|356:209,1,84.9999976158143,8|0,3:2|0:0,0:0:0:0:
511,66,117517,6,4,P|466:69|382:178,1,169.999995231629,4|0,3:2|3:0,3:3:0:0:
466,311,117850,1,0,3:0:0:0:
395,343,117961,2,0,P|344:340|301:328,1,84.9999976158143,8|0,3:2|0:0,0:0:0:0:
169,290,118183,2,0,P|210:280|252:278,1,84.9999976158143,0|0,3:0|0:0,0:0:0:0:
106,358,118406,6,0,P|124:297|73:185,1,169.999995231629,4|8,3:2|3:0,0:0:0:0:
182,76,118739,1,0,3:0:0:0:
201,149,118850,2,0,P|244:195|367:206,1,169.999995231629,12|0,3:2|3:0,0:0:0:0:
405,118,119183,5,0,3:0:0:0:
405,118,119295,2,0,L|380:298,1,169.999995231629,4|0,3:2|3:0,0:0:0:0:
236,349,119628,1,0,3:0:0:0:
170,310,119739,2,0,L|158:225,1,84.9999976158143,8|0,3:2|0:0,0:0:0:0:
327,135,119961,2,0,L|315:219,1,84.9999976158143,0|0,3:0|0:0,0:0:0:0:
98,112,120183,6,0,L|273:87,1,169.999995231629,4|8,3:2|3:0,0:0:0:0:
388,255,120517,1,0,3:0:0:0:
439,312,120628,2,0,B|340:288|372:355|253:327,1,169.999995231629,12|0,3:2|3:0,0:0:0:0:
108,273,120961,5,0,3:0:0:0:
108,273,121072,2,0,P|123:229|88:100,1,169.999995231629,4|0,3:2|3:0,0:0:0:0:
274,32,121406,1,0,3:0:0:0:
263,107,121517,2,0,P|265:156|284:210,1,84.9999976158143,8|0,3:2|0:0,0:0:0:0:
427,263,121739,2,0,P|383:240|327:229,1,84.9999976158143,0|0,3:0|0:0,0:0:0:0:
209,327,121961,6,0,P|250:300|287:257,1,84.9999976158143,8|0,3:0|0:0,0:0:0:0:
124,207,122183,2,0,P|125:256|144:310,1,84.9999976158143,8|0,3:0|0:0,0:0:0:0:
263,107,122406,5,8,3:2:0:0:
42,185,122628,1,0,3:0:0:0:
221,338,122850,6,0,B|316:306|305:358|409:319,1,169.999995231629,4|0,3:2|3:0,0:0:0:0:
505,232,123183,1,0,3:0:0:0:
457,171,123295,2,0,P|450:138|456:81,1,84.9999976158143,8|0,3:2|0:0,0:0:0:0:
263,107,123517,2,0,P|267:149|260:190,1,84.9999976158143,0|0,3:0|0:0,0:0:0:0:
114,69,123739,6,0,L|211:61,1,84.9999976158143,8|0,3:0|0:0,0:0:0:0:
329,279,123961,1,8,3:2:0:0:
244,272,124072,1,8,3:2:0:0:
163,301,124183,2,0,P|161:348|177:394,1,84.9999976158143,4|0,3:2|0:0,0:0:0:0:
396,225,124406,5,8,3:2:0:0:
403,140,124517,1,8,3:2:0:0:
374,59,124628,2,0,B|280:96|303:37|183:79,1,169.999995231629,4|0,3:2|3:0,0:0:0:0:
46,181,124961,1,0,3:0:0:0:
104,243,125072,2,0,P|147:240|207:217,1,84.9999976158143,8|0,3:2|0:0,0:0:0:0:
349,173,125295,2,0,P|308:160|266:157,1,84.9999976158143,0|0,3:0|0:0,0:0:0:0:
429,384,125517,6,0,P|414:269|430:197,1,169.999995231629,4|0,3:2|3:0,0:0:0:0:
466,81,125850,1,0,3:0:0:0:
393,106,125961,2,0,P|305:80|225:83,1,169.999995231629,12|0,3:2|3:0,0:0:0:0:
182,261,126295,5,0,3:0:0:0:
182,261,126406,2,0,B|200:221|187:166|153:134|153:134|126:187,1,169.999995231629,4|0,3:2|3:0,0:0:0:0:
241,328,126739,1,0,3:0:0:0:
323,346,126850,2,0,L|424:331,1,84.9999976158143,8|0,3:2|0:0,0:0:0:0:
365,157,127072,2,0,L|327:251,1,84.9999976158143,0|0,3:0|0:0,0:0:0:0:
507,287,127295,6,0,L|443:207,1,84.9999976158143,8|0,3:0|0:0,0:0:0:0:
238,358,127517,2,0,L|339:343,1,84.9999976158143,8|0,3:0|0:0,0:0:0:0:
494,144,127739,2,0,B|389:127|389:127|343:133|343:133|214:113,1,254.999992847443,12|0,3:2|0:0,0:0:0:0:
9,229,128183,6,0,P|56:227|102:207,1,84.9999976158143,4|0,3:2|0:0,0:0:0:0:
172,50,128406,2,0,P|150:91|144:141,1,84.9999976158143,0|0,3:0|0:0,0:0:0:0:
249,279,128628,2,0,P|223:239|183:209,1,84.9999976158143,8|0,3:2|3:0,3:3:0:0:
442,345,128850,6,0,P|445:290|466:239,1,84.9999976158143,0|0,3:0|0:0,0:0:0:0:
400,59,129072,2,0,P|345:56|294:35,1,84.9999976158143,8|0,3:0|0:0,0:0:0:0:
91,74,129295,2,0,P|88:129|67:180,1,84.9999976158143,8|0,3:0|0:0,0:0:0:0:
183,361,129517,2,0,P|254:341|365:358,1,169.999995231629,8|0,3:2|3:0,0:0:0:0:
512,120,129850,5,0,3:0:0:0:
450,173,129961,2,0,P|365:204|249:154,1,203.999988052369,12|0,3:2|3:0,0:0:0:0:
178,9,130295,5,0,3:0:0:0:
178,9,130406,2,0,P|198:67|194:138,1,101.999994026184,8|0,3:2|0:0,0:0:0:0:
103,260,130628,2,0,P|143:213|206:181,1,101.999994026184,8|0,3:2|0:0,0:0:0:0:
391,342,130850,6,0,P|334:268|353:143,1,203.999988052369,12|0,3:2|3:0,0:0:0:0:
482,8,131183,5,0,3:0:0:0:
482,8,131295,2,2,P|491:53|487:89,1,67.9999980926514,0|0,0:0|0:0,0:0:0:0:
71,105,137072,5,0,0:0:0:0:
71,105,137517,1,0,0:0:0:0:
49,187,137739,1,0,0:0:0:0:
87,264,137961,6,2,P|120:244|162:235,1,67.9999980926514,0|0,0:0|0:0,0:0:0:0:
87,264,138850,6,0,P|134:239|260:284,1,169.999995231629,4|0,3:2|3:0,0:0:0:0:
369,309,139183,1,0,3:0:0:0:
325,245,139295,2,0,P|321:194|336:134,1,84.9999976158143,8|0,3:2|0:0,0:0:0:0:
396,26,139517,2,0,P|401:67|397:110,1,84.9999976158143,0|0,3:0|0:0,0:0:0:0:
236,24,139739,6,0,L|356:7,1,84.9999976158143,8|0,3:0|0:0,0:0:0:0:
486,203,139961,2,0,L|366:186,1,84.9999976158143,8|0,3:0|0:0,0:0:0:0:
179,89,140183,6,0,B|228:232|144:184|196:338,1,254.999992847443,12|0,3:2|0:0,0:0:0:0:
422,349,140628,6,0,P|342:326|268:361,1,169.999995231629,8|0,3:0|3:0,0:0:0:0:
471,291,140961,1,0,3:0:0:0:
438,221,141072,2,0,P|440:173|454:128,1,84.9999976158143,8|0,3:2|0:0,0:0:0:0:
258,192,141295,2,0,P|298:217|330:252,1,84.9999976158143,0|0,3:0|0:0,0:0:0:0:
393,69,141517,6,0,P|344:81|296:78,1,84.9999976158143,8|0,3:0|0:0,0:0:0:0:
118,119,141739,2,0,P|167:107|215:110,1,84.9999976158143,8|0,3:0|0:0,0:0:0:0:
86,355,141961,6,0,B|103:297|106:236|59:187|59:187|0:194|-3:279,1,254.999992847443,12|0,3:2|0:0,0:0:0:0:
185,363,142406,6,0,P|267:370|356:302,1,169.999995231629,8|0,3:0|3:0,0:0:0:0:
358,169,142739,1,0,3:0:0:0:
335,242,142850,2,0,P|331:289|342:334,1,84.9999976158143,8|0,3:2|0:0,0:0:0:0:
501,129,143072,6,0,L|412:116,1,84.9999976158143,0|0,3:0|0:0,0:0:0:0:
184,184,143295,2,0,L|360:158,1,169.999995231629,8|8,3:0|3:0,0:0:0:0:
131,122,143628,5,0,3:0:0:0:
131,122,143739,2,0,L|42:109,1,84.9999976158143,8|0,3:2|0:0,0:0:0:0:
229,259,143961,2,0,L|318:246,1,84.9999976158143,0|0,3:0|0:0,0:0:0:0:
483,32,144183,6,0,P|425:57|416:207,1,203.999988052369,4|0,3:2|3:0,0:0:0:0:
470,302,144517,1,0,3:0:0:0:
409,357,144628,2,0,P|368:361|290:327,1,101.999994026184,8|0,3:2|0:0,0:0:0:0:
207,193,144850,2,0,P|248:189|328:215,1,101.999994026184,8|0,3:0|0:0,0:0:0:0:
409,357,145072,6,0,B|292:375|322:309|213:324,1,203.999988052369,12|0,3:2|3:0,0:0:0:0:
141,238,145406,1,0,3:0:0:0:
207,193,145517,2,0,P|218:148|166:-10,1,203.999988052369,8|0,3:2|3:0,0:0:0:0:
281,242,145850,1,0,3:0:0:0:
281,242,145961,6,0,B|377:264|351:208|460:230,1,169.999995231629,4|0,3:2|3:0,0:0:0:0:
220,301,146295,1,0,3:0:0:0:
149,331,146406,2,0,P|115:338|53:328,1,84.9999976158143,8|0,3:2|0:0,0:0:0:0:
281,242,146628,2,0,P|252:222|215:171,1,84.9999976158143,0|0,3:0|0:0,0:0:0:0:
406,43,146850,6,0,P|401:95|392:143,1,84.9999976158143,8|0,3:0|0:0,0:0:0:0:
142,211,147072,2,0,P|135:169|131:126,1,84.9999976158143,8|0,3:0|0:0,0:0:0:0:
395,287,147295,6,0,B|340:255|262:263|238:329|238:329|265:377|363:330,1,254.999992847443,12|0,3:2|0:0,0:0:0:0:
455,215,147739,6,0,P|442:152|475:42,1,169.999995231629,8|0,3:0|3:0,0:0:0:0:
280,12,148072,1,0,3:0:0:0:
238,76,148183,2,0,P|200:82|140:54,1,84.9999976158143,8|0,3:2|0:0,0:0:0:0:
240,259,148406,2,0,P|253:223|308:185,1,84.9999976158143,0|0,3:0|0:0,0:0:0:0:
80,169,148628,6,0,P|104:198|109:264,1,84.9999976158143,8|0,3:0|0:0,0:0:0:0:
321,267,148850,2,0,P|283:273|223:245,1,84.9999976158143,8|0,3:0|0:0,0:0:0:0:
423,54,149072,6,0,B|465:94|484:194|437:248|437:248|372:238|373:157,1,254.999992847443,12|0,3:2|0:0,0:0:0:0:
178,44,149517,6,0,L|376:29,1,169.999995231629,8|0,3:0|3:0,0:0:0:0:
145,116,149850,1,0,3:0:0:0:
95,174,149961,2,0,L|-4:166,1,84.9999976158143,8|0,3:2|0:0,0:0:0:0:
186,283,150183,6,0,P|182:225|171:189,1,84.9999976158143,0|0,3:0|0:0,0:0:0:0:
339,87,150406,2,0,P|329:128|368:262,1,169.999995231629,8|8,3:0|3:0,0:0:0:0:
282,27,150739,5,0,3:0:0:0:
282,27,150850,2,0,P|224:23|188:12,1,84.9999976158143,8|0,3:2|0:0,0:0:0:0:
419,104,151072,2,0,P|460:94|502:92,1,84.9999976158143,0|0,3:0|0:0,0:0:0:0:
314,293,151295,6,0,B|347:236|339:144|339:144|357:174|384:186,1,203.999988052369,4|0,3:2|3:0,0:0:0:0:
243,352,151628,1,0,3:0:0:0:
162,308,151739,2,0,P|110:304|56:322,1,101.999994026184,8|0,3:2|0:0,0:0:0:0:
176,76,151961,2,0,P|228:80|282:62,1,101.999994026184,0|0,3:0|0:0,0:0:0:0:
502,308,152183,6,0,P|382:268|299:304,1,203.999988052369,12|0,3:2|3:0,0:0:0:0:
459,145,152517,1,0,3:0:0:0:
459,145,152628,2,0,P|399:134|361:106,1,101.999994026184,8|0,3:2|0:0,0:0:0:0:
134,25,152850,1,8,3:2:0:0:
178,114,152961,1,8,3:2:0:0:
150,210,153072,6,0,B|125:250|135:296|166:326|166:326|197:332|264:300,1,169.999995231629,4|0,3:2|3:0,0:0:0:0:
381,287,153406,1,0,3:0:0:0:
308,264,153517,2,0,P|299:221|307:172,1,84.9999976158143,8|0,3:2|0:0,0:0:0:0:
369,27,153739,2,0,P|374:69|365:110,1,84.9999976158143,0|0,3:0|0:0,0:0:0:0:
159,124,153961,6,0,P|202:115|251:123,1,84.9999976158143,8|0,3:0|0:0,0:0:0:0:
391,267,154183,2,0,P|348:272|307:263,1,84.9999976158143,8|0,3:0|0:0,0:0:0:0:
100,47,154406,6,0,P|130:141|46:294,1,254.999992847443,12|0,3:2|0:0,0:0:0:0:
286,352,154850,6,0,P|264:282|308:154,1,169.999995231629,8|0,3:0|3:0,0:0:0:0:
372,74,155183,1,0,3:0:0:0:
301,103,155295,2,0,P|259:107|205:97,1,84.9999976158143,8|0,3:2|0:0,0:0:0:0:
410,188,155517,2,0,P|452:184|506:194,1,84.9999976158143,0|0,3:0|0:0,0:0:0:0:
271,273,155739,6,0,L|285:171,1,84.9999976158143,8|0,3:0|0:0,0:0:0:0:
484,21,155961,2,0,L|495:105,1,84.9999976158143,8|0,3:0|0:0,0:0:0:0:
182,353,156183,6,0,L|218:87,1,254.999992847443,12|0,3:2|0:0,0:0:0:0:
430,263,156628,6,0,P|373:244|265:277,1,169.999995231629,8|0,3:0|3:0,0:0:0:0:
134,162,156961,1,0,3:0:0:0:
205,189,157072,2,0,P|252:178|296:147,1,84.9999976158143,8|0,3:2|0:0,0:0:0:0:
435,43,157295,6,0,P|421:89|425:142,1,84.9999976158143,0|0,3:0|0:0,0:0:0:0:
493,313,157517,2,0,P|429:284|292:334,1,169.999995231629,8|8,3:0|3:0,0:0:0:0:
207,363,157850,5,0,3:0:0:0:
207,363,157961,2,0,P|163:370|112:358,1,84.9999976158143,8|0,3:2|0:0,0:0:0:0:
50,161,158183,2,0,P|94:154|145:166,1,84.9999976158143,8|0,3:0|0:0,0:0:0:0:
364,309,158406,6,0,B|378:187|321:229|343:83,1,203.999988052369,4|0,3:2|3:0,0:0:0:0:
505,54,158739,1,0,3:0:0:0:
437,115,158850,2,0,P|409:123|328:101,1,101.999994026184,8|0,3:2|0:0,0:0:0:0:
176,268,159072,2,0,P|204:260|285:282,1,101.999994026184,8|0,3:0|0:0,0:0:0:0:
76,39,159295,6,0,P|110:120|60:271,1,203.999988052369,12|0,3:2|3:0,0:0:0:0:
227,360,159628,1,0,3:0:0:0:
247,262,159739,1,8,3:2:0:0:
326,200,159850,1,8,3:2:0:0:
426,202,159961,1,8,3:2:0:0:
501,267,160072,1,8,3:2:0:0:
413,295,160183,5,8,3:2:0:0:
450,112,160406,1,8,3:0:0:0:
274,172,160628,1,0,0:0:0:0:
274,172,161072,5,8,3:2:0:0:
98,112,161295,1,8,3:0:0:0:
135,295,161517,1,0,0:0:0:0:
135,295,161961,6,0,P|230:295|316:235,1,169.999995231629,4|0,3:2|3:0,0:0:0:0:
489,151,162295,1,0,3:0:0:0:
436,209,162406,2,0,L|337:197,1,84.9999976158143,8|0,3:2|0:0,0:0:0:0:
237,127,162628,2,0,L|138:139,1,84.9999976158143,8|0,3:0|0:0,0:0:0:0:
60,287,162850,6,0,P|126:253|276:311,1,169.999995231629,0|0,3:2|3:0,0:0:0:0:
277,374,163183,1,0,3:0:0:0:
277,374,163295,2,0,B|298:219|216:280|241:83,1,254.999992847443,8|0,3:2|0:0,0:0:0:0:
413,1,163739,5,8,3:2:0:0:
235,46,163961,1,8,3:0:0:0:
363,178,164183,1,0,0:0:0:0:
363,178,164628,5,8,3:2:0:0:
185,223,164850,1,8,3:0:0:0:
313,355,165072,1,0,0:0:0:0:
313,355,165517,6,0,B|207:367|254:312|95:330,1,169.999995231629,4|0,3:2|3:0,0:0:0:0:
26,88,165850,1,0,3:0:0:0:
61,157,165961,2,0,P|118:172|166:163,1,84.9999976158143,8|0,3:2|0:0,0:0:0:0:
265,36,166183,2,0,P|223:77|207:123,1,84.9999976158143,8|0,3:0|0:0,0:0:0:0:
344,276,166406,6,0,P|328:219|222:187,1,169.999995231629,12|0,3:2|3:0,0:0:0:0:
419,175,166739,1,0,3:0:0:0:
419,175,166850,2,0,P|461:184|414:68,1,254.999992847443,8|0,3:2|0:0,0:0:0:0:
344,276,167295,5,4,3:2:0:0:
198,133,167517,1,8,3:0:0:0:
148,331,167739,2,0,P|147:254|66:176,1,169.999995231629,8|0,3:2|3:0,0:0:0:0:
349,53,168183,5,8,3:0:0:0:
253,225,168406,1,8,3:0:0:0:
478,183,168628,2,0,L|299:148,1,169.999995231629,8|0,3:2|3:0,0:0:0:0:
109,289,169072,6,0,P|203:277|258:212,1,169.999995231629,4|0,3:2|3:0,0:0:0:0:
270,9,169406,1,0,3:0:0:0:
213,60,169517,2,0,P|214:110|227:154,1,84.9999976158143,8|0,3:2|0:0,0:0:0:0:
365,31,169739,2,0,P|340:74|330:119,1,84.9999976158143,8|0,3:0|0:0,0:0:0:0:
475,67,169961,6,0,P|435:178|457:269,1,169.999995231629,12|0,3:2|3:0,0:0:0:0:
348,340,170295,1,0,3:0:0:0:
285,383,170406,2,0,P|246:388|191:374,1,84.9999976158143,8|0,3:2|0:0,0:0:0:0:
74,202,170628,1,8,3:2:0:0:
154,178,170739,1,8,3:2:0:0:
231,209,170850,5,4,3:2:0:0:
26,270,171072,1,8,3:0:0:0:
76,63,171295,2,0,P|159:78|256:38,1,169.999995231629,8|0,3:2|3:0,0:0:0:0:
410,165,171739,5,8,3:0:0:0:
231,209,171961,1,8,3:0:0:0:
359,343,172183,2,0,P|342:249|309:174,1,169.999995231629,8|0,3:2|3:0,0:0:0:0:
17,43,172628,6,0,B|111:7|92:65|214:27,1,169.999995231629,12|0,3:2|3:0,0:0:0:0:
150,253,172961,1,0,3:0:0:0:
87,210,173072,2,0,P|73:158|78:98,1,84.9999976158143,8|0,3:2|0:0,0:0:0:0:
32,295,173295,2,0,P|30:337|17:377,1,84.9999976158143,8|0,3:0|0:0,0:0:0:0:
155,279,173517,6,0,B|193:256|229:269|229:269|238:248|238:248|277:264|327:246,1,169.999995231629,12|0,3:2|0:0,0:0:0:0:
489,116,173961,6,0,B|420:74|355:98|355:98|339:60|339:60|261:98|179:56,1,339.999990463257,12|0,3:2|0:0,0:0:0:0:
