osu file format v14

[General]
AudioFilename: dank.mp3
AudioLeadIn: 0
PreviewTime: 49322
Countdown: 0
SampleSet: Normal
StackLeniency: 0.7
Mode: 0
LetterboxInBreaks: 1
WidescreenStoryboard: 0

[Editor]
DistanceSpacing: 1
BeatDivisor: 4
GridSize: 4
TimelineZoom: 1

[Metadata]
Title:Madness In Me
TitleUnicode:Madness In Me
Artist:Skillet
ArtistUnicode:Skillet
Creator:Reditum
Version:Frustrated
Source:
Tags:
BeatmapID:752331
BeatmapSetID:340126

[Difficulty]
HPDrainRate:6
CircleSize:4
OverallDifficulty:5
ApproachRate:7
SliderMultiplier:2
SliderTickRate:1

[Events]
//Background and Video events
0,0,"makise_kurisu_gate_steins_anime_hd-wallpaper-1332280.jpg",0,0
//Break Periods
2,65113,71572
2,118026,132044
//Storyboard Layer 0 (Background)
//Storyboard Layer 1 (Fail)
//Storyboard Layer 2 (Pass)
//Storyboard Layer 3 (Foreground)
//Storyboard Sound Samples

[TimingPoints]
11999.7269863224,472.44094488189,4,1,0,100,1,0
19558,-100,4,3,1,75,0,0
49795,-100,4,1,1,75,0,1
64913,-100,4,1,1,75,0,0
72472,-100,4,3,1,75,0,0
75424,-100,4,3,0,75,0,0
75661,-100,4,3,1,75,0,0
102708,-100,4,1,1,75,0,1
117826,-100,4,1,1,75,0,0
132944,-100,4,1,1,75,0,0
148062,-100,4,1,1,75,0,1
169755,-100,4,1,0,75,0,1
170228,-100,4,1,1,75,0,1
178298,-100,4,1,1,75,0,0

[Colours]
Combo1 : 128,128,128
Combo2 : 64,0,0
Combo3 : 168,134,134
Combo4 : 192,192,192

[HitObjects]
64,52,19558,6,0,P|108:40|168:60,2,100,4|0|4,0:0|0:0|0:0,0:0:0:0:
16,140,20267,1,0,0:0:0:0:
24,240,20503,2,0,P|100:252|144:224,1,100,4|0,0:0|0:0,0:0:0:0:
200,184,20976,1,4,0:0:0:0:
284,128,21212,2,0,P|340:108|464:200,1,200
464,272,21920,5,4,0:0:0:0:
392,340,22157,1,0,0:0:0:0:
304,296,22393,2,0,P|244:280|192:288,1,100,4|0,0:0|0:0,0:0:0:0:
136,356,22865,2,0,B|200:280|200:280|180:144,1,200,4|4,0:0|0:0,0:0:0:0:
120,104,23574,5,0,0:0:0:0:
196,40,23810,2,0,P|256:32|336:48,1,100,4|0,0:0|0:0,0:0:0:0:
384,80,24283,2,0,P|440:96|520:92,2,100,4|0|4,0:0|0:0|0:0,0:0:0:0:
444,0,24991,2,0,B|364:64|364:64|360:196,1,200
324,256,25700,5,4,0:0:0:0:
236,300,25936,1,0,0:0:0:0:
148,252,26172,2,0,P|80:236|32:248,1,100,4|0,0:0|0:0,0:0:0:0:
0,312,26645,2,0,P|24:240|8:156,1,150,8|0,1:3|0:0,0:0:0:0:
4,120,27117,6,0,P|52:96|112:104,1,100,4|0,0:0|0:0,0:0:0:0:
188,144,27590,1,8,0:0:0:0:
284,176,27826,1,0,0:0:0:0:
376,136,28062,2,0,B|392:84|392:84|380:32,2,100,4|0|8,0:0|0:0|0:0,0:0:0:0:
360,236,28771,2,0,B|328:292|272:280|272:280|208:264|176:324,1,200
100,352,29480,5,8,0:0:0:0:
24,284,29716,1,0,0:0:0:0:
96,212,29952,2,0,P|104:152|88:72,1,100,4|0,0:0|0:0,0:0:0:0:
32,40,30424,2,0,B|104:92|104:92|172:76,1,150,8|0,0:0|0:0,0:0:0:0:
212,68,30897,6,0,P|268:64|328:72,1,100,4|0,0:0|0:0,0:0:0:0:
420,180,31369,2,0,P|352:180|312:160,1,100,8|0,0:0|0:0,0:0:0:0:
477,121,31842,2,0,P|502:171|492:220,2,100,4|0|8,0:0|0:0|0:0,0:0:0:0:
344,32,32550,2,0,P|272:32|160:136,1,200
241,179,33259,6,0,P|173:107|33:103,1,200,8|4,0:0|0:0,0:0:0:0:
32,180,33968,1,8,0:0:0:0:
20,280,34204,2,0,B|84:288|108:268|108:268|144:248|176:256,1,150,8|0,0:0|0:0,0:0:0:0:
212,268,34676,5,4,0:1:0:0:
280,348,34913,1,2,0:0:0:0:
380,344,35149,1,8,0:0:0:0:
408,248,35385,1,2,0:0:0:0:
500,212,35621,2,0,B|508:152|508:152|496:104,2,100,4|2|8,0:0|0:0|0:0,0:0:0:0:
488,312,36330,2,0,P|408:336|356:240,1,200,2|2,0:0|0:0,0:0:0:0:
380,152,37039,5,8,0:0:0:0:
388,52,37275,1,2,0:0:0:0:
292,28,37511,2,0,P|216:24|168:40,1,100,4|2,0:0|0:0,0:0:0:0:
128,104,37983,2,0,P|112:180|64:240,1,150,8|8,0:0|0:0,0:0:0:0:
28,264,38456,6,0,P|36:320|68:352,1,100,4|2,0:1|0:0,0:0:0:0:
160,320,38928,2,0,P|216:308|280:320,1,100,8|2,0:0|0:0,0:0:0:0:
352,348,39401,2,0,P|412:364|460:348,1,100,4|2,0:0|0:0,0:0:0:0:
496,268,39873,1,8,0:0:0:0:
416,208,40109,2,0,P|404:148|440:44,1,150,2|0,0:0|0:0,0:0:0:0:
456,24,40582,6,0,P|400:8|336:28,1,100,2|8,0:0|0:0,0:0:0:0:
276,72,41054,2,0,P|220:96|172:92,1,100,2|4,0:0|0:0,0:0:0:0:
88,64,41527,2,0,P|32:60|-16:72,2,100,2|8|8,0:0|0:0|0:0,0:0:0:0:
132,88,42117,1,8,0:0:0:0:
140,136,42235,6,0,L|156:252,1,100
80,304,42708,2,0,L|64:188,1,100,4|0,0:2|0:0,0:0:0:0:
52,108,43180,1,4,0:0:0:0:
128,44,43417,1,2,0:0:0:0:
212,100,43653,1,8,0:0:0:0:
128,160,43889,2,0,P|164:208|312:188,1,200,2|2,0:0|0:0,0:0:0:0:
368,136,44598,6,0,P|424:120|472:128,1,100,8|2,0:0|0:0,0:0:0:0:
420,280,45070,2,0,P|352:288|312:272,1,100,4|2,0:0|0:0,0:0:0:0:
464,125,45543,2,0,P|500:173|500:261,1,150,8|8,0:0|0:0,0:0:0:0:
464,304,46015,5,4,0:0:0:0:
256,192,46251,12,2,48850,2:2:0:0:
256,24,49322,5,0,0:0:0:0:
256,124,49558,1,0,0:0:0:0:
180,188,49795,2,0,P|128:268|160:360,1,200,4|8,0:0|0:0,0:0:0:0:
256,328,50503,1,0,0:0:0:0:
351,360,50739,2,0,P|384:269|332:188,2,200,2|8|2,0:0|0:0|0:0,0:0:0:0:
160,300,52157,5,8,0:0:0:0:
64,268,52393,1,0,0:0:0:0:
0,192,52629,1,2,0:0:0:0:
64,116,52865,1,8,0:0:0:0:
160,84,53101,1,8,0:0:0:0:
356,40,53574,6,0,P|372:104|372:168,1,100,4|0,0:0|0:0,0:0:0:0:
312,216,54046,2,0,P|248:220|200:248,1,100,8|0,0:0|0:0,0:0:0:0:
144,304,54519,2,0,P|76:336|40:332,1,100,4|4,0:3|0:3,0:0:0:0:
12,244,54991,1,8,0:0:0:0:
8,144,55228,1,0,0:0:0:0:
28,48,55464,6,0,P|112:44|208:128,1,200,2|8,0:0|0:0,0:0:0:0:
256,196,56172,1,4,0:3:0:0:
311,112,56409,2,0,P|386:48|484:48,2,200,2|8|4,0:0|0:0|0:0,0:0:0:0:
128,196,57826,5,8,0:0:0:0:
176,284,58062,1,0,0:0:0:0:
256,224,58298,2,0,B|240:168|256:128|256:128|276:80|256:24,2,200,2|8|2,0:0|0:0|0:0,0:0:0:0:
404,356,59716,5,8,0:0:0:0:
336,280,59952,1,0,0:0:0:0:
256,224,60188,1,2,0:0:0:0:
176,280,60424,1,8,0:0:0:0:
108,356,60660,1,8,0:0:0:0:
12,180,61133,6,0,P|0:116|24:72,1,100,4|0,0:0|0:0,0:0:0:0:
96,28,61606,2,0,P|152:44|216:36,1,100,8|0,0:0|0:0,0:0:0:0:
292,24,62078,2,0,P|352:20|408:32,1,100,4|4,3:0|3:0,0:0:0:0:
472,88,62550,2,0,P|472:144|392:196,1,150,8|8,0:0|0:0,0:0:0:0:
352,192,63023,5,4,0:0:0:0:
256,192,63259,12,4,64913,0:0:0:0:
40,52,72472,6,0,P|144:56|220:136,1,200,4|4,0:0|0:0,0:0:0:0:
168,312,73417,2,0,P|248:328|360:272,1,200,4|4,0:0|0:0,0:0:0:0:
444,244,74125,2,0,P|328:268|284:208,1,200
300,116,74834,6,0,P|248:84|200:88,1,100,4|0,0:0|0:0,0:0:0:0:
124,132,75306,2,0,P|60:168|8:172,1,100,4|8,0:0|0:0,0:0:0:0:
24,72,75779,2,0,L|16:284,1,200,4|4,0:0|0:0,0:0:0:0:
92,336,76487,5,0,0:0:0:0:
188,308,76724,2,0,P|236:300|304:312,1,100,4|0,0:0|0:0,0:0:0:0:
380,344,77196,1,4,0:0:0:0:
480,332,77432,1,0,0:0:0:0:
496,232,77669,1,4,0:0:0:0:
396,240,77905,2,0,P|312:200|320:88,1,200
344,8,78613,6,0,P|268:0|196:96,2,200,4|4|8,0:0|0:0|0:0,0:0:0:0:
444,188,80031,6,0,P|420:248|360:264,1,100,4|0,0:0|0:0,0:0:0:0:
292,272,80503,2,0,P|232:264|164:280,1,100,8|0,0:0|0:0,0:0:0:0:
108,320,80976,1,4,0:0:0:0:
16,360,81212,1,0,0:0:0:0:
8,260,81448,1,8,0:0:0:0:
100,224,81684,2,0,P|140:172|144:40,1,200,4|4,0:0|0:0,0:0:0:0:
44,32,82393,6,0,P|140:32|256:8,2,200,8|4|8,0:0|0:0|0:0,0:0:0:0:
196,164,83810,6,0,P|264:152|384:240,1,200,4|8,0:0|0:0,0:0:0:0:
372,316,84519,2,0,B|372:216|372:216|464:100,1,200,0|4,0:0|0:0,0:0:0:0:
472,44,85228,1,8,0:0:0:0:
372,64,85464,2,0,B|268:80|268:80|164:56,1,200,0|4,0:0|0:0,0:0:0:0:
80,36,86172,6,0,P|64:92|104:212,1,150,8|8,0:0|0:0,0:0:0:0:
108,224,86645,2,0,P|116:284|96:336,2,100,0|8|12,0:0|0:0|0:0,0:0:0:0:
256,88,87590,5,4,0:0:0:0:
352,64,87826,1,2,0:0:0:0:
352,164,88062,2,8,P|360:216|400:268,1,100,8|2,0:0|0:0,0:0:0:0:
460,324,88535,2,0,P|420:372|372:376,2,100,4|2|8,0:0|0:0|0:0,0:0:0:0:
368,280,89243,2,0,P|296:284|216:192,1,200,2|2,0:0|0:0,0:0:0:0:
256,104,89952,5,8,0:0:0:0:
336,48,90188,1,2,0:0:0:0:
360,144,90424,2,0,P|376:204|416:248,1,100,4|2,0:0|0:0,0:0:0:0:
496,252,90897,2,0,B|400:252|400:252|344:308,1,150,8|8,0:0|0:0,0:0:0:0:
332,332,91369,6,0,P|272:348|216:336,1,100,4|2,0:0|0:0,0:0:0:0:
172,268,91842,2,0,P|188:212|184:148,1,100,8|2,0:0|0:0,0:0:0:0:
160,76,92314,1,4,0:0:0:0:
76,20,92550,1,2,0:0:0:0:
12,96,92787,1,8,0:0:0:0:
96,152,93023,2,0,B|100:208|64:260|64:260|72:312|144:336,1,200,2|2,0:0|0:0,0:0:0:0:
216,320,93732,6,0,P|264:320|328:284,1,100,8|2,0:0|0:0,0:0:0:0:
352,208,94204,2,0,P|332:148|348:84,1,100,4|10,0:0|0:0,0:0:0:0:
376,20,94676,2,0,P|304:28|244:16,1,100,10|8,0:0|0:0,0:0:0:0:
228,20,95031,1,8,0:0:0:0:
180,20,95149,6,0,P|120:24|76:56,1,100,4|2,0:0|0:0,0:0:0:0:
52,136,95621,1,4,0:2:0:0:
44,236,95857,1,2,0:0:0:0:
120,300,96094,2,0,P|172:296|232:272,1,100,4|2,0:0|0:0,0:0:0:0:
260,192,96566,1,8,0:0:0:0:
336,128,96802,2,0,P|392:116|416:248,1,200,2|2,0:0|0:0,0:0:0:0:
344,256,97511,6,0,P|280:260|240:292,1,100,8|2,0:0|0:0,0:0:0:0:
172,344,97983,2,0,P|116:360|64:340,1,100,4|8,0:0|0:0,0:0:0:0:
40,256,98456,2,0,P|56:192|44:100,1,150,8|8,0:0|0:0,0:0:0:0:
28,64,98928,5,4,0:1:0:0:
256,192,99165,12,8,101763,0:0:0:0:
256,24,102235,5,0,0:0:0:0:
256,124,102471,1,0,0:0:0:0:
332,188,102708,2,0,P|384:268|352:360,1,200,4|8,0:0|0:0,0:0:0:0:
256,328,103416,1,0,0:0:0:0:
161,360,103653,2,0,P|128:269|180:188,2,200,2|8|2,0:0|0:0|0:0,0:0:0:0:
352,300,105070,5,8,0:0:0:0:
448,268,105306,1,0,0:0:0:0:
512,192,105542,1,2,0:0:0:0:
448,116,105778,1,8,0:0:0:0:
352,84,106014,1,8,0:0:0:0:
156,40,106487,6,0,P|140:104|140:168,1,100,4|0,0:0|0:0,0:0:0:0:
200,216,106959,2,0,P|264:220|312:248,1,100,8|0,0:0|0:0,0:0:0:0:
368,304,107432,2,0,P|436:336|472:332,1,100,4|4,0:3|0:3,0:0:0:0:
500,244,107904,1,8,0:0:0:0:
504,144,108141,1,0,0:0:0:0:
484,48,108377,6,0,P|400:44|304:128,1,200,2|8,0:0|0:0,0:0:0:0:
256,196,109085,1,4,0:3:0:0:
201,112,109322,2,0,P|126:48|28:48,2,200,2|8|4,0:0|0:0|0:0,0:0:0:0:
384,196,110739,5,8,0:0:0:0:
336,284,110975,1,0,0:0:0:0:
256,224,111212,2,0,B|272:168|256:128|256:128|236:80|256:24,2,200,2|8|2,0:0|0:0|0:0,0:0:0:0:
108,356,112629,5,8,0:0:0:0:
176,280,112865,1,0,0:0:0:0:
256,224,113101,1,2,0:0:0:0:
336,280,113337,1,8,0:0:0:0:
404,356,113573,1,8,0:0:0:0:
500,180,114046,6,0,P|512:116|488:72,1,100,4|0,0:0|0:0,0:0:0:0:
416,28,114519,2,0,P|360:44|296:36,1,100,8|0,0:0|0:0,0:0:0:0:
220,24,114991,2,0,P|160:20|104:32,1,100,4|4,3:0|3:0,0:0:0:0:
40,88,115463,2,0,P|40:144|120:196,1,150,8|8,0:0|0:0,0:0:0:0:
160,192,115936,5,4,0:0:0:0:
256,192,116172,12,4,117826,0:0:0:0:
40,64,132944,5,4,0:0:0:0:
40,64,133180,2,0,L|168:48,1,100,0|8,0:0|0:0,0:0:0:0:
240,36,133653,1,0,0:0:0:0:
328,80,133889,2,0,B|328:128|328:128|296:188,2,100,0|0|8,0:0|0:0|0:0,0:0:0:0:
236,124,134598,2,0,B|200:188|200:188|204:244|288:280,1,200
376,308,135306,5,8,0:0:0:0:
472,284,135543,1,0,0:0:0:0:
400,216,135779,2,0,P|384:168|400:124,1,100
476,60,136251,2,0,B|392:100|392:100|320:92,1,150,8|8,0:0|0:0,0:0:0:0:
284,96,136724,5,4,0:0:0:0:
284,96,136960,2,0,P|224:92|164:112,1,100,0|8,0:0|0:0,0:0:0:0:
108,164,137432,1,0,0:0:0:0:
68,256,137669,2,0,B|56:308|56:308|64:368,2,100,0|0|8,0:0|0:0|0:0,0:0:0:0:
168,244,138377,2,0,P|236:256|356:188,1,200
408,116,139086,5,8,0:0:0:0:
332,52,139322,1,0,0:0:0:0:
244,100,139558,2,0,P|180:116|140:112,1,100,0|8,0:0|0:0,0:0:0:0:
84,36,140031,2,0,B|120:128|120:128|108:200,1,150,8|8,0:0|0:0,0:0:0:0:
100,228,140503,5,2,0:2:0:0:
256,192,140739,12,2,145936,2:0:0:0:
256,352,146881,5,4,0:3:0:0:
256,252,147117,1,8,0:0:0:0:
240,204,147235,1,8,0:0:0:0:
256,156,147354,1,4,0:3:0:0:
276,112,147472,1,4,0:3:0:0:
256,68,147590,1,8,0:0:0:0:
64,116,148062,6,0,P|64:184|156:268,1,200,4|8,0:0|0:0,0:0:0:0:
256,256,148771,1,0,0:0:0:0:
355,268,149007,2,0,P|435:212|448:116,2,200,2|8|2,0:0|0:0|0:0,0:0:0:0:
172,344,150424,5,8,0:0:0:0:
208,252,150661,1,0,0:0:0:0:
200,152,150897,1,0,0:0:0:0:
256,72,151133,1,8,0:0:0:0:
316,152,151369,1,8,0:0:0:0:
304,252,151606,1,0,0:0:0:0:
340,344,151842,1,4,0:0:0:0:
428,300,152078,5,0,0:0:0:0:
392,208,152314,2,0,P|412:152|404:88,1,100,8|0,0:0|0:0,0:0:0:0:
332,48,152787,2,0,P|276:64|204:52,1,100,4|4,0:3|0:3,0:0:0:0:
136,36,153259,2,0,P|72:32|24:84,1,100,8|0,0:0|0:0,0:0:0:0:
108,128,153732,6,0,P|176:184|196:296,1,200,2|8,0:0|0:0,0:0:0:0:
256,372,154440,1,0,0:0:0:0:
314,289,154676,2,0,P|330:193|404:128,2,200,2|8|4,0:0|0:0|0:0,0:0:0:0:
120,340,156094,5,8,0:0:0:0:
68,256,156330,1,0,0:0:0:0:
132,180,156566,2,0,B|176:140|168:88|168:88|220:108|264:72,2,200,2|8|4,0:0|0:0|0:0,0:0:0:0:
332,192,157983,5,8,0:0:0:0:
328,292,158220,1,0,0:0:0:0:
256,360,158456,1,0,0:0:0:0:
184,292,158692,1,8,0:0:0:0:
180,192,158929,1,8,0:0:0:0:
48,44,159401,6,0,P|96:36|148:48,1,100,4|0,0:0|0:0,0:0:0:0:
232,96,159873,2,0,P|280:112|352:92,1,100,8|0,0:0|0:0,0:0:0:0:
416,52,160346,1,4,3:0:0:0:
500,104,160582,1,4,3:0:0:0:
432,176,160818,2,0,B|424:232|424:276|424:276|368:308,1,150,8|8,0:0|0:0,0:0:0:0:
332,308,161291,5,4,0:0:0:0:
256,192,161527,12,4,163180,0:0:0:0:
80,32,163653,5,8,0:0:0:0:
164,84,163889,1,0,0:0:0:0:
256,124,164125,2,0,B|248:180|248:180|264:264|264:264|256:328,2,200,0|8|0,0:0|0:0|0:0,0:0:0:0:
432,28,165543,5,8,0:0:0:0:
484,112,165779,1,0,0:0:0:0:
424,192,166015,1,0,0:0:0:0:
484,272,166251,1,8,0:0:0:0:
432,356,166487,1,8,0:0:0:0:
376,272,166724,1,0,0:0:0:0:
296,332,166960,6,0,P|232:324|216:264,1,100,4|0,0:0|0:0,0:0:0:0:
240,200,167432,2,0,P|252:156|236:84,1,100
180,28,167905,2,0,P|112:44|52:24,1,100
12,108,168377,1,8,0:0:0:0:
60,196,168613,1,0,0:0:0:0:
36,292,168850,5,4,0:3:0:0:
244,276,169322,2,0,L|268:320,3,50,0|4|4|4,0:0|0:3|0:3|0:3,0:0:0:0:
260,240,169795,5,8,3:3:0:0:
260,192,169913,1,8,3:3:0:0:
228,152,170031,1,8,3:3:0:0:
180,136,170149,1,8,3:3:0:0:
132,152,170267,1,4,0:3:0:0:
96,184,170385,1,4,0:3:0:0:
48,180,170503,1,4,0:3:0:0:
16,144,170621,1,4,0:3:0:0:
8,96,170739,6,0,B|64:72|80:28|80:28|128:40|176:16,1,200,4|8,0:0|0:0,0:0:0:0:
256,76,171448,1,0,0:0:0:0:
336,16,171684,2,0,B|384:40|432:28|432:28|448:72|504:96,2,200,4|8|4,0:3|0:0|0:3,0:0:0:0:
192,156,173102,6,0,P|208:208|208:260,1,100,8|0,0:0|0:0,0:0:0:0:
204,352,173574,2,0,L|316:352,1,100,4|8,0:3|0:0,0:0:0:0:
303,253,174046,2,0,P|304:203|320:156,1,100,8|0,0:0|0:0,0:0:0:0:
368,68,174519,6,0,P|408:108|392:252,1,200,4|8,0:0|0:0,0:0:0:0:
332,316,175228,1,0,0:0:0:0:
256,252,175464,1,4,0:3:0:0:
180,316,175700,1,4,0:3:0:0:
111,242,175936,2,0,P|88:147|144:68,1,200,8|4,0:0|0:0,0:0:0:0:
256,192,176645,12,4,178298,0:0:0:0:
