osu file format v14

[General]
AudioFilename: audio.mp3
AudioLeadIn: 0
PreviewTime: 40091
Countdown: 0
SampleSet: Drum
StackLeniency: 0.7
Mode: 0
LetterboxInBreaks: 0
WidescreenStoryboard: 1

[Editor]
Bookmarks: 85330,219139
DistanceSpacing: 1.9
BeatDivisor: 6
GridSize: 8
TimelineZoom: 2.1

[Metadata]
Title:Feel Invincible
TitleUnicode:Feel Invincible
Artist:Skillet
ArtistUnicode:Skillet
Creator:Adamondo
Version:extra
Source:
Tags:skillet unleashed feelinvincible alternative christian music rock english
BeatmapID:3613452
BeatmapSetID:1753983

[Difficulty]
HPDrainRate:6
CircleSize:3.9
OverallDifficulty:8
ApproachRate:9.7
SliderMultiplier:2.2
SliderTickRate:3

[Events]
//Background and Video events
0,0,"skilet back.jpg",0,0
//Break Periods
2,108863,111501
2,157911,165311
//Storyboard Layer 0 (Background)
//Storyboard Layer 1 (Fail)
//Storyboard Layer 2 (Pass)
//Storyboard Layer 3 (Foreground)
//Storyboard Layer 4 (Overlay)
//Storyboard Sound Samples

[TimingPoints]
92,476.190476190476,4,3,2,80,1,0
93,-100,4,3,2,70,0,0
9615,-66.6666666666667,4,3,2,70,0,0
24853,-58.8235294117647,4,3,2,75,0,0
42949,-100,4,3,2,80,0,1
70568,-100,4,3,2,80,0,1
78187,-66.6666666666667,4,3,2,75,0,0
93425,-58.8235294117647,4,3,2,75,0,0
111996,-100,4,3,2,80,0,1
139139,-100,4,3,2,80,0,1
146758,-66.6666666666667,4,3,2,85,0,0
165806,-133.333333333333,4,3,2,75,0,0
173425,-100,4,3,2,75,0,0
177234,-100,4,3,2,75,0,0

[Colours]
Combo1 : 255,128,64
Combo2 : 255,0,0
Combo3 : 0,128,255
Combo4 : 255,255,0
Combo5 : 128,0,255

[HitObjects]
104,192,1996,5,2,0:0:0:0:
320,192,2472,1,0,0:0:0:0:
128,88,2949,2,0,L|208:88,1,73.3333333333333
360,120,3266,2,0,L|280:120,1,73.3333333333333
352,192,3901,5,0,0:0:0:0:
88,192,4377,1,0,0:0:0:0:
400,80,4853,1,0,0:0:0:0:
336,168,5012,1,0,0:0:0:0:
280,72,5171,1,0,0:0:0:0:
440,168,5330,1,0,0:0:0:0:
104,192,5806,5,0,0:0:0:0:
320,192,6282,1,0,0:0:0:0:
120,288,6758,2,0,L|216:272,1,73.3333333333333
344,328,7076,2,0,L|264:312,1,73.3333333333333
152,192,7711,5,0,0:0:0:0:
392,192,8187,1,0,0:0:0:0:
128,104,8663,1,0,0:0:0:0:
248,144,8822,1,0,0:0:0:0:
136,200,8980,1,0,0:0:0:0:
248,264,9139,2,0,B|328:304|328:304|392:312|392:312|480:288,1,220
216,168,9933,5,0,0:0:0:0:
216,168,10091,2,0,P|280:128|440:184,1,220.000008392334
264,248,10568,2,0,P|200:288|48:232,1,220.000008392334
0,176,11044,1,0,0:0:0:0:
256,256,11520,6,0,B|208:144|208:144|96:64,1,220.000008392334
288,120,11996,2,0,B|336:232|336:232|440:304,1,220.000008392334
376,128,12472,2,0,B|344:56|344:56|288:32|288:32|176:32,1,220.000008392334
72,32,12949,1,0,0:0:0:0:
160,120,13107,2,0,L|240:208,1,110.000004196167
320,296,13425,1,0,0:0:0:0:
248,200,13901,6,0,P|224:136|80:72,1,220.000008392334
128,200,14377,2,0,P|152:264|296:328,1,220.000008392334
232,208,14853,2,0,P|296:232|360:376,1,220.000008392334
224,288,15330,2,0,P|144:264|80:136,1,220.000008392334
200,200,15806,2,0,B|304:232|376:184|360:112,1,220.000008392334
224,104,16282,1,0,0:0:0:0:
360,48,16441,1,0,0:0:0:0:
352,176,16599,1,0,0:0:0:0:
248,16,16758,1,0,0:0:0:0:
120,224,17076,5,0,0:0:0:0:
240,280,17234,1,0,0:0:0:0:
88,64,17552,1,0,0:0:0:0:
88,64,17711,2,0,L|296:176,1,220.000008392334
416,152,18187,2,0,L|216:48,1,220.000008392334
136,8,18663,1,0,0:0:0:0:
224,56,18980,5,0,0:0:0:0:
168,176,19138,1,0,0:0:0:0:
384,24,19456,1,0,0:0:0:0:
384,24,19615,2,0,P|328:112|328:240,1,220.000008392334
368,352,20091,2,0,P|424:264|424:136,1,220.000008392334
384,24,20567,1,0,0:0:0:0:
264,56,20885,2,0,L|144:96,1,110.000004196167
112,208,21361,5,0,0:0:0:0:
112,208,21520,2,0,L|336:272,1,220.000008392334
448,232,21996,2,0,L|224:168,1,220.000008392334
128,96,22472,6,0,P|120:192|216:320,1,220.000008392334
288,376,22949,2,0,P|296:280|200:152,1,220.000008392334
184,296,23425,2,0,P|136:160|176:64,1,220.000008392334
272,160,23901,1,0,0:0:0:0:
392,104,24060,1,0,0:0:0:0:
272,56,24218,1,0,0:0:0:0:
392,224,24377,1,0,0:0:0:0:
224,216,24853,6,0,P|200:128|64:72,1,249.333338088989
264,320,25330,2,0,P|320:224|464:208,1,249.333338088989
288,152,25806,2,0,P|264:80|8:64,1,374.000007133484
72,168,26441,2,0,P|104:232|152:256,1,124.666669044495
240,168,26758,2,0,P|312:232|320:272,1,124.666669044495
192,264,27076,1,0,0:0:0:0:
289,334,27234,2,0,B|364:300|427:203|441:83|376:13,1,374.000007133484
280,160,28187,1,0,0:0:0:0:
176,104,28504,5,0,0:0:0:0:
392,152,28663,1,0,0:0:0:0:
192,232,28822,1,0,0:0:0:0:
296,40,28980,1,0,0:0:0:0:
344,256,29139,1,0,0:0:0:0:
256,152,29457,5,0,0:0:0:0:
256,152,29615,2,0,B|344:160|352:160|368:168|368:168|464:272,1,249.333338088989
248,224,30091,1,0,0:0:0:0:
120,72,30568,5,0,0:0:0:0:
304,88,30727,1,0,0:0:0:0:
144,160,30885,1,0,0:0:0:0:
256,24,31044,1,0,0:0:0:0:
240,192,31520,5,0,0:0:0:0:
416,200,31679,1,0,0:0:0:0:
264,280,31838,2,0,L|352:176,1,124.666669044495
240,192,32472,6,0,P|208:112|48:48,1,249.333338088989
160,200,32949,2,0,P|192:288|352:352,1,249.333338088989
480,320,33425,2,0,P|480:232|352:136,1,249.333338088989
192,112,33901,1,0,0:0:0:0:
136,248,34218,5,0,0:0:0:0:
312,240,34377,2,0,P|240:192|192:184,1,124.666669044495
40,112,34695,2,0,P|112:160|160:168,1,124.666669044495
320,160,35012,1,0,0:0:0:0:
168,80,35171,1,0,0:0:0:0:
344,56,35330,1,0,0:0:0:0:
184,296,35806,1,0,0:0:0:0:
288,160,36123,5,0,0:0:0:0:
112,136,36282,1,0,0:0:0:0:
272,56,36441,1,0,0:0:0:0:
192,208,36599,1,0,0:0:0:0:
152,40,36758,1,0,0:0:0:0:
256,144,37076,5,0,0:0:0:0:
432,168,37235,1,0,0:0:0:0:
264,232,37394,1,0,0:0:0:0:
440,248,37552,1,0,0:0:0:0:
320,64,37711,1,0,0:0:0:0:
64,120,38028,5,0,0:0:0:0:
240,120,38187,2,0,L|104:48,2,124.666669044495
88,40,38663,1,0,0:0:0:0:
432,80,38980,5,0,0:0:0:0:
256,80,39139,2,0,L|376:160,1,124.666669044495
184,144,39457,1,0,0:0:0:0:
336,224,39615,1,0,0:0:0:0:
152,264,43901,6,0,P|112:208|160:128,1,146.666666666667
192,56,44377,2,0,P|248:16|328:64,1,146.666666666667
384,120,44853,2,0,P|424:176|376:256,1,146.666666666667
304,280,45330,2,0,L|136:280,1,146.666666666667
224,208,45806,2,0,L|384:208,1,146.666666666667
296,136,46282,2,0,L|208:136,1,73.3333333333333
296,64,46599,1,0,0:0:0:0:
192,64,46758,2,0,B|112:64|112:64|16:168,1,220
256,184,47711,5,0,0:0:0:0:
424,80,48028,1,0,0:0:0:0:
424,208,48187,2,0,B|352:128|352:128|288:104,1,146.666666666667
200,64,48663,2,0,B|144:40|72:72|64:136,1,146.666666666667
32,224,49139,1,0,0:0:0:0:
320,232,49616,5,0,0:0:0:0:
200,192,49774,1,0,0:0:0:0:
304,128,49933,1,0,0:0:0:0:
184,88,50092,2,0,B|136:72|136:72|48:120,1,146.666666666667
168,168,50568,2,0,B|216:184|216:184|304:136,1,146.666666666667
408,72,51044,1,0,0:0:0:0:
384,192,51203,1,0,0:0:0:0:
504,152,51362,1,0,0:0:0:0:
480,272,51520,1,0,0:0:0:0:
160,304,51996,6,0,B|208:224|208:224|176:152,1,146.666666666667
304,184,52472,2,0,B|360:128|360:128|448:120,1,146.666666666667
320,64,52949,1,0,0:0:0:0:
192,64,53107,2,0,L|96:64,1,73.3333333333333
8,64,53425,2,0,L|80:192,1,146.666666666667
200,224,53901,2,0,L|200:72,1,146.666666666667
304,144,54377,2,0,L|424:336,1,220
176,224,55330,5,0,0:0:0:0:
416,144,55647,1,0,0:0:0:0:
304,88,55806,2,0,B|224:48|224:48|152:40,1,146.666666666667
40,40,56282,1,0,0:0:0:0:
256,160,56599,1,0,0:0:0:0:
360,224,56758,1,0,0:0:0:0:
64,248,57234,1,0,0:0:0:0:
216,64,57552,5,0,0:0:0:0:
384,176,57711,1,0,0:0:0:0:
344,0,57869,1,0,0:0:0:0:
248,200,58028,1,0,0:0:0:0:
456,32,58187,2,0,L|456:272,1,220
128,144,59139,5,0,0:0:0:0:
272,176,59298,1,0,0:0:0:0:
152,264,59457,2,0,L|80:320,1,73.3333333333333
240,328,59774,1,0,0:0:0:0:
376,272,59933,1,0,0:0:0:0:
240,216,60091,2,0,L|152:176,1,73.3333333333333
40,128,60409,1,0,0:0:0:0:
184,96,60568,2,0,L|408:64,1,220
112,56,61361,5,0,0:0:0:0:
112,56,61520,2,0,P|216:56|288:80,1,146.666666666667
344,184,61996,2,0,P|232:192|200:176,1,146.666666666667
320,88,62472,2,0,P|400:96|456:144,1,146.666666666667
488,280,62949,5,0,0:0:0:0:
320,232,63107,1,0,0:0:0:0:
424,168,63266,1,0,0:0:0:0:
384,328,63425,1,0,0:0:0:0:
184,112,63742,5,0,0:0:0:0:
56,48,63901,2,0,L|176:256,1,220
216,104,64536,1,0,0:0:0:0:
328,200,64695,1,0,0:0:0:0:
344,56,64853,1,0,0:0:0:0:
400,56,65171,5,0,0:0:0:0:
400,56,65330,2,0,P|296:56|224:80,1,146.666666666667
168,184,65806,2,0,P|280:192|312:176,1,146.666666666667
192,88,66282,2,0,P|112:96|56:144,1,146.666666666667
8,232,66758,1,0,0:0:0:0:
440,168,67234,5,0,0:0:0:0:
192,160,67711,1,0,0:0:0:0:
296,320,68187,1,0,0:0:0:0:
416,48,68504,1,0,0:0:0:0:
256,48,68663,2,0,L|104:48,1,146.666666666667
0,48,69139,1,0,0:0:0:0:
144,256,70568,6,0,P|192:200|288:168,1,146.666666666667
400,184,71044,2,0,P|344:104|280:80,1,146.666666666667
160,48,71520,1,0,0:0:0:0:
256,176,71679,1,0,0:0:0:0:
80,184,71838,1,0,0:0:0:0:
200,272,71996,1,0,0:0:0:0:
160,96,72155,1,0,0:0:0:0:
344,120,72314,1,0,0:0:0:0:
184,200,72472,6,0,P|232:224|272:328,1,146.666666666667
392,168,72949,2,0,P|256:136|248:120,1,146.666666666667
88,96,73425,2,0,P|120:128|112:168,1,73.3333333333333
296,200,73742,2,0,P|296:248|328:280,1,73.3333333333333
216,112,74060,2,0,P|232:64|216:32,1,73.3333333333333
400,112,74377,6,0,P|384:208|328:256,1,146.666666666667
200,336,74853,2,0,P|208:248|272:200,1,146.666666666667
424,160,75330,1,0,0:0:0:0:
248,120,75488,1,0,0:0:0:0:
352,272,75647,1,0,0:0:0:0:
344,88,75806,2,0,B|336:40|336:40|296:40,1,73.3333333333333
128,40,76123,1,0,0:0:0:0:
208,200,76282,6,0,B|312:176|312:176|360:120,1,146.666666666667
232,296,76758,2,0,B|128:320|128:320|80:376,1,146.666666666667
288,360,77234,2,0,B|384:328|384:328|424:264,1,146.666666666667
224,304,77711,2,0,B|128:320|128:320|8:272,1,220
80,168,78504,5,0,0:0:0:0:
272,168,78663,2,0,L|72:288,1,220.000008392334
152,120,79139,2,0,L|376:80,1,220.000008392334
504,56,79615,1,0,0:0:0:0:
416,240,80091,6,0,B|256:208|256:208|200:152,1,220.000008392334
104,32,80568,2,0,L|112:144,1,110.000004196167
120,288,80885,1,0,0:0:0:0:
208,176,81044,1,0,0:0:0:0:
488,128,81361,1,0,0:0:0:0:
424,256,81520,1,0,0:0:0:0:
128,96,81996,6,0,L|328:216,1,220.000008392334
440,272,82472,1,0,0:0:0:0:
432,176,82949,6,0,L|232:72,1,220.000008392334
104,16,83425,1,0,0:0:0:0:
192,128,83584,1,0,0:0:0:0:
48,104,83743,1,0,0:0:0:0:
128,224,83901,1,0,0:0:0:0:
432,240,84218,5,0,0:0:0:0:
376,112,84377,2,0,P|320:48|176:24,1,220.000008392334
264,144,84853,1,0,0:0:0:0:
128,96,85012,1,0,0:0:0:0:
208,216,85171,1,0,0:0:0:0:
64,184,85330,1,0,0:0:0:0:
376,232,85806,6,0,P|336:168|208:80,1,220.000008392334
80,56,86282,2,0,P|96:96|248:208,1,220.000008392334
376,216,86758,1,0,0:0:0:0:
288,328,86917,2,0,P|232:368|176:328,1,110.000004196167
80,280,87234,1,0,0:0:0:0:
336,152,87552,5,0,0:0:0:0:
336,152,87711,2,0,L|88:152,1,220.000008392334
240,80,88187,2,0,L|472:80,1,220.000008392334
464,224,88663,2,0,L|224:152,1,220.000008392334
112,128,89139,1,0,0:0:0:0:
400,120,89457,5,0,0:0:0:0:
256,120,89615,1,0,0:0:0:0:
464,320,89933,1,0,0:0:0:0:
320,320,90091,1,0,0:0:0:0:
416,216,90250,2,0,L|496:136,1,110.000004196167
352,112,90568,2,0,L|168:256,1,220.000008392334
64,336,91044,1,0,0:0:0:0:
248,120,91361,5,0,0:0:0:0:
392,120,91520,1,0,0:0:0:0:
208,312,91838,1,0,0:0:0:0:
248,208,91996,2,0,L|320:0,1,220.000008392334
184,48,92472,1,0,0:0:0:0:
304,128,92631,1,0,0:0:0:0:
160,152,92790,1,0,0:0:0:0:
280,232,92949,2,0,L|400:8,1,220.000008392334
288,168,93425,6,0,P|232:264|56:288,1,249.333338088989
336,216,93901,6,0,P|280:312|104:336,1,249.333338088989
408,200,94377,6,0,P|352:296|176:320,1,249.333338088989
64,320,94853,1,0,0:0:0:0:
200,224,95012,2,0,L|304:144,1,124.666669044495
456,104,95330,2,0,L|264:272,1,249.333338088989
136,368,95806,1,0,0:0:0:0:
432,240,96123,5,0,0:0:0:0:
272,240,96282,1,0,0:0:0:0:
256,72,96599,5,0,0:0:0:0:
104,136,96758,2,0,L|352:200,1,249.333338088989
184,240,97234,1,0,0:0:0:0:
344,288,97393,1,0,0:0:0:0:
192,344,97552,1,0,0:0:0:0:
320,160,97710,1,0,0:0:0:0:
152,152,98028,5,0,0:0:0:0:
344,88,98187,1,0,0:0:0:0:
248,248,98345,1,0,0:0:0:0:
192,40,98504,1,0,0:0:0:0:
368,192,98663,1,0,0:0:0:0:
104,168,98980,5,0,0:0:0:0:
264,160,99139,1,0,0:0:0:0:
144,272,99298,1,0,0:0:0:0:
304,272,99457,2,0,L|192:208,1,124.666669044495
336,80,99933,5,0,0:0:0:0:
344,240,100092,1,0,0:0:0:0:
232,120,100251,1,0,0:0:0:0:
232,280,100410,2,0,L|296:168,1,124.666669044495
352,128,101044,5,0,0:0:0:0:
72,288,101361,1,0,0:0:0:0:
232,312,101520,1,0,0:0:0:0:
32,64,101838,1,0,0:0:0:0:
192,88,101997,1,0,0:0:0:0:
320,208,102314,1,0,0:0:0:0:
480,232,102473,1,0,0:0:0:0:
336,304,102631,2,0,L|200:280,1,124.666669044495
56,248,102949,1,0,0:0:0:0:
376,208,103266,1,0,0:0:0:0:
216,200,103425,1,0,0:0:0:0:
184,64,103901,6,0,P|240:144|224:296,1,249.333338088989
160,360,104377,1,0,0:0:0:0:
416,240,104695,5,0,0:0:0:0:
256,208,104853,2,0,B|352:160|352:160|392:24,1,249.333338088989
240,96,105330,2,0,B|152:128|152:128|72:264,1,249.333338088989
16,376,105806,1,0,0:0:0:0:
168,312,105965,2,0,L|288:264,1,124.666669044495
440,208,106282,1,0,0:0:0:0:
136,104,106599,5,0,0:0:0:0:
280,144,106758,1,0,0:0:0:0:
152,240,106917,1,0,0:0:0:0:
232,40,107076,1,0,0:0:0:0:
304,264,107234,1,0,0:0:0:0:
376,144,107552,6,0,L|248:184,2,124.666669044495
216,120,108028,1,0,0:0:0:0:
216,120,108187,2,0,B|136:152|136:152|40:288,1,249.333338088989
200,272,108663,1,0,0:0:0:0:
152,144,111996,5,0,0:0:0:0:
432,232,112314,1,0,0:0:0:0:
296,280,112472,1,0,0:0:0:0:
136,176,112790,1,0,0:0:0:0:
248,136,112949,2,0,L|416:80,1,146.666666666667
344,200,113425,2,0,L|208:256,1,146.666666666667
320,296,113901,2,0,L|472:352,1,146.666666666667
440,232,114377,2,0,L|400:80,1,146.666666666667
288,96,114853,2,0,L|136:112,1,146.666666666667
240,176,115330,2,0,L|320:224,1,73.3333333333333
408,272,115647,2,0,L|320:288,1,73.3333333333333
16,144,116282,5,0,0:0:0:0:
240,160,116599,1,0,0:0:0:0:
360,168,116758,2,0,L|264:56,1,146.666666666667
144,64,117234,2,0,L|32:160,1,146.666666666667
112,248,117711,1,0,0:0:0:0:
320,232,118187,5,0,0:0:0:0:
200,192,118345,1,0,0:0:0:0:
304,128,118504,1,0,0:0:0:0:
184,88,118663,2,0,B|136:72|136:72|48:120,1,146.666666666667
168,168,119139,2,0,B|216:184|216:184|304:136,1,146.666666666667
408,72,119615,1,0,0:0:0:0:
384,192,119774,1,0,0:0:0:0:
504,152,119933,1,0,0:0:0:0:
480,272,120091,1,0,0:0:0:0:
152,144,120568,6,0,B|248:176|248:176|320:144,1,146.666666666667
208,72,121044,2,0,B|112:40|112:40|56:72,1,146.666666666667
48,176,121520,2,0,B|144:144|144:144|200:176,1,146.666666666667
280,232,121996,2,0,B|352:288|352:288|416:288,1,146.666666666667
368,176,122472,2,0,L|304:128,1,73.3333333333333
424,96,122790,1,0,0:0:0:0:
472,200,122949,2,0,L|320:368,1,220
144,56,123901,5,0,0:0:0:0:
384,136,124218,1,0,0:0:0:0:
288,208,124377,2,0,B|208:248|208:248|136:256,1,146.666666666667
32,272,124853,1,0,0:0:0:0:
160,72,125170,1,0,0:0:0:0:
296,72,125329,1,0,0:0:0:0:
32,32,125805,1,0,0:0:0:0:
184,216,126123,5,0,0:0:0:0:
352,104,126282,1,0,0:0:0:0:
312,280,126440,1,0,0:0:0:0:
216,80,126599,1,0,0:0:0:0:
424,248,126758,2,0,L|424:8,1,220
88,280,127711,6,0,P|80:216|104:200,1,73.3333333333333
224,208,128028,2,0,P|224:160|192:128,1,73.3333333333333
72,112,128345,2,0,P|56:80|72:48,1,73.3333333333333
208,80,128663,2,0,P|224:40|208:8,1,73.3333333333333
72,40,128980,1,0,0:0:0:0:
152,160,129139,2,0,P|200:208|352:232,1,220
24,288,129933,5,0,0:0:0:0:
112,328,130092,2,0,P|216:328|288:304,1,146.666666666667
344,200,130568,2,0,P|232:192|200:208,1,146.666666666667
320,296,131044,2,0,P|400:288|456:240,1,146.666666666667
488,104,131521,5,0,0:0:0:0:
320,152,131679,1,0,0:0:0:0:
424,216,131838,1,0,0:0:0:0:
384,56,131997,1,0,0:0:0:0:
184,272,132314,5,0,0:0:0:0:
56,336,132473,2,0,L|176:128,1,220
216,280,133108,1,0,0:0:0:0:
328,184,133267,1,0,0:0:0:0:
344,328,133425,1,0,0:0:0:0:
400,328,133743,5,0,0:0:0:0:
400,328,133902,2,0,P|296:328|224:304,1,146.666666666667
168,200,134378,2,0,P|280:192|312:208,1,146.666666666667
192,296,134854,2,0,P|112:288|56:240,1,146.666666666667
8,152,135330,1,0,0:0:0:0:
144,176,139139,6,0,B|112:104|112:104|24:64,1,146.666666666667
192,64,139615,2,0,B|224:136|224:136|312:176,1,146.666666666667
424,184,140091,1,0,0:0:0:0:
264,192,140250,1,0,0:0:0:0:
408,304,140409,1,0,0:0:0:0:
336,112,140568,1,0,0:0:0:0:
248,336,140726,1,0,0:0:0:0:
448,152,140885,1,0,0:0:0:0:
320,200,141044,6,0,B|352:272|352:272|440:312,1,146.666666666667
272,312,141520,2,0,B|240:240|240:240|152:200,1,146.666666666667
40,192,141996,1,0,0:0:0:0:
200,184,142155,1,0,0:0:0:0:
56,72,142314,1,0,0:0:0:0:
128,264,142473,1,0,0:0:0:0:
216,40,142631,1,0,0:0:0:0:
16,224,142790,1,0,0:0:0:0:
144,256,142949,6,0,P|192:200|288:168,1,146.666666666667
400,184,143425,2,0,P|344:104|280:80,1,146.666666666667
160,48,143901,1,0,0:0:0:0:
256,176,144060,1,0,0:0:0:0:
80,184,144219,1,0,0:0:0:0:
200,272,144377,1,0,0:0:0:0:
160,96,144536,1,0,0:0:0:0:
344,120,144695,1,0,0:0:0:0:
184,200,144853,6,0,P|232:224|272:328,1,146.666666666667
392,168,145330,2,0,P|256:136|248:120,1,146.666666666667
192,24,145806,2,0,P|264:32|336:96,1,146.666666666667
192,128,146282,2,0,P|296:176|344:152,1,146.666666666667
472,104,146758,1,0,0:0:0:0:
280,288,147076,5,0,0:0:0:0:
280,288,147234,2,0,P|216:296|120:152,1,220.000008392334
280,184,147711,2,0,P|344:152|480:240,1,220.000008392334
312,264,148187,2,0,P|216:288|112:216,1,220.000008392334
40,80,148663,1,0,0:0:0:0:
192,136,148822,1,0,0:0:0:0:
320,232,148980,1,0,0:0:0:0:
192,336,149139,6,0,P|256:344|352:200,1,220.000008392334
192,232,149616,2,0,P|128:200|-8:288,1,220.000008392334
160,312,150091,2,0,P|280:336|368:248,1,220.000008392334
424,136,150568,1,0,0:0:0:0:
264,120,150726,1,0,0:0:0:0:
336,272,150885,1,0,0:0:0:0:
176,296,151044,6,0,L|336:120,1,220.000008392334
160,128,151520,1,0,0:0:0:0:
336,272,151679,1,0,0:0:0:0:
360,64,151838,1,0,0:0:0:0:
456,200,151996,6,0,L|224:192,1,220.000008392334
72,184,152472,1,0,0:0:0:0:
192,72,152631,1,0,0:0:0:0:
352,40,152790,1,0,0:0:0:0:
472,160,152949,6,0,P|328:168|272:224,1,220.000008392334
160,328,153425,2,0,P|304:320|360:264,1,220.000008392334
440,136,153901,2,0,P|288:144|232:200,1,220.000008392334
96,112,154377,5,0,0:0:0:0:
104,144,154457,1,0,0:0:0:0:
120,176,154536,1,0,0:0:0:0:
136,200,154615,1,0,0:0:0:0:
160,224,154695,1,0,0:0:0:0:
184,248,154774,1,0,0:0:0:0:
208,264,154853,2,0,P|272:296|424:288,1,220.000008392334
384,152,155330,5,0,0:0:0:0:
360,128,155409,1,0,0:0:0:0:
328,112,155488,1,0,0:0:0:0:
296,104,155568,1,0,0:0:0:0:
264,104,155647,1,0,0:0:0:0:
232,112,155726,1,0,0:0:0:0:
200,120,155806,2,0,P|136:160|80:288,1,220.000008392334
192,328,156282,5,0,0:0:0:0:
216,304,156361,1,0,0:0:0:0:
240,280,156441,1,0,0:0:0:0:
264,256,156520,1,0,0:0:0:0:
288,232,156599,1,0,0:0:0:0:
312,208,156679,1,0,0:0:0:0:
336,184,156758,2,0,L|488:24,1,220.000008392334
336,40,157234,5,0,0:0:0:0:
304,48,157314,1,0,0:0:0:0:
280,64,157393,1,0,0:0:0:0:
248,80,157472,1,0,0:0:0:0:
224,96,157552,1,0,0:0:0:0:
200,120,157631,1,0,0:0:0:0:
176,144,157711,1,0,0:0:0:0:
163,218,165806,5,0,0:0:0:0:
312,240,166282,2,0,P|269:178|221:160,1,110.000004196167
144,224,166758,2,0,P|82:181|64:133,1,110.000004196167
208,96,167234,2,0,P|270:139|288:187,1,110.000004196167
224,264,167710,2,0,P|267:326|352:344,1,165.000006294251
208,176,168504,5,0,0:0:0:0:
336,256,168663,1,0,0:0:0:0:
312,104,168822,1,0,0:0:0:0:
224,256,168980,1,0,0:0:0:0:
384,168,169139,1,0,0:0:0:0:
96,120,169615,1,0,0:0:0:0:
208,248,170091,6,0,P|270:205|288:157,1,110.000004196167
224,80,170567,2,0,P|267:18|315:0,1,110.000004196167
352,144,171043,2,0,P|309:206|261:224,1,110.000004196167
184,160,171519,2,0,P|122:203|104:288,1,165.000006294251
256,224,172314,5,0,0:0:0:0:
432,176,172472,1,0,0:0:0:0:
264,112,172631,1,0,0:0:0:0:
368,256,172790,1,0,0:0:0:0:
376,72,172949,1,0,0:0:0:0:
256,192,173107,12,0,175806,0:0:0:0:
176,88,176123,5,0,0:0:0:0:
312,88,176282,2,0,L|472:88,1,146.666666666667
200,168,176758,2,0,L|432:168,1,220
136,176,177552,1,0,0:0:0:0:
248,136,177711,2,0,L|416:80,1,146.666666666667
344,200,178187,2,0,L|208:256,1,146.666666666667
320,296,178663,2,0,L|472:352,1,146.666666666667
440,232,179139,2,0,L|400:80,1,146.666666666667
288,96,179615,2,0,L|136:112,1,146.666666666667
240,176,180092,2,0,L|320:224,1,73.3333333333333
408,272,180409,2,0,L|320:288,1,73.3333333333333
256,184,181044,5,0,0:0:0:0:
424,80,181361,1,0,0:0:0:0:
424,208,181520,2,0,B|352:128|352:128|288:104,1,146.666666666667
200,64,181996,2,0,B|144:40|72:72|64:136,1,146.666666666667
32,224,182472,1,0,0:0:0:0:
320,232,182949,5,0,0:0:0:0:
200,192,183107,1,0,0:0:0:0:
304,128,183266,1,0,0:0:0:0:
184,88,183425,2,0,B|136:72|136:72|48:120,1,146.666666666667
168,168,183901,2,0,B|216:184|216:184|304:136,1,146.666666666667
408,72,184377,1,0,0:0:0:0:
384,192,184536,1,0,0:0:0:0:
504,152,184695,1,0,0:0:0:0:
480,272,184853,1,0,0:0:0:0:
160,304,185329,6,0,B|208:224|208:224|176:152,1,146.666666666667
304,184,185805,2,0,B|360:128|360:128|448:120,1,146.666666666667
320,64,186282,1,0,0:0:0:0:
192,64,186440,2,0,L|96:64,1,73.3333333333333
8,64,186758,2,0,L|80:192,1,146.666666666667
200,224,187234,2,0,L|200:72,1,146.666666666667
304,144,187710,2,0,L|424:336,1,220
304,304,188663,6,0,P|224:288|176:224,1,146.666666666667
128,112,189139,2,0,P|88:152|88:264,1,146.666666666667
200,296,189615,2,0,P|232:256|240:160,1,146.666666666667
104,200,190091,2,0,P|112:112|168:56,1,146.666666666667
272,0,190568,2,0,B|344:0|376:16|392:48|408:80,1,146.666666666667
272,112,191044,2,0,P|216:128|168:208,1,146.666666666667
312,200,191520,2,0,P|384:208|464:328,1,220
328,304,192155,6,0,L|240:272,1,73.3333333333333
128,224,192472,2,0,L|264:160,1,146.666666666667
136,96,192949,2,0,L|272:32,1,146.666666666667
392,96,193425,2,0,L|488:232,1,146.666666666667
336,208,193901,2,0,L|432:352,1,146.666666666667
280,320,194377,2,0,P|176:296|144:256,1,146.666666666667
256,176,194853,2,0,P|176:120|112:120,1,146.666666666667
160,256,195330,2,0,P|128:200|144:184,1,73.3333333333333
264,176,195647,2,0,P|248:128|224:120,1,73.3333333333333
392,136,196123,5,0,0:0:0:0:
264,88,196282,1,0,0:0:0:0:
24,232,196599,5,0,0:0:0:0:
160,264,196758,2,0,L|328:304,1,146.666666666667
256,168,197234,2,0,L|104:136,1,146.666666666667
232,64,197711,2,0,L|448:112,1,220
256,184,198663,5,0,0:0:0:0:
424,80,198980,1,0,0:0:0:0:
424,208,199139,2,0,B|352:128|352:128|288:104,1,146.666666666667
200,64,199615,2,0,B|144:40|72:72|64:136,1,146.666666666667
32,224,200091,1,0,0:0:0:0:
240,336,200409,5,0,0:0:0:0:
320,232,200568,1,0,0:0:0:0:
200,192,200726,1,0,0:0:0:0:
304,128,200885,1,0,0:0:0:0:
184,88,201044,2,0,B|136:72|136:72|48:120,1,146.666666666667
168,168,201520,2,0,B|216:184|216:184|304:136,1,146.666666666667
408,72,201996,1,0,0:0:0:0:
384,192,202155,1,0,0:0:0:0:
504,152,202314,1,0,0:0:0:0:
480,272,202472,1,0,0:0:0:0:
160,304,202948,6,0,B|208:224|208:224|176:152,1,146.666666666667
304,184,203424,2,0,B|360:128|360:128|448:120,1,146.666666666667
320,64,203901,1,0,0:0:0:0:
192,64,204059,2,0,L|96:64,1,73.3333333333333
8,64,204377,2,0,L|80:192,1,146.666666666667
200,224,204853,2,0,L|200:72,1,146.666666666667
304,144,205329,2,0,L|424:336,1,220
368,248,206123,5,0,0:0:0:0:
264,264,206282,2,0,P|184:224|272:160,2,220
88,280,207711,6,0,P|80:216|104:200,1,73.3333333333333
224,208,208028,2,0,P|224:160|192:128,1,73.3333333333333
72,112,208345,2,0,P|56:80|72:48,1,73.3333333333333
208,80,208663,2,0,P|224:40|208:8,1,73.3333333333333
72,40,208980,1,0,0:0:0:0:
152,160,209139,2,0,P|200:208|352:232,1,220
24,288,209933,5,0,0:0:0:0:
112,328,210092,2,0,P|216:328|288:304,1,146.666666666667
344,200,210568,2,0,P|232:192|200:208,1,146.666666666667
320,296,211044,2,0,P|400:288|456:240,1,146.666666666667
488,104,211520,2,0,L|384:128,1,73.3333333333333
440,256,211838,2,0,L|360:184,1,73.3333333333333
184,272,212314,5,0,0:0:0:0:
56,336,212473,2,0,L|176:128,1,220
216,280,213108,1,0,0:0:0:0:
328,184,213267,1,0,0:0:0:0:
344,328,213425,1,0,0:0:0:0:
400,328,213743,5,0,0:0:0:0:
400,328,213902,2,0,P|296:328|224:304,1,146.666666666667
168,200,214378,2,0,P|280:192|312:208,1,146.666666666667
192,296,214854,2,0,P|112:288|56:240,1,146.666666666667
8,152,215330,1,0,0:0:0:0:
416,224,215806,6,0,L|200:160,1,220
120,264,216758,2,0,L|312:144,1,220
160,72,217711,2,0,L|288:184,1,146.666666666667
384,256,218187,2,0,L|240:304,1,146.666666666667
112,336,218663,2,0,L|216:208,1,146.666666666667
144,176,219139,6,0,B|112:104|112:104|80:32,1,146.666666666667
192,64,219615,2,0,B|224:136|224:136|264:224,1,146.666666666667
424,184,220091,1,0,0:0:0:0:
264,192,220250,1,0,0:0:0:0:
408,304,220409,1,0,0:0:0:0:
336,112,220568,1,0,0:0:0:0:
248,336,220726,1,0,0:0:0:0:
448,152,220885,1,0,0:0:0:0:
320,200,221044,6,0,B|352:272|352:272|440:312,1,146.666666666667
272,312,221520,2,0,B|240:240|240:240|152:200,1,146.666666666667
40,192,221996,1,0,0:0:0:0:
200,184,222155,1,0,0:0:0:0:
56,72,222314,1,0,0:0:0:0:
128,264,222473,1,0,0:0:0:0:
216,40,222631,1,0,0:0:0:0:
16,224,222790,1,0,0:0:0:0:
144,256,222949,6,0,P|192:200|288:168,1,146.666666666667
400,184,223425,2,0,P|344:104|280:80,1,146.666666666667
160,48,223901,1,0,0:0:0:0:
256,176,224060,1,0,0:0:0:0:
80,184,224219,1,0,0:0:0:0:
200,272,224377,1,0,0:0:0:0:
160,96,224536,1,0,0:0:0:0:
344,120,224695,1,0,0:0:0:0:
184,200,224853,6,0,P|232:224|272:328,1,146.666666666667
392,168,225330,2,0,P|256:136|248:120,1,146.666666666667
192,24,225806,2,0,P|264:32|336:96,1,146.666666666667
192,128,226282,2,0,P|296:176|344:152,1,146.666666666667
