osu file format v14

[General]
AudioFilename: audio.mp3
AudioLeadIn: 0
PreviewTime: 40091
Countdown: 0
SampleSet: Drum
StackLeniency: 0.7
Mode: 0
LetterboxInBreaks: 0
WidescreenStoryboard: 0

[Editor]
Bookmarks: 85330,219139
DistanceSpacing: 1.5
BeatDivisor: 6
GridSize: 8
TimelineZoom: 2.1

[Metadata]
Title:Feel Invincible
TitleUnicode:Feel Invincible
Artist:Skillet
ArtistUnicode:Skillet
Creator:Adamondo
Version:Insane
Source:
Tags:skillet unleashed feelinvincible alternative christian music rock english
BeatmapID:3589501
BeatmapSetID:1753983

[Difficulty]
HPDrainRate:5.5
CircleSize:4.2
OverallDifficulty:7.1
ApproachRate:9.3
SliderMultiplier:2
SliderTickRate:3

[Events]
//Background and Video events
0,0,"skilet back.jpg",0,0
//Break Periods
2,40291,43301
2,157910,165252
2,215529,218585
//Storyboard Layer 0 (Background)
//Storyboard Layer 1 (Fail)
//Storyboard Layer 2 (Pass)
//Storyboard Layer 3 (Foreground)
//Storyboard Layer 4 (Overlay)
//Storyboard Sound Samples

[TimingPoints]
92,476.190476190476,4,3,2,80,1,0
93,-100,4,3,2,70,0,0
9615,-66.6666666666667,4,3,2,70,0,0
24853,-58.8235294117647,4,3,2,75,0,0
42949,-100,4,3,2,80,0,1
70568,-100,4,3,2,80,0,1
78187,-66.6666666666667,4,3,2,75,0,0
93425,-58.8235294117647,4,3,2,75,0,0
111996,-100,4,3,2,80,0,1
139139,-100,4,3,2,80,0,1
146758,-66.6666666666667,4,3,2,85,0,0
165806,-133.333333333333,4,3,2,75,0,0
173425,-100,4,3,2,75,0,0
177234,-100,4,3,2,75,0,0

[Colours]
Combo1 : 255,255,0
Combo2 : 255,0,0
Combo3 : 0,128,255
Combo4 : 255,128,64
Combo5 : 64,0,128

[HitObjects]
127,61,1996,6,8,B|243:60|243:60|329:95,1,200
454,169,2949,1,2,0:0:0:0:
326,205,3107,1,4,0:0:0:0:
444,266,3266,1,4,0:0:0:0:
320,316,3425,1,8,0:0:0:0:
229,71,3901,5,8,0:0:0:0:
185,267,4377,1,8,0:0:0:0:
316,170,4853,2,0,B|339:153|339:153|396:177,1,66.6666666666667,2|0,0:0|0:0,0:0:0:0:
435,226,5171,2,0,B|452:249|452:249|434:308,1,66.6666666666667,0|2,0:0|0:0,0:0:0:0:
327,316,5806,6,8,B|211:317|211:317|125:282,1,200
0,208,6759,1,2,0:0:0:0:
130,156,6917,1,4,0:0:0:0:
10,111,7076,1,4,0:0:0:0:
134,61,7235,1,0,0:0:0:0:
436,244,7711,5,8,0:0:0:0:
292,92,8187,1,8,0:0:0:0:
242,282,8663,1,8,0:0:0:0:
115,320,8822,2,0,B|65:326|65:326|29:313,1,66.6666666666667
119,207,9139,1,8,0:0:0:0:
386,204,9457,5,0,0:0:0:0:
265,149,9615,1,0,0:0:0:0:
393,113,9774,2,0,B|361:82|361:82|266:45,1,100.000003814697
187,31,10091,1,8,0:0:0:0:
187,31,10250,2,0,L|156:137,1,100.000003814697
129,250,10568,2,0,L|248:281,1,100.000003814697
350,303,10885,1,0,0:0:0:0:
272,198,11044,1,8,0:0:0:0:
448,88,11520,5,0,0:0:0:0:
322,92,11679,2,0,B|246:98|246:98|209:158,1,100.000003814697
189,240,11996,2,0,B|268:198|268:198|387:198,1,200.000007629395,8|0,0:0|0:0,0:0:0:0:
464,296,12472,2,0,B|472:137|472:137|320:98,1,300.000011444092,0|8,0:0|0:0,0:0:0:0:
88,40,13266,5,0,0:0:0:0:
224,80,13425,1,0,0:0:0:0:
96,128,13584,2,0,P|40:152|16:184,1,100.000003814697
180,190,13901,2,0,B|332:198|332:198|388:174,1,200.000007629395,8|0,0:0|0:0,0:0:0:0:
288,120,14377,1,0,0:0:0:0:
144,120,14536,2,0,B|80:120|80:120|48:192,1,100.000003814697
24,288,14853,1,8,0:0:0:0:
416,232,15330,5,0,0:0:0:0:
200,96,15806,1,8,0:0:0:0:
416,120,15965,1,0,0:0:0:0:
248,232,16123,1,0,0:0:0:0:
320,40,16282,1,0,0:0:0:0:
416,248,16441,1,0,0:0:0:0:
208,64,16599,1,0,0:0:0:0:
416,152,16758,1,8,0:0:0:0:
160,208,17076,5,0,0:0:0:0:
168,328,17234,2,0,B|240:360|240:360|336:264,1,200.000007629395
416,168,17711,1,8,0:0:0:0:
416,168,17869,1,0,0:0:0:0:
280,128,18028,1,0,0:0:0:0:
152,80,18187,1,0,0:0:0:0:
360,256,18663,1,8,0:0:0:0:
440,40,19139,5,0,0:0:0:0:
304,72,19298,2,0,P|232:96|208:104,1,100.000003814697
344,152,19615,2,0,L|448:192,1,100.000003814697,8|0,0:0|0:0,0:0:0:0:
296,216,19933,1,0,0:0:0:0:
160,184,20091,1,0,0:0:0:0:
456,336,20568,1,8,0:0:0:0:
408,64,20885,6,0,P|320:56|288:64,1,100.000003814697
168,80,21203,1,0,0:0:0:0:
288,144,21361,1,0,0:0:0:0:
152,184,21520,1,8,0:0:0:0:
408,296,21838,2,0,P|328:280|288:272,1,100.000003814697
32,296,22314,2,0,P|112:280|152:272,1,100.000003814697,0|8,0:0|0:0,0:0:0:0:
496,168,22790,5,0,0:0:0:0:
339,196,22949,1,0,0:0:0:0:
448,80,23107,1,0,0:0:0:0:
441,246,23266,1,0,0:0:0:0:
336,91,23425,1,8,0:0:0:0:
104,24,23901,5,0,0:0:0:0:
232,72,24060,1,0,0:0:0:0:
104,136,24218,1,0,0:0:0:0:
240,176,24377,2,2,B|344:224|344:224|424:160,1,200.000007629395,8|0,0:0|0:0,0:0:0:0:
211,198,24853,6,0,B|115:134|115:134|99:-26,1,226.66667098999
224,128,25330,6,0,B|288:32|288:32|448:16,1,226.66667098999
296,136,25806,6,0,B|392:200|392:200|408:360,1,226.66667098999
256,248,26282,1,4,0:0:0:0:
112,176,26758,5,0,0:0:0:0:
256,120,26917,2,0,B|336:88|336:88|400:96,1,113.333335494995
512,128,27234,1,0,0:0:0:0:
368,200,27393,1,0,0:0:0:0:
504,280,27552,1,0,0:0:0:0:
432,144,27711,2,0,B|392:96|392:96|216:112,1,226.66667098999
80,128,28187,1,6,0:0:0:0:
40,224,28504,5,0,0:0:0:0:
160,328,28663,1,0,0:0:0:0:
17,318,28822,1,0,0:0:0:0:
253,264,28980,2,0,L|365:232,1,113.333335494995
232,176,29298,1,0,0:0:0:0:
384,128,29457,1,0,0:0:0:0:
232,80,29615,2,0,B|136:48|136:48|0:72,1,226.66667098999
144,136,30091,1,6,0:0:0:0:
328,120,30568,5,0,0:0:0:0:
328,120,30726,1,0,0:0:0:0:
435,172,30885,2,0,B|496:216|496:216|496:272,1,113.333335494995,0|6,0:0|0:0,0:0:0:0:
176,280,31520,5,0,0:0:0:0:
176,280,31679,1,0,0:0:0:0:
72,216,31838,2,0,B|16:168|16:168|16:112,1,113.333335494995,0|6,0:0|0:0,0:0:0:0:
144,208,32472,5,0,0:0:0:0:
248,24,32790,5,0,0:0:0:0:
352,144,32949,1,4,0:0:0:0:
192,240,33266,5,0,0:0:0:0:
56,176,33425,1,0,0:0:0:0:
304,152,33742,5,0,0:0:0:0:
368,296,33901,1,4,0:0:0:0:
424,144,34060,2,0,L|464:32,1,113.333335494995
304,64,34377,1,0,0:0:0:0:
376,208,34536,2,0,B|304:216|304:216|224:192,1,113.333335494995
120,144,34853,1,6,0:0:0:0:
272,112,35012,1,0,0:0:0:0:
160,217,35171,1,0,0:0:0:0:
264,204,35330,2,0,B|192:284|192:284|351:268,1,226.66667098999
382,198,35806,1,6,0:0:0:0:
432,304,36123,5,0,0:0:0:0:
312,200,36282,2,0,B|208:104|208:104|224:104,1,113.333335494995
392,120,36599,1,0,0:0:0:0:
352,272,36758,1,4,0:0:0:0:
280,88,37076,5,0,0:0:0:0:
160,192,37235,2,0,B|56:288|56:288|72:288,1,113.333335494995
240,272,37552,1,0,0:0:0:0:
200,120,37711,1,4,0:0:0:0:
416,176,38028,5,0,0:0:0:0:
416,176,38187,1,0,0:0:0:0:
280,96,38345,2,0,B|200:48|200:48|208:16,1,113.333335494995
360,64,38663,1,4,0:0:0:0:
128,144,38980,5,0,0:0:0:0:
128,144,39139,1,0,0:0:0:0:
192,256,39297,2,0,B|240:336|240:336|272:328,1,113.333335494995
224,176,39615,2,0,B|208:104|208:104|64:32,1,226.66667098999,4|0,0:0|0:0,0:0:0:0:
32,120,40091,1,0,0:0:0:0:
216,56,43901,6,0,P|304:48|352:72,1,133.333333333333,4|0,0:0|0:0,0:0:0:0:
416,152,44377,2,0,P|424:240|400:288,1,133.333333333333,2|0,0:0|0:0,0:0:0:0:
312,336,44853,2,0,P|224:344|176:320,1,133.333333333333,4|0,0:0|0:0,0:0:0:0:
104,248,45330,1,2,0:0:0:0:
216,232,45488,1,4,0:0:0:0:
127,159,45647,1,0,0:0:0:0:
40,80,45806,2,0,B|32:48|32:48|144:48,1,133.333333333333,4|0,0:0|0:0,0:0:0:0:
249,51,46282,1,2,0:0:0:0:
360,68,46441,2,0,B|400:80|400:80|416:128,1,66.6666666666667
320,176,46758,2,0,B|248:168|248:168|176:112,1,133.333333333333,4|0,0:0|0:0,0:0:0:0:
120,56,47234,1,2,0:0:0:0:
344,104,47552,5,0,0:0:0:0:
368,216,47711,2,0,B|384:288|384:288|448:232,1,133.333333333333,4|0,0:0|0:0,0:0:0:0:
496,152,48187,2,0,B|496:96|496:96|408:48,1,133.333333333333,2|0,0:0|0:0,0:0:0:0:
320,32,48663,1,4,0:0:0:0:
208,32,48822,2,0,P|176:48|152:80,1,66.6666666666667
144,184,49139,2,0,P|176:168|200:136,1,66.6666666666667,2|0,0:0|0:0,0:0:0:0:
280,64,49457,1,0,0:0:0:0:
288,176,49615,1,4,0:0:0:0:
80,272,49933,5,0,0:0:0:0:
80,160,50091,1,2,0:0:0:0:
152,248,50250,1,0,0:0:0:0:
152,136,50409,1,0,0:0:0:0:
224,224,50568,2,0,L|232:72,1,133.333333333333,4|0,0:0|0:0,0:0:0:0:
240,8,51044,2,0,B|296:16|296:16|424:136,1,200,2|4,0:0|0:0,0:0:0:0:
288,136,51679,1,0,0:0:0:0:
384,200,51838,1,0,0:0:0:0:
272,224,51996,2,0,B|200:240|200:240|120:224,1,133.333333333333,2|0,0:0|0:0,0:0:0:0:
56,160,52472,2,0,B|128:144|128:144|208:160,1,133.333333333333,4|0,0:0|0:0,0:0:0:0:
296,192,52949,2,0,B|368:224|368:224|440:224,1,133.333333333333,2|0,0:0|0:0,0:0:0:0:
424,336,53425,2,0,B|376:336|376:336|344:320,2,66.6666666666667,4|0|0,0:0|0:0|0:0,0:0:0:0:
312,304,53901,6,0,B|248:272|248:272|200:208,1,133.333333333333,2|0,0:0|0:0,0:0:0:0:
160,120,54377,1,4,0:0:0:0:
272,152,54536,1,0,0:0:0:0:
224,48,54695,1,0,0:0:0:0:
328,80,54853,2,0,B|368:96|368:96|384:160|384:160|384:192,1,133.333333333333,2|0,0:0|0:0,0:0:0:0:
400,296,55330,1,4,0:0:0:0:
104,192,55806,5,2,0:0:0:0:
128,80,55965,2,0,L|184:144,1,66.6666666666667
216,232,56282,2,0,L|192:320,1,66.6666666666667,4|0,0:0|0:0,0:0:0:0:
168,384,56599,1,0,0:0:0:0:
104,288,56758,2,0,B|64:216|64:216|80:144,1,133.333333333333,2|0,0:0|0:0,0:0:0:0:
104,56,57234,2,0,B|152:112|152:112|152:200,1,133.333333333333,4|0,0:0|0:0,0:0:0:0:
152,288,57711,2,0,B|192:256|192:256|280:256,1,133.333333333333,2|0,0:0|0:0,0:0:0:0:
256,144,58187,2,0,B|320:144|320:144|392:88,1,133.333333333333,4|0,0:0|0:0,0:0:0:0:
264,72,58663,6,0,B|192:72|192:72|80:144,1,200,2|4,0:0|0:0,0:0:0:0:
48,248,59298,2,0,L|24:312,1,66.6666666666667
128,256,59615,1,2,0:0:0:0:
240,240,59774,1,0,0:0:0:0:
144,176,59933,1,0,0:0:0:0:
256,152,60091,2,0,B|304:136|304:136|336:136,1,66.6666666666667,4|0,0:0|0:0,0:0:0:0:
432,168,60409,1,0,0:0:0:0:
336,224,60568,2,0,B|256:264|256:264|144:248,1,200,2|4,0:0|0:0,0:0:0:0:
376,232,61361,5,0,0:0:0:0:
368,120,61520,2,0,B|360:48|360:48|296:96,1,133.333333333333,2|0,0:0|0:0,0:0:0:0:
224,160,61996,2,0,B|176:208|176:208|136:144,1,133.333333333333,4|0,0:0|0:0,0:0:0:0:
88,48,62472,2,0,B|48:96|48:96|48:184,1,133.333333333333,2|0,0:0|0:0,0:0:0:0:
48,280,62949,5,4,0:0:0:0:
160,272,63107,2,0,L|248:264,1,66.6666666666667
184,192,63425,2,0,L|144:120,1,66.6666666666667,2|0,0:0|0:0,0:0:0:0:
224,96,63742,1,0,0:0:0:0:
312,176,63901,1,4,0:0:0:0:
320,88,64060,2,0,L|368:24,1,66.6666666666667
408,136,64377,2,0,B|384:240|384:240|312:304,1,200,2|4,0:0|0:0,0:0:0:0:
328,208,65171,5,0,0:0:0:0:
320,96,65330,2,0,B|312:24|312:24|248:72,1,133.333333333333,2|0,0:0|0:0,0:0:0:0:
176,136,65806,2,0,B|128:184|128:184|88:120,1,133.333333333333,4|0,0:0|0:0,0:0:0:0:
40,24,66282,2,0,B|0:72|0:72|8:224,1,200,2|4,0:0|0:0,0:0:0:0:
344,256,67234,5,2,0:0:0:0:
248,200,67393,2,0,L|168:160,1,66.6666666666667
88,120,67711,2,0,B|64:200|64:200|96:248,1,133.333333333333,4|0,0:0|0:0,0:0:0:0:
176,320,68187,1,2,0:0:0:0:
168,208,68345,2,0,L|224:256,1,66.6666666666667
312,320,68663,2,0,B|312:248|312:248|256:184,1,133.333333333333,4|0,0:0|0:0,0:0:0:0:
196,114,69139,1,2,0:0:0:0:
208,240,70568,6,0,P|152:168|96:152,1,133.333333333333,2|8,0:0|0:0,0:0:0:0:
224,136,71044,2,0,P|280:64|336:48,1,133.333333333333,2|8,0:0|0:0,0:0:0:0:
416,112,71520,1,0,0:0:0:0:
312,152,71679,1,0,0:0:0:0:
392,232,71838,1,0,0:0:0:0:
280,240,71996,1,0,0:0:0:0:
360,320,72155,1,0,0:0:0:0:
248,336,72314,1,0,0:0:0:0:
184,240,72472,6,0,B|152:184|152:184|72:160,1,133.333333333333,2|8,0:0|0:0,0:0:0:0:
192,128,72949,2,0,B|224:72|224:72|304:48,1,133.333333333333,2|8,0:0|0:0,0:0:0:0:
400,48,73425,2,0,L|472:48,1,66.6666666666667
384,128,73742,1,0,0:0:0:0:
480,144,73901,2,0,P|440:216|376:256,1,133.333333333333
312,176,74377,6,0,P|240:216|200:280,1,133.333333333333,2|8,0:0|0:0,0:0:0:0:
320,280,74853,2,0,P|280:352|216:392,1,133.333333333333,2|8,0:0|0:0,0:0:0:0:
136,336,75330,2,0,B|104:328|104:328|72:280,1,66.6666666666667
32,200,75647,1,0,0:0:0:0:
136,240,75806,1,0,0:0:0:0:
96,136,75965,1,0,0:0:0:0:
200,168,76123,1,0,0:0:0:0:
152,64,76282,6,0,B|256:104|256:104|288:96,1,133.333333333333,2|8,0:0|0:0,0:0:0:0:
376,40,76758,2,0,B|416:144|416:144|408:176,1,133.333333333333,2|8,0:0|0:0,0:0:0:0:
320,232,77234,1,2,0:0:0:0:
216,176,77393,1,2,0:0:0:0:
216,288,77552,1,2,0:0:0:0:
128,216,77711,2,0,L|16:136,1,133.333333333333,2|2,0:0|0:0,0:0:0:0:
176,64,78187,6,0,L|400:64,1,200.000007629395
272,144,78663,1,6,0:0:0:0:
144,168,78822,2,0,L|40:200,1,100.000003814697
160,264,79139,2,0,L|360:200,1,200.000007629395
232,144,79615,5,6,0:0:0:0:
352,88,79774,1,0,0:0:0:0:
232,32,79933,1,0,0:0:0:0:
104,56,80091,2,0,B|56:72|56:72|40:120,1,100.000003814697
48,248,80409,2,0,B|64:296|64:296|112:312,1,100.000003814697,0|6,0:0|0:0,0:0:0:0:
240,328,80726,1,0,0:0:0:0:
168,216,80885,1,0,0:0:0:0:
296,232,81044,6,0,B|400:248|400:248|488:200,1,200.000007629395
368,136,81520,1,6,0:0:0:0:
296,224,81996,6,0,B|400:240|400:240|488:192,1,200.000007629395
368,144,82472,1,6,0:0:0:0:
296,216,82949,6,0,B|400:232|400:232|488:184,1,200.000007629395
368,136,83425,1,6,0:0:0:0:
488,120,83584,1,0,0:0:0:0:
368,56,83742,1,0,0:0:0:0:
496,40,83901,1,0,0:0:0:0:
240,72,84218,5,0,0:0:0:0:
112,96,84377,2,0,B|48:112|48:112|152:216,1,200.000007629395,6|0,0:0|0:0,0:0:0:0:
240,296,84853,1,0,0:0:0:0:
224,168,85012,1,0,0:0:0:0:
328,248,85171,1,0,0:0:0:0:
320,120,85330,1,6,0:0:0:0:
64,72,85647,5,0,0:0:0:0:
64,200,85806,2,0,B|64:312|64:312|152:280,1,200.000007629395
208,168,86282,2,0,B|320:168|320:168|288:256,1,200.000007629395,6|0,0:0|0:0,0:0:0:0:
240,352,86758,1,0,0:0:0:0:
352,280,86917,2,0,L|440:216,1,100.000003814697
512,160,87234,1,6,0:0:0:0:
256,192,87552,5,0,0:0:0:0:
232,64,87711,2,0,B|216:0|216:0|112:104,1,200.000007629395
32,192,88187,2,0,B|-8:224|-8:224|152:288,1,200.000007629395,6|0,0:0|0:0,0:0:0:0:
256,304,88663,2,0,B|368:336|368:336|328:248,1,200.000007629395
280,144,89139,1,6,0:0:0:0:
456,64,89457,5,0,0:0:0:0:
328,56,89615,1,0,0:0:0:0:
64,56,89933,1,0,0:0:0:0:
184,104,90091,1,6,0:0:0:0:
72,176,90250,1,0,0:0:0:0:
200,208,90409,2,0,L|296:240,1,100.000003814697
360,128,90885,5,0,0:0:0:0:
352,248,91044,2,0,P|320:320|104:352,1,300.000011444092,6|0,0:0|0:0,0:0:0:0:
216,120,91838,5,0,0:0:0:0:
344,120,91996,1,6,0:0:0:0:
160,304,92314,2,0,P|160:240|184:208,1,100.000003814697
312,232,92631,2,0,P|312:168|288:136,1,100.000003814697
192,56,92949,1,6,0:0:0:0:
368,112,93425,5,0,0:0:0:0:
152,312,93742,5,0,0:0:0:0:
112,168,93901,1,6,0:0:0:0:
168,0,94218,5,0,0:0:0:0:
216,136,94377,1,0,0:0:0:0:
336,248,94695,5,0,0:0:0:0:
192,248,94853,1,6,0:0:0:0:
72,160,95012,2,0,P|32:112|24:56,1,113.333335494995
160,128,95330,2,0,P|200:168|216:224,1,113.333335494995
216,368,95647,1,0,0:0:0:0:
88,288,95806,2,0,P|32:224|56:80,1,226.66667098999,6|0,0:0|0:0,0:0:0:0:
104,0,96282,1,0,0:0:0:0:
392,40,96599,5,0,0:0:0:0:
376,184,96758,2,0,P|336:280|248:368,1,226.66667098999,6|0,0:0|0:0,0:0:0:0:
240,216,97234,2,0,P|280:136|312:112,1,113.333335494995
392,40,97552,1,0,0:0:0:0:
424,184,97711,1,6,0:0:0:0:
160,48,98028,5,0,0:0:0:0:
240,192,98187,1,0,0:0:0:0:
96,144,98345,1,0,0:0:0:0:
240,88,98504,1,0,0:0:0:0:
152,208,98663,1,6,0:0:0:0:
304,272,98981,5,0,0:0:0:0:
344,128,99139,1,0,0:0:0:0:
408,264,99298,1,0,0:0:0:0:
448,120,99457,2,0,L|480:8,1,113.333335494995,0|6,0:0|0:0,0:0:0:0:
304,48,99933,5,0,0:0:0:0:
160,88,100091,1,0,0:0:0:0:
296,152,100250,1,0,0:0:0:0:
152,192,100409,2,0,L|40:224,1,113.333335494995,0|6,0:0|0:0,0:0:0:0:
181,112,101044,6,0,L|413:112,1,226.66667098999
407,112,101520,2,0,L|272:336,1,226.66667098999,6|0,0:0|0:0,0:0:0:0:
289,306,101996,2,0,L|176:104,1,226.66667098999
128,16,102472,1,6,0:0:0:0:
304,320,102948,5,0,0:0:0:0:
376,176,103107,2,0,B|304:168|304:168|224:192,1,113.333335494995,0|0,0:0|0:0,0:0:0:0:
120,240,103424,1,6,0:0:0:0:
272,272,103583,1,0,0:0:0:0:
160,167,103742,1,0,0:0:0:0:
304,184,103901,2,0,B|384:200|384:200|288:88,1,226.66667098999
216,24,104377,1,6,0:0:0:0:
432,80,104694,5,0,0:0:0:0:
312,184,104853,2,0,B|208:280|208:280|224:280,1,113.333335494995
392,264,105171,1,0,0:0:0:0:
352,112,105329,1,6,0:0:0:0:
280,296,105647,5,0,0:0:0:0:
160,192,105806,2,0,B|56:96|56:96|72:96,1,113.333335494995
240,112,106123,1,0,0:0:0:0:
200,264,106282,1,6,0:0:0:0:
72,224,106599,5,0,0:0:0:0:
96,112,106758,2,0,L|120:0,1,113.333335494995
184,96,107076,2,0,L|160:208,1,113.333335494995,0|6,0:0|0:0,0:0:0:0:
64,296,107552,6,0,B|136:232|136:232|152:208,1,113.333335494995
192,128,107869,2,0,B|240:48|240:48|272:56,1,113.333335494995
224,208,108186,2,0,B|208:280|208:280|64:352,1,226.66667098999,6|0,0:0|0:0,0:0:0:0:
32,264,108662,1,0,0:0:0:0:
274,113,111838,5,0,0:0:0:0:
177,136,111996,2,0,B|96:154|96:154|90:210,1,133.333333333333,2|0,0:0|0:0,0:0:0:0:
293,294,112472,2,0,P|205:302|157:278,1,133.333333333333,4|0,0:0|0:0,0:0:0:0:
84,224,112949,1,2,0:0:0:0:
181,204,113107,1,4,0:0:0:0:
106,136,113266,1,0,0:0:0:0:
164,54,113425,2,0,L|271:146,1,133.333333333333,4|0,0:0|0:0,0:0:0:0:
340,207,113901,1,2,0:0:0:0:
354,107,114060,2,0,B|394:123|394:123|410:171,1,66.6666666666667
442,236,114377,2,0,B|370:228|370:228|298:172,1,133.333333333333,4|0,0:0|0:0,0:0:0:0:
246,124,114853,1,2,0:0:0:0:
339,103,115171,5,0,0:0:0:0:
363,215,115330,2,0,B|379:287|379:287|443:231,1,133.333333333333,4|0,0:0|0:0,0:0:0:0:
466,157,115806,2,0,B|476:106|476:106|337:50,1,200,2|4,0:0|0:0,0:0:0:0:
297,68,116599,5,0,0:0:0:0:
253,158,116758,1,2,0:0:0:0:
204,70,116917,2,0,P|172:86|148:118,1,66.6666666666667
132,207,117234,2,0,P|164:191|188:159,1,66.6666666666667,4|0,0:0|0:0,0:0:0:0:
204,69,117552,1,0,0:0:0:0:
105,89,117711,2,0,P|73:113|52:278,1,200,2|4,0:0|0:0,0:0:0:0:
243,262,118504,5,0,0:0:0:0:
332,216,118663,1,2,0:0:0:0:
245,169,118822,2,0,P|261:137|293:113,1,66.6666666666667
382,97,119139,2,0,P|366:129|334:153,1,66.6666666666667,4|0,0:0|0:0,0:0:0:0:
286,232,119457,1,0,0:0:0:0:
349,308,119615,2,0,P|365:276|397:252,1,66.6666666666667,2|0,0:0|0:0,0:0:0:0:
486,236,119932,2,0,P|470:268|438:292,1,66.6666666666667,2|4,0:0|0:0,0:0:0:0:
145,280,120409,5,0,0:0:0:0:
169,183,120568,2,0,L|202:51,1,133.333333333333,2|0,0:0|0:0,0:0:0:0:
299,72,121044,1,4,0:0:0:0:
233,260,121361,5,0,0:0:0:0:
330,236,121520,2,0,L|462:203,1,133.333333333333,2|0,0:0|0:0,0:0:0:0:
441,106,121996,1,4,0:0:0:0:
241,89,122314,5,0,0:0:0:0:
141,82,122472,2,0,L|65:81,1,66.6666666666667,2|0,0:0|0:0,0:0:0:0:
139,158,122790,2,0,L|191:219,1,66.6666666666667,0|4,0:0|0:0,0:0:0:0:
386,203,123266,5,0,0:0:0:0:
297,151,123425,2,0,L|119:43,1,200,2|4,0:0|0:0,0:0:0:0:
99,191,124377,5,2,0:0:0:0:
123,79,124536,2,0,L|179:143,1,66.6666666666667
211,231,124853,2,0,L|187:319,1,66.6666666666667,4|0,0:0|0:0,0:0:0:0:
163,383,125170,1,0,0:0:0:0:
99,287,125329,2,0,B|59:215|59:215|75:143,1,133.333333333333,2|0,0:0|0:0,0:0:0:0:
99,55,125805,2,0,B|147:111|147:111|147:199,1,133.333333333333,4|0,0:0|0:0,0:0:0:0:
147,287,126282,2,0,B|187:255|187:255|275:255,1,133.333333333333,2|0,0:0|0:0,0:0:0:0:
251,143,126758,2,0,B|315:143|315:143|387:87,1,133.333333333333,4|0,0:0|0:0,0:0:0:0:
259,71,127234,6,0,B|187:71|187:71|75:143,1,200,2|4,0:0|0:0,0:0:0:0:
43,247,127869,2,0,L|19:311,1,66.6666666666667
123,255,128186,1,2,0:0:0:0:
235,239,128345,1,0,0:0:0:0:
139,175,128504,1,0,0:0:0:0:
251,151,128662,2,0,B|299:135|299:135|331:135,1,66.6666666666667,4|0,0:0|0:0,0:0:0:0:
427,167,128980,1,0,0:0:0:0:
331,223,129139,2,0,B|251:263|251:263|139:247,1,200,2|4,0:0|0:0,0:0:0:0:
322,161,129933,5,0,0:0:0:0:
236,201,130091,2,0,P|143:199|107:175,1,133.333333333333,4|0,0:0|0:0,0:0:0:0:
165,93,130568,2,0,P|72:95|36:119,1,133.333333333333
61,213,131044,2,0,B|128:223|128:223|218:211,1,133.333333333333,4|0,0:0|0:0,0:0:0:0:
291,193,131520,5,2,0:0:0:0:
386,163,131679,2,0,B|424:152|424:152|432:114,1,66.6666666666667
331,103,131996,2,0,B|304:76|304:76|247:82,1,66.6666666666667,4|0,0:0|0:0,0:0:0:0:
175,91,132314,1,0,0:0:0:0:
193,188,132472,2,0,P|230:228|230:254,1,66.6666666666667,2|0,0:0|0:0,0:0:0:0:
135,269,132790,2,0,P|98:309|98:335,1,66.6666666666667,0|4,0:0|0:0,0:0:0:0:
196,319,133107,1,0,0:0:0:0:
288,279,133266,1,0,0:0:0:0:
351,195,133425,1,2,0:0:0:0:
174,102,133742,5,0,0:0:0:0:
274,104,133901,2,0,B|360:104|360:104|409:136,1,133.333333333333,4|0,0:0|0:0,0:0:0:0:
311,178,134377,2,0,B|211:177|211:177|156:200,1,133.333333333333,4|0,0:0|0:0,0:0:0:0:
263,245,134853,2,4,B|364:247|364:247|449:304,1,200
343,246,135806,5,2,0:0:0:0:
243,199,135965,2,0,L|163:159,1,66.6666666666667
83,119,136283,2,0,B|59:199|59:199|91:247,1,133.333333333333,4|0,0:0|0:0,0:0:0:0:
171,319,136759,1,2,0:0:0:0:
163,207,136917,2,0,L|219:255,1,66.6666666666667
307,319,137235,2,0,B|307:247|307:247|251:183,1,133.333333333333,4|0,0:0|0:0,0:0:0:0:
196,118,137711,1,2,0:0:0:0:
256,192,138028,12,0,138980,0:0:0:0:
203,239,139139,6,0,P|147:167|91:151,1,133.333333333333,6|0,0:0|0:0,0:0:0:0:
219,135,139615,2,0,P|275:63|331:47,1,133.333333333333,6|0,0:0|0:0,0:0:0:0:
411,111,140091,1,0,0:0:0:0:
307,151,140250,1,0,0:0:0:0:
387,231,140409,1,0,0:0:0:0:
275,239,140567,1,0,0:0:0:0:
355,319,140726,1,0,0:0:0:0:
243,335,140885,1,0,0:0:0:0:
179,239,141043,6,0,B|147:183|147:183|67:159,1,133.333333333333,6|0,0:0|0:0,0:0:0:0:
187,127,141520,2,0,B|219:71|219:71|299:47,1,133.333333333333,6|0,0:0|0:0,0:0:0:0:
395,47,141996,2,0,L|467:47,1,66.6666666666667
379,127,142313,1,0,0:0:0:0:
475,143,142472,2,0,P|435:215|371:255,1,133.333333333333
307,175,142948,6,0,P|235:215|195:279,1,133.333333333333,6|0,0:0|0:0,0:0:0:0:
315,279,143424,2,0,P|275:351|211:391,1,133.333333333333,6|0,0:0|0:0,0:0:0:0:
131,335,143901,2,0,B|99:327|99:327|67:279,1,66.6666666666667
27,199,144218,1,0,0:0:0:0:
131,239,144377,1,0,0:0:0:0:
91,135,144536,1,0,0:0:0:0:
195,167,144694,1,0,0:0:0:0:
147,63,144853,6,0,B|251:103|251:103|283:95,1,133.333333333333,6|0,0:0|0:0,0:0:0:0:
371,39,145329,2,0,B|411:143|411:143|403:175,1,133.333333333333,6|0,0:0|0:0,0:0:0:0:
315,231,145806,1,6,0:0:0:0:
211,175,145964,1,2,0:0:0:0:
211,287,146123,1,2,0:0:0:0:
123,215,146282,2,0,L|11:135,1,133.333333333333,2|2,0:0|0:0,0:0:0:0:
162,93,146758,6,0,P|241:76|390:129,1,200.000007629395,4|0,0:0|0:0,0:0:0:0:
430,170,147234,2,0,P|351:187|196:145,1,200.000007629395,0|0,0:0|0:0,0:0:0:0:
134,160,147711,6,0,P|158:236|279:339,1,200.000007629395,4|0,0:0|0:0,0:0:0:0:
335,354,148187,2,0,P|310:277|196:163,1,200.000007629395,0|0,0:0|0:0,0:0:0:0:
153,189,148663,2,0,B|140:119|140:119|20:170,1,200.000007629395,4|0,0:0|0:0,0:0:0:0:
101,263,149139,2,0,B|114:333|114:333|234:282,1,200.000007629395
319,232,149615,6,0,B|422:174|422:174|448:90,1,200.000007629395,4|0,0:0|0:0,0:0:0:0:
347,113,150091,2,0,B|244:171|244:171|218:255,1,200.000007629395,0|0,0:0|0:0,0:0:0:0:
200,348,150568,1,6,0:0:0:0:
285,297,150726,1,2,0:0:0:0:
331,208,150885,1,2,0:0:0:0:
315,109,151044,6,0,B|205:160|205:160|172:245,1,200.000007629395,0|0,0:0|0:0,0:0:0:0:
146,329,151520,2,0,B|131:376|131:376|57:241,1,200.000007629395,4|0,0:0|0:0,0:0:0:0:
11,155,151996,1,6,0:0:0:0:
104,189,152155,1,2,0:0:0:0:
82,91,152314,1,2,0:0:0:0:
174,128,152472,6,0,B|339:159|339:159|398:210,1,200.000007629395,0|0,0:0|0:0,0:0:0:0:
285,244,152949,2,0,B|170:225|170:225|74:248,1,200.000007629395,4|0,0:0|0:0,0:0:0:0:
1,267,153425,1,6,0:0:0:0:
90,311,153584,1,2,0:0:0:0:
188,326,153742,1,2,0:0:0:0:
284,299,153901,2,0,B|418:258|418:258|457:198,1,200.000007629395,0|0,0:0|0:0,0:0:0:0:
354,180,154377,6,0,P|328:177|334:168,4,50.0000019073487,2|0|0|0|0,0:0|0:0|0:0|0:0|0:0,0:0:0:0:
260,142,154853,2,0,L|76:62,1,200.000007629395,0|0,0:0|0:0,0:0:0:0:
54,160,155330,6,0,P|74:143|76:154,4,50.0000019073487,2|0|0|0|0,0:0|0:0|0:0|0:0|0:0,0:0:0:0:
148,121,155806,2,0,L|334:47,1,200.000007629395,0|0,0:0|0:0,0:0:0:0:
432,28,156282,6,0,P|429:54|420:48,4,50.0000019073487,2|0|0|0|0,0:0|0:0|0:0|0:0|0:0,0:0:0:0:
394,122,156758,2,0,L|314:306,1,200.000007629395,0|0,0:0|0:0,0:0:0:0:
219,274,157234,2,0,P|206:277|220:263,6,50.0000019073487,2|0|0|0|0|0|0,0:0|0:0|0:0|0:0|0:0|0:0|0:0,0:0:0:0:
171,64,165806,5,0,0:0:0:0:
117,313,166282,2,0,P|170:328|221:289,1,100.000003814697
257,239,166758,2,0,P|204:224|153:263,1,100.000003814697
228,301,167234,2,0,P|281:316|332:277,1,100.000003814697
379,236,167711,2,0,P|417:196|411:100,1,150.000005722046,0|0,0:0|0:0,0:0:0:0:
249,143,168504,5,0,0:0:0:0:
321,187,168663,1,0,0:0:0:0:
243,222,168822,1,0,0:0:0:0:
182,163,168980,1,0,0:0:0:0:
215,84,169139,1,0,0:0:0:0:
0,226,169615,6,0,P|14:179|46:138,1,100.000003814697
117,71,170091,2,0,P|170:56|221:95,1,100.000003814697
257,145,170567,2,0,P|204:160|153:121,1,100.000003814697
228,83,171043,2,0,P|281:68|332:107,1,100.000003814697
379,148,171520,2,0,P|417:188|411:284,1,150.000005722046,0|0,0:0|0:0,0:0:0:0:
339,237,172155,1,0,0:0:0:0:
259,207,172314,2,0,L|193:184,1,50.0000019073487
130,164,172631,1,0,0:0:0:0:
216,112,172790,1,0,0:0:0:0:
300,58,172949,2,0,B|343:27|343:27|376:85,1,100.000003814697
413,155,173425,5,0,0:0:0:0:
316,180,173584,2,0,L|245:200,1,66.6666666666667
320,270,173901,1,0,0:0:0:0:
416,241,174060,2,0,L|486:220,1,66.6666666666667
412,147,174377,1,0,0:0:0:0:
326,96,174536,2,0,L|261:59,1,66.6666666666667
265,163,174853,1,0,0:0:0:0:
97,53,175171,5,0,0:0:0:0:
93,153,175330,2,0,L|90:242,1,66.6666666666667
167,155,175647,2,0,L|168:77,1,66.6666666666667
368,95,176123,5,0,0:0:0:0:
367,195,176282,2,0,L|366:336,1,133.333333333333
283,272,176758,1,0,0:0:0:0:
216,56,177234,6,0,P|304:48|352:72,1,133.333333333333,12|0,0:0|0:0,0:0:0:0:
416,152,177710,2,0,P|424:240|400:288,1,133.333333333333,2|0,0:0|0:0,0:0:0:0:
312,336,178186,2,0,P|224:344|176:320,1,133.333333333333,4|0,0:0|0:0,0:0:0:0:
97,253,178663,1,0,0:0:0:0:
188,205,178821,1,4,0:0:0:0:
94,158,178980,1,0,0:0:0:0:
40,80,179139,2,0,B|32:48|32:48|144:48,1,133.333333333333,4|0,0:0|0:0,0:0:0:0:
233,52,179615,1,0,0:0:0:0:
329,72,179774,2,0,B|369:88|369:88|385:136,1,66.6666666666667
289,160,180091,2,0,B|217:152|217:152|145:96,1,133.333333333333,4|0,0:0|0:0,0:0:0:0:
111,50,180567,1,2,0:0:0:0:
104,192,181044,5,2,0:0:0:0:
128,80,181203,2,0,L|184:144,1,66.6666666666667
216,232,181520,2,0,L|192:320,1,66.6666666666667,4|0,0:0|0:0,0:0:0:0:
168,384,181837,1,0,0:0:0:0:
104,288,181996,2,0,B|64:216|64:216|80:144,1,133.333333333333,2|0,0:0|0:0,0:0:0:0:
104,56,182472,2,0,B|152:112|152:112|149:247,1,200,4|0,0:0|0:0,0:0:0:0:
61,349,183266,5,0,0:0:0:0:
152,288,183425,2,0,B|192:256|192:256|280:256,1,133.333333333333,6|0,0:0|0:0,0:0:0:0:
256,144,183901,2,0,B|320:144|320:144|392:88,1,133.333333333333,4|0,0:0|0:0,0:0:0:0:
282,61,184377,2,0,B|213:60|213:60|132:103,1,133.333333333333
65,133,184853,1,4,0:0:0:0:
135,203,185012,2,0,L|182:251,1,66.6666666666667
207,153,185330,1,4,0:0:0:0:
270,229,185488,1,0,0:0:0:0:
282,129,185647,2,0,L|336:194,1,66.6666666666667,0|2,0:0|0:0,0:0:0:0:
387,258,185965,1,0,0:0:0:0:
409,161,186123,2,6,L|434:71,1,66.6666666666667,0|0,0:0|0:0,0:0:0:0:
248,263,186599,5,0,0:0:0:0:
337,217,186758,1,4,0:0:0:0:
250,170,186917,2,0,P|266:138|298:114,1,66.6666666666667
387,98,187234,2,0,P|371:130|339:154,1,66.6666666666667,2|0,0:0|0:0,0:0:0:0:
291,233,187552,1,0,0:0:0:0:
354,309,187710,2,0,P|370:277|402:253,1,66.6666666666667,4|0,0:0|0:0,0:0:0:0:
491,237,188027,2,0,P|475:269|443:293,1,66.6666666666667,2|2,0:0|0:0,0:0:0:0:
150,281,188504,5,0,0:0:0:0:
174,184,188663,2,0,L|207:52,1,133.333333333333,4|0,0:0|0:0,0:0:0:0:
304,73,189139,1,2,0:0:0:0:
238,261,189456,5,0,0:0:0:0:
335,237,189615,2,0,L|467:204,1,133.333333333333,4|0,0:0|0:0,0:0:0:0:
446,107,190091,1,2,0:0:0:0:
246,90,190409,5,0,0:0:0:0:
146,83,190567,2,0,L|70:82,1,66.6666666666667,4|0,0:0|0:0,0:0:0:0:
144,159,190885,2,0,L|196:220,1,66.6666666666667,0|6,0:0|0:0,0:0:0:0:
387,207,191361,5,0,0:0:0:0:
302,152,191520,2,0,L|124:44,1,200,4|2,0:0|0:0,0:0:0:0:
323,102,192155,5,0,0:0:0:0:
223,96,192313,1,0,0:0:0:0:
278,179,192472,2,0,L|330:257,1,66.6666666666667
369,319,192790,1,0,0:0:0:0:
365,218,192949,2,0,L|359:53,1,133.333333333333
286,153,193425,2,0,L|197:269,1,133.333333333333
189,159,193901,2,0,L|184:22,1,133.333333333333
96,74,194377,1,0,0:0:0:0:
25,144,194536,2,0,B|7:161|9:161|9:161|38:198,1,66.6666666666667
101,269,194853,6,0,L|188:374,1,133.333333333333
194,271,195330,2,0,L|267:158,1,133.333333333333
303,251,195806,2,0,L|501:303,1,200
392,131,196599,5,0,0:0:0:0:
291,130,196758,2,0,L|126:128,1,133.333333333333,2|0,0:0|0:0,0:0:0:0:
220,206,197234,2,0,L|364:206,1,133.333333333333
454,206,197711,1,2,0:0:0:0:
154,205,198187,1,0,0:0:0:0:
314,86,198504,5,0,0:0:0:0:
213,85,198663,2,0,L|61:86,1,133.333333333333,2|0,0:0|0:0,0:0:0:0:
133,170,199139,2,0,P|182:201|228:280,1,133.333333333333
233,362,199615,2,0,P|184:331|138:252,1,133.333333333333,2|0,0:0|0:0,0:0:0:0:
234,205,200091,6,0,L|182:127,1,66.6666666666667
143,65,200409,1,0,0:0:0:0:
147,166,200568,2,0,L|153:331,1,133.333333333333,2|0,0:0|0:0,0:0:0:0:
226,231,201044,2,0,L|315:115,1,133.333333333333
323,225,201520,2,0,L|328:362,1,133.333333333333,2|0,0:0|0:0,0:0:0:0:
416,310,201996,1,0,0:0:0:0:
487,240,202155,2,0,B|505:223|503:223|503:223|474:186,1,66.6666666666667
406,117,202472,2,0,B|326:42|326:42|283:70,1,133.333333333333,2|0,0:0|0:0,0:0:0:0:
207,76,202949,2,0,B|287:151|287:151|330:123,1,133.333333333333
391,84,203425,2,0,L|425:58,4,33.3333333333333
305,136,203901,1,2,0:0:0:0:
154,267,204218,5,0,0:0:0:0:
241,217,204377,2,0,P|274:154|271:85,1,133.333333333333,2|0,0:0|0:0,0:0:0:0:
187,144,204853,2,0,P|154:207|157:276,1,133.333333333333
231,177,205330,2,0,P|294:210|363:207,1,133.333333333333,2|0,0:0|0:0,0:0:0:0:
304,123,205806,2,0,P|241:90|172:93,1,133.333333333333
271,167,206282,2,0,P|238:230|241:299,1,133.333333333333,2|0,0:0|0:0,0:0:0:0:
325,240,206758,2,0,P|358:177|334:54,1,200,0|2,0:0|0:0,0:0:0:0:
370,151,207711,6,0,L|224:217,1,133.333333333333
128,256,208186,1,0,0:0:0:0:
240,240,208345,1,0,0:0:0:0:
144,176,208504,1,0,0:0:0:0:
256,152,208662,2,0,B|304:136|304:136|336:136,1,66.6666666666667
432,168,208980,1,0,0:0:0:0:
336,224,209139,2,0,B|256:264|256:264|144:248,1,200,2|4,0:0|0:0,0:0:0:0:
327,162,209933,5,0,0:0:0:0:
241,202,210091,2,0,P|148:200|112:176,1,133.333333333333
170,94,210568,2,0,P|77:96|41:120,1,133.333333333333
66,214,211044,2,0,B|133:224|133:224|268:196,1,200
391,164,211679,6,0,B|429:153|429:153|437:115,1,66.6666666666667
336,104,211996,2,0,B|309:77|309:77|252:83,1,66.6666666666667,6|0,0:0|0:0,0:0:0:0:
180,92,212314,1,0,0:0:0:0:
198,189,212472,2,0,P|235:229|235:255,1,66.6666666666667
140,270,212790,2,0,P|103:310|103:336,1,66.6666666666667,0|6,0:0|0:0,0:0:0:0:
201,320,213107,1,0,0:0:0:0:
293,280,213266,1,0,0:0:0:0:
356,196,213425,1,0,0:0:0:0:
179,103,213742,5,0,0:0:0:0:
279,105,213901,2,0,B|365:105|365:105|414:137,1,133.333333333333
316,179,214377,2,0,B|216:178|216:178|161:201,1,133.333333333333
268,246,214853,2,0,B|369:248|369:248|454:305,1,200,6|0,0:0|0:0,0:0:0:0:
208,144,219139,6,0,P|152:216|96:232,1,133.333333333333,6|8,0:0|0:0,0:0:0:0:
224,248,219615,2,0,P|280:320|336:336,1,133.333333333333,6|8,0:0|0:0,0:0:0:0:
416,272,220091,1,0,0:0:0:0:
312,232,220250,1,0,0:0:0:0:
392,152,220409,1,0,0:0:0:0:
280,144,220567,1,0,0:0:0:0:
360,64,220726,1,0,0:0:0:0:
248,48,220885,1,0,0:0:0:0:
184,144,221043,6,0,B|152:200|152:200|72:224,1,133.333333333333,6|8,0:0|0:0,0:0:0:0:
192,256,221520,2,0,B|224:312|224:312|304:336,1,133.333333333333,6|8,0:0|0:0,0:0:0:0:
400,336,221996,2,0,L|472:336,1,66.6666666666667
384,256,222313,1,0,0:0:0:0:
480,240,222472,2,0,P|440:168|376:128,1,133.333333333333
312,208,222949,6,0,P|240:168|200:104,1,133.333333333333,6|8,0:0|0:0,0:0:0:0:
320,104,223425,2,0,P|280:32|216:-8,1,133.333333333333,6|14,0:0|0:0,0:0:0:0:
136,48,223901,2,0,B|104:56|104:56|72:104,1,66.6666666666667
32,184,224218,1,0,0:0:0:0:
136,144,224377,1,0,0:0:0:0:
96,248,224536,1,0,0:0:0:0:
200,216,224694,1,0,0:0:0:0:
152,320,224853,6,0,B|256:280|256:280|288:288,1,133.333333333333,6|8,0:0|0:0,0:0:0:0:
376,344,225330,2,0,B|416:240|416:240|408:208,1,133.333333333333,6|8,0:0|0:0,0:0:0:0:
320,152,225805,1,2,0:0:0:0:
216,208,225964,1,2,0:0:0:0:
216,96,226123,1,2,0:0:0:0:
101,177,226282,2,0,B|37:222|37:222|136:297,1,200,0|4,0:0|0:0,0:0:0:0:
