osu file format v14

[General]
AudioFilename: audio.mp3
AudioLeadIn: 0
PreviewTime: 40091
Countdown: 0
SampleSet: None
StackLeniency: 0.7
Mode: 0
LetterboxInBreaks: 0
WidescreenStoryboard: 1

[Editor]
Bookmarks: 85330,219139
DistanceSpacing: 1.8
BeatDivisor: 6
GridSize: 8
TimelineZoom: 2.1

[Metadata]
Title:Feel Invincible
TitleUnicode:Feel Invincible
Artist:Skillet
ArtistUnicode:Skillet
Creator:Adamondo
Version:Hard
Source:
Tags:skillet unleashed feelinvincible alternative christian music rock english
BeatmapID:3604261
BeatmapSetID:1753983

[Difficulty]
HPDrainRate:4.5
CircleSize:3.5
OverallDifficulty:6
ApproachRate:8.1
SliderMultiplier:1.5
SliderTickRate:3

[Events]
//Background and Video events
0,0,"skilet back.jpg",0,0
//Break Periods
//Storyboard Layer 0 (Background)
//Storyboard Layer 1 (Fail)
//Storyboard Layer 2 (Pass)
//Storyboard Layer 3 (Foreground)
//Storyboard Layer 4 (Overlay)
//Storyboard Sound Samples

[TimingPoints]
92,476.190476190476,4,3,2,80,1,0
93,-100,4,3,2,70,0,0
9615,-66.6666666666667,4,3,2,70,0,0
24853,-58.8235294117647,4,3,2,75,0,0
42949,-100,4,3,2,80,0,1
70568,-100,4,3,2,80,0,1
78187,-66.6666666666667,4,3,2,75,0,0
93425,-58.8235294117647,4,3,2,75,0,0
111996,-100,4,3,2,80,0,1
139139,-100,4,3,2,80,0,1
146758,-66.6666666666667,4,3,2,85,0,0
165806,-133.333333333333,4,3,2,75,0,0
173425,-100,4,3,2,75,0,0
177234,-100,4,3,2,75,0,0

[HitObjects]
112,80,1996,6,0,L|247:188,1,150
349,263,2949,2,0,L|404:308,3,50
368,48,3901,6,0,L|263:180,1,150
177,280,4854,2,0,L|136:333,3,50
400,304,5806,6,0,L|266:197,1,150
169,111,6759,2,0,L|112:66,3,50
144,336,7711,6,0,L|251:202,1,150
326,97,8664,2,0,L|363:48,3,50
131,55,9615,6,0,P|97:110|81:216,1,150.000005722046
155,192,10091,2,0,P|155:253|112:336,1,150.000005722046
70,271,10568,2,0,P|70:193|163:82,1,225.000008583069
336,340,11520,6,0,P|302:285|286:179,1,150.000005722046
360,203,11996,2,0,P|360:142|317:59,1,150.000005722046
275,124,12473,2,0,P|275:202|330:289,1,150.000005722046
376,328,12949,2,0,B|408:360|408:360|416:224,1,150.000005722046
416,168,13425,1,0,0:0:0:0:
160,96,13901,5,0,0:0:0:0:
344,176,14377,5,0,0:0:0:0:
256,208,14536,2,0,L|184:232,1,75.000002861023
96,256,14853,2,0,B|48:272|48:272|104:160,1,150.000005722046
136,104,15330,2,0,B|176:32|176:32|256:160,1,225.000008583069
344,128,16282,5,0,0:0:0:0:
256,144,16441,1,0,0:0:0:0:
320,208,16599,1,0,0:0:0:0:
232,232,16758,2,0,L|80:280,1,150.000005722046
104,184,17234,2,0,L|208:64,1,150.000005722046
240,152,17711,2,0,L|312:296,1,150.000005722046
352,208,18187,2,0,L|480:24,1,225.000008583069
216,72,19139,5,0,0:0:0:0:
128,104,19298,2,0,L|48:136,1,75.000002861023
128,192,19615,2,0,B|216:272|216:272|272:256,1,150.000005722046
328,240,20091,2,0,L|472:192,1,150.000005722046
408,128,20568,2,0,L|232:112,1,150.000005722046
168,104,21044,1,0,0:0:0:0:
344,312,21361,5,0,0:0:0:0:
344,312,21520,2,0,L|176:256,1,150.000005722046
112,240,21996,1,0,0:0:0:0:
184,184,22155,2,0,L|248:128,1,75.000002861023
272,216,22472,2,0,B|296:264|296:264|368:184,1,150.000005722046
296,128,22949,2,0,B|344:72|344:72|448:64,1,150.000005722046
400,152,23425,2,0,L|288:264,1,150.000005722046
224,312,23901,2,0,L|160:368,1,75.000002861023
144,272,24218,2,0,L|152:192,1,75.000002861023
120,64,24695,5,0,0:0:0:0:
120,64,24853,2,0,P|168:32|296:72,1,170.000003242493
352,120,25330,2,0,P|384:168|344:296,1,170.000003242493
296,344,25806,2,0,P|248:376|80:304,1,255.000004863739
32,216,26441,2,0,P|24:176|32:128,1,85.0000016212464
56,32,26758,2,0,P|112:112|112:192,1,170.000003242493
104,280,27234,2,0,P|240:200|288:120,2,255.000004863739
176,89,28504,5,0,0:0:0:0:
247,161,28663,2,0,L|391:313,1,170.000003242493
434,358,29139,1,0,0:0:0:0:
440,153,29457,5,0,0:0:0:0:
339,152,29616,2,0,L|129:154,1,170.000003242493
67,154,30092,1,0,0:0:0:0:
270,159,30409,5,0,0:0:0:0:
270,159,30568,2,0,L|126:300,1,170.000003242493
70,344,31044,2,0,L|68:175,1,170.000003242493
67,71,31520,2,0,L|168:130,1,85.0000016212464
230,164,31838,2,0,L|316:214,1,85.0000016212464
303,206,32472,6,0,P|257:132|159:94,1,170.000003242493
175,199,32949,2,0,P|105:159|80:67,1,170.000003242493
168,29,33425,2,0,P|258:37|323:99,1,170.000003242493
220,124,33901,2,0,P|251:192|285:218,1,85.0000016212464
347,149,34218,2,0,P|377:192|383:231,1,85.0000016212464
280,227,34536,2,0,P|290:283|321:317,1,85.0000016212464
407,288,34853,2,0,P|444:220|428:33,1,255.000004863739
256,190,35806,5,0,0:0:0:0:
230,40,36123,5,0,0:0:0:0:
230,40,36282,2,0,L|115:191,1,170.000003242493
58,250,36758,2,0,L|242:306,1,170.000003242493
322,312,37234,2,0,L|207:161,1,170.000003242493
158,94,37710,1,0,0:0:0:0:
270,159,38028,5,0,0:0:0:0:
270,159,38187,2,0,L|126:300,1,170.000003242493
70,344,38663,2,0,L|68:175,1,170.000003242493
67,71,39139,2,0,L|168:130,1,85.0000016212464
232,160,39457,1,0,0:0:0:0:
324,200,39615,2,0,B|382:227|382:227|435:168|435:168|352:83,1,255.000004863739
117,94,43266,5,0,0:0:0:0:
189,147,43425,2,0,L|289:220,1,100
341,261,43901,2,0,B|397:264|397:264|416:212,1,100
430,134,44377,2,0,P|439:82|414:38,1,100
334,6,44853,2,0,P|281:5|246:42,1,100
218,121,45330,2,0,P|217:182|180:226,1,100
121,264,45806,2,0,L|61:287,1,50
85,192,46123,2,0,L|125:144,1,50
380,90,46758,6,0,L|265:101,1,100
337,169,47234,2,0,L|422:299,1,150
239,275,48028,5,0,0:0:0:0:
166,221,48187,2,0,L|59:162,1,100
153,122,48663,2,0,L|260:63,1,100
317,26,49139,1,0,0:0:0:0:
436,267,49615,5,0,0:0:0:0:
349,241,49774,2,0,L|278:222,1,50
213,203,50091,2,0,P|163:184|131:127,1,100
222,118,50568,2,0,P|277:129|306:185,1,100
321,250,51044,2,0,P|348:323|384:330,1,100
449,349,51520,1,0,0:0:0:0:
449,349,51679,1,0,0:0:0:0:
451,258,51838,2,0,L|452:201,1,50
271,201,52314,6,0,L|213:191,1,50
282,125,52631,2,0,L|386:140,1,100
469,153,53107,1,0,0:0:0:0:
469,153,53266,1,0,0:0:0:0:
419,228,53425,2,0,P|360:271|280:266,1,150
160,139,54218,5,0,0:0:0:0:
250,137,54377,1,0,0:0:0:0:
110,251,54695,2,0,L|176:251,1,50
285,250,55330,6,0,P|354:171|413:162,1,150
402,251,55965,2,0,P|441:233|450:214,1,50
470,142,56282,2,0,P|481:101|424:65,1,100
359,97,56758,2,0,P|322:109|301:94,1,50
250,40,57076,2,0,P|213:31|194:42,1,50
154,187,57711,5,0,0:0:0:0:
320,182,58187,1,0,0:0:0:0:
200,334,58663,1,0,0:0:0:0:
375,129,59139,6,0,B|321:164|321:164|271:132,1,100
224,83,59615,2,0,B|202:67|202:67|173:71,1,50
89,81,59933,1,0,0:0:0:0:
156,139,60091,2,0,L|255:200,1,100
169,247,60568,2,0,L|42:163,1,150
200,76,61361,5,0,0:0:0:0:
271,131,61520,2,0,L|340:183,2,75
396,80,62314,2,0,L|449:99,1,50
181,167,62949,6,0,B|235:132|235:132|285:164,1,100
332,213,63425,2,0,B|354:229|354:229|383:225,1,50
467,215,63743,1,0,0:0:0:0:
400,157,63901,2,0,L|301:96,1,100
230,72,64377,2,0,L|81:85,1,150
351,83,65171,5,0,0:0:0:0:
351,83,65330,2,0,L|351:197,1,100
260,184,65806,2,0,L|152:183,1,100
160,92,66282,2,0,L|321:95,1,150
