osu file format v14

[General]
AudioFilename: audio.mp3
AudioLeadIn: 0
PreviewTime: -1
Countdown: 1
SampleSet: None
StackLeniency: 0.7
Mode: 3
LetterboxInBreaks: 0
SpecialStyle: 0
WidescreenStoryboard: 1

[Editor]
Bookmarks: 17366,34509,51652,60224,73146,86014,94593,111752,120283,133151
DistanceSpacing: 0.8
BeatDivisor: 4
GridSize: 16
TimelineZoom: 1

[Metadata]
Title:Catch Me Outside
TitleUnicode:Catch Me Outside
Artist:Ski Mask The Slump God
ArtistUnicode:Ski Mask The Slump God
Creator:x86
Version:Outside
Source:
Tags:
BeatmapID:1653284
BeatmapSetID:787736

[Difficulty]
HPDrainRate:7
CircleSize:4
OverallDifficulty:7
ApproachRate:5
SliderMultiplier:1.4
SliderTickRate:1

[Events]
//Background and Video events
0,0,"wallpaper_ski_mask_the_slump_god___the_slump_god_by_lu1smigu3l-dbffghg.jpg",0,0
//Break Periods
//Storyboard Layer 0 (Background)
//Storyboard Layer 1 (Fail)
//Storyboard Layer 2 (Pass)
//Storyboard Layer 3 (Foreground)
//Storyboard Sound Samples

[TimingPoints]
224,536.193029490617,4,2,0,40,1,0
120283,536.193029490617,4,2,0,40,1,0

[HitObjects]
448,192,224,5,0,0:0:0:0:
320,192,224,1,0,0:0:0:0:
64,192,224,128,0,1296:0:0:0:0:
320,192,626,1,0,0:0:0:0:
448,192,626,1,0,0:0:0:0:
320,192,1028,1,0,0:0:0:0:
448,192,1028,1,0,0:0:0:0:
192,192,1296,1,0,0:0:0:0:
448,192,1430,1,0,0:0:0:0:
320,192,1564,1,0,0:0:0:0:
64,192,1832,1,0,0:0:0:0:
192,192,1966,1,0,0:0:0:0:
448,192,2368,1,0,0:0:0:0:
192,192,2368,1,0,0:0:0:0:
192,192,2904,128,0,3977:0:0:0:0:
320,192,3039,1,0,0:0:0:0:
448,192,3173,1,0,0:0:0:0:
64,192,3441,1,0,0:0:0:0:
320,192,3575,1,0,0:0:0:0:
448,192,3709,1,0,0:0:0:0:
320,192,3977,128,0,4513:0:0:0:0:
448,192,4513,128,0,5585:0:0:0:0:
64,192,4513,1,0,0:0:0:0:
64,192,4915,1,0,0:0:0:0:
192,192,4915,1,0,0:0:0:0:
64,192,5317,1,0,0:0:0:0:
192,192,5317,1,0,0:0:0:0:
320,192,5585,1,0,0:0:0:0:
192,192,5719,1,0,0:0:0:0:
64,192,5854,1,0,0:0:0:0:
320,192,6122,1,0,0:0:0:0:
448,192,6256,1,0,0:0:0:0:
320,192,6658,1,0,0:0:0:0:
64,192,6658,1,0,0:0:0:0:
320,192,7060,1,0,0:0:0:0:
64,192,7060,1,0,0:0:0:0:
448,192,7194,1,0,0:0:0:0:
320,192,7328,1,0,0:0:0:0:
64,192,7462,1,0,0:0:0:0:
192,192,7462,1,0,0:0:0:0:
192,192,7730,1,0,0:0:0:0:
64,192,7864,1,0,0:0:0:0:
320,192,7998,1,0,0:0:0:0:
320,192,8266,1,0,0:0:0:0:
448,192,8266,1,0,0:0:0:0:
192,192,8803,1,0,0:0:0:0:
448,192,8803,1,0,0:0:0:0:
192,192,9205,1,0,0:0:0:0:
448,192,9205,1,0,0:0:0:0:
64,192,9339,1,0,0:0:0:0:
192,192,9473,1,0,0:0:0:0:
320,192,9607,1,0,0:0:0:0:
448,192,9607,1,0,0:0:0:0:
64,192,9875,1,0,0:0:0:0:
448,192,10009,1,0,0:0:0:0:
64,192,10143,1,0,0:0:0:0:
320,192,10277,1,0,0:0:0:0:
448,192,10411,1,0,0:0:0:0:
320,192,10545,1,0,0:0:0:0:
192,192,10679,1,0,0:0:0:0:
448,192,10947,1,0,0:0:0:0:
64,192,10947,1,0,0:0:0:0:
192,192,11215,1,0,0:0:0:0:
448,192,11350,1,0,0:0:0:0:
64,192,11484,1,0,0:0:0:0:
320,192,11752,1,0,0:0:0:0:
448,192,11752,1,0,0:0:0:0:
64,192,12288,1,0,0:0:0:0:
448,192,12422,1,0,0:0:0:0:
320,192,12556,1,0,0:0:0:0:
64,192,12824,1,0,0:0:0:0:
448,192,13092,128,0,13896:0:0:0:0:
64,192,13092,1,0,0:0:0:0:
320,192,13092,1,0,0:0:0:0:
320,192,13494,1,0,0:0:0:0:
64,192,13494,1,0,0:0:0:0:
320,192,13896,1,0,0:0:0:0:
64,192,13896,128,0,14701:0:0:0:0:
320,192,14701,1,0,0:0:0:0:
448,192,14701,1,0,0:0:0:0:
64,192,15237,1,0,0:0:0:0:
448,192,15237,1,0,0:0:0:0:
64,192,15639,1,0,0:0:0:0:
448,192,15639,1,0,0:0:0:0:
192,192,15773,1,0,0:0:0:0:
448,192,16041,1,0,0:0:0:0:
64,192,16041,1,0,0:0:0:0:
192,192,16309,1,0,0:0:0:0:
320,192,16309,1,0,0:0:0:0:
192,192,16845,1,0,0:0:0:0:
448,192,16845,1,0,0:0:0:0:
448,192,17382,1,0,0:0:0:0:
64,192,17382,1,0,0:0:0:0:
320,192,17382,128,0,17918:0:0:0:0:
192,192,17650,128,0,17918:0:0:0:0:
64,192,17918,128,0,18454:0:0:0:0:
192,192,18186,128,0,18454:0:0:0:0:
448,192,18454,128,0,18722:0:0:0:0:
320,192,18722,128,0,18990:0:0:0:0:
192,192,18990,128,0,19526:0:0:0:0:
64,192,19526,128,0,20063:0:0:0:0:
192,192,19795,1,0,0:0:0:0:
448,192,20063,1,0,0:0:0:0:
320,192,20197,1,0,0:0:0:0:
64,192,20331,1,0,0:0:0:0:
320,192,20465,1,0,0:0:0:0:
448,192,20599,1,0,0:0:0:0:
192,192,20867,1,0,0:0:0:0:
192,192,21135,128,0,21671:0:0:0:0:
320,192,21135,1,0,0:0:0:0:
320,192,21671,1,0,0:0:0:0:
448,192,21805,1,0,0:0:0:0:
64,192,21939,1,0,0:0:0:0:
192,192,22073,1,0,0:0:0:0:
448,192,22207,1,0,0:0:0:0:
320,192,22341,1,0,0:0:0:0:
192,192,22476,1,0,0:0:0:0:
448,192,22610,1,0,0:0:0:0:
64,192,22744,1,0,0:0:0:0:
320,192,23012,1,0,0:0:0:0:
448,192,23146,1,0,0:0:0:0:
320,192,23280,1,0,0:0:0:0:
320,192,23548,1,0,0:0:0:0:
192,192,23682,1,0,0:0:0:0:
320,192,23816,1,0,0:0:0:0:
448,192,23816,1,0,0:0:0:0:
64,192,23950,1,0,0:0:0:0:
192,192,24084,1,0,0:0:0:0:
448,192,24218,1,0,0:0:0:0:
64,192,24352,1,0,0:0:0:0:
448,192,24486,1,0,0:0:0:0:
192,192,24620,1,0,0:0:0:0:
320,192,24754,1,0,0:0:0:0:
448,192,24888,1,0,0:0:0:0:
64,192,25156,1,0,0:0:0:0:
192,192,25156,1,0,0:0:0:0:
320,192,25425,1,0,0:0:0:0:
448,192,25425,1,0,0:0:0:0:
64,192,25961,128,0,26229:0:0:0:0:
448,192,25961,1,0,0:0:0:0:
192,192,26095,1,0,0:0:0:0:
320,192,26229,1,0,0:0:0:0:
448,192,26363,1,0,0:0:0:0:
192,192,26497,1,0,0:0:0:0:
64,192,26631,1,0,0:0:0:0:
320,192,26765,1,0,0:0:0:0:
448,192,26899,1,0,0:0:0:0:
192,192,27033,1,0,0:0:0:0:
320,192,27167,1,0,0:0:0:0:
64,192,27301,1,0,0:0:0:0:
192,192,27435,1,0,0:0:0:0:
320,192,27569,1,0,0:0:0:0:
448,192,27569,1,0,0:0:0:0:
192,192,27837,1,0,0:0:0:0:
64,192,27971,1,0,0:0:0:0:
192,192,28106,1,0,0:0:0:0:
448,192,28240,1,0,0:0:0:0:
64,192,28374,1,0,0:0:0:0:
320,192,28508,1,0,0:0:0:0:
448,192,28642,1,0,0:0:0:0:
64,192,28776,1,0,0:0:0:0:
448,192,28910,1,0,0:0:0:0:
64,192,29044,1,0,0:0:0:0:
192,192,29178,1,0,0:0:0:0:
448,192,29178,1,0,0:0:0:0:
192,192,29446,1,0,0:0:0:0:
320,192,29446,1,0,0:0:0:0:
192,192,29714,128,0,29982:0:0:0:0:
448,192,29714,128,0,29982:0:0:0:0:
192,192,30250,1,0,0:0:0:0:
64,192,30384,1,0,0:0:0:0:
320,192,30518,1,0,0:0:0:0:
448,192,30652,1,0,0:0:0:0:
320,192,30787,1,0,0:0:0:0:
192,192,30921,1,0,0:0:0:0:
64,192,31055,1,0,0:0:0:0:
448,192,31189,1,0,0:0:0:0:
320,192,31323,1,0,0:0:0:0:
64,192,31457,1,0,0:0:0:0:
192,192,31591,1,0,0:0:0:0:
320,192,31725,1,0,0:0:0:0:
448,192,31859,1,0,0:0:0:0:
192,192,32127,1,0,0:0:0:0:
448,192,32261,1,0,0:0:0:0:
64,192,32395,1,0,0:0:0:0:
192,192,32529,1,0,0:0:0:0:
320,192,32663,1,0,0:0:0:0:
64,192,32797,1,0,0:0:0:0:
192,192,32931,1,0,0:0:0:0:
64,192,33065,1,0,0:0:0:0:
192,192,33199,1,0,0:0:0:0:
448,192,33333,1,0,0:0:0:0:
192,192,33467,1,0,0:0:0:0:
448,192,33602,1,0,0:0:0:0:
64,192,33736,1,0,0:0:0:0:
320,192,33870,1,0,0:0:0:0:
64,192,34004,1,0,0:0:0:0:
320,192,34272,1,0,0:0:0:0:
192,192,34540,1,0,0:0:0:0:
448,192,34540,1,0,0:0:0:0:
320,192,34674,1,0,0:0:0:0:
64,192,34808,1,0,0:0:0:0:
320,192,34942,1,0,0:0:0:0:
448,192,35076,1,0,0:0:0:0:
320,192,35210,1,0,0:0:0:0:
64,192,35344,1,0,0:0:0:0:
192,192,35344,1,0,0:0:0:0:
448,192,35478,1,0,0:0:0:0:
320,192,35612,128,0,36148:0:0:0:0:
448,192,35880,1,0,0:0:0:0:
192,192,36148,1,0,0:0:0:0:
448,192,36148,1,0,0:0:0:0:
64,192,36685,1,0,0:0:0:0:
448,192,36685,1,0,0:0:0:0:
192,192,36819,1,0,0:0:0:0:
64,192,36953,1,0,0:0:0:0:
192,192,37087,1,0,0:0:0:0:
448,192,37221,1,0,0:0:0:0:
320,192,37355,1,0,0:0:0:0:
448,192,37489,1,0,0:0:0:0:
192,192,37623,1,0,0:0:0:0:
448,192,37757,128,0,38025:0:0:0:0:
192,192,38025,128,0,38293:0:0:0:0:
320,192,38293,128,0,38561:0:0:0:0:
448,192,38829,1,0,0:0:0:0:
192,192,38829,1,0,0:0:0:0:
64,192,38963,1,0,0:0:0:0:
448,192,39097,1,0,0:0:0:0:
192,192,39232,1,0,0:0:0:0:
64,192,39366,1,0,0:0:0:0:
320,192,39500,1,0,0:0:0:0:
64,192,39634,1,0,0:0:0:0:
448,192,39768,1,0,0:0:0:0:
64,192,39902,128,0,40170:0:0:0:0:
448,192,40170,128,0,40438:0:0:0:0:
320,192,40438,128,0,40706:0:0:0:0:
192,192,40974,1,0,0:0:0:0:
448,192,40974,1,0,0:0:0:0:
320,192,41108,1,0,0:0:0:0:
64,192,41242,1,0,0:0:0:0:
192,192,41376,1,0,0:0:0:0:
448,192,41510,1,0,0:0:0:0:
320,192,41644,1,0,0:0:0:0:
192,192,41778,1,0,0:0:0:0:
448,192,41913,1,0,0:0:0:0:
64,192,42047,1,0,0:0:0:0:
192,192,42181,1,0,0:0:0:0:
448,192,42315,1,0,0:0:0:0:
192,192,42449,1,0,0:0:0:0:
320,192,42583,128,0,42851:0:0:0:0:
320,192,43119,1,0,0:0:0:0:
448,192,43119,1,0,0:0:0:0:
192,192,43253,1,0,0:0:0:0:
64,192,43387,1,0,0:0:0:0:
192,192,43521,1,0,0:0:0:0:
448,192,43521,1,0,0:0:0:0:
320,192,43655,1,0,0:0:0:0:
64,192,43789,1,0,0:0:0:0:
448,192,43923,1,0,0:0:0:0:
64,192,44057,1,0,0:0:0:0:
448,192,44191,1,0,0:0:0:0:
192,192,44325,1,0,0:0:0:0:
320,192,44459,1,0,0:0:0:0:
192,192,44593,1,0,0:0:0:0:
448,192,44728,1,0,0:0:0:0:
64,192,44862,1,0,0:0:0:0:
192,192,44996,1,0,0:0:0:0:
64,192,45130,1,0,0:0:0:0:
192,192,45264,1,0,0:0:0:0:
448,192,45264,1,0,0:0:0:0:
320,192,45398,1,0,0:0:0:0:
64,192,45532,1,0,0:0:0:0:
448,192,45666,1,0,0:0:0:0:
320,192,45800,1,0,0:0:0:0:
192,192,45934,1,0,0:0:0:0:
64,192,46068,1,0,0:0:0:0:
192,192,46202,1,0,0:0:0:0:
64,192,46336,1,0,0:0:0:0:
192,192,46470,1,0,0:0:0:0:
320,192,46604,1,0,0:0:0:0:
448,192,46738,1,0,0:0:0:0:
320,192,46872,128,0,47140:0:0:0:0:
64,192,47408,1,0,0:0:0:0:
448,192,47408,1,0,0:0:0:0:
192,192,47543,1,0,0:0:0:0:
448,192,47677,1,0,0:0:0:0:
320,192,47811,1,0,0:0:0:0:
192,192,47945,1,0,0:0:0:0:
64,192,48079,1,0,0:0:0:0:
320,192,48213,1,0,0:0:0:0:
192,192,48347,1,0,0:0:0:0:
64,192,48481,1,0,0:0:0:0:
448,192,48615,1,0,0:0:0:0:
192,192,48749,128,0,49017:0:0:0:0:
448,192,49017,128,0,49285:0:0:0:0:
320,192,49285,1,0,0:0:0:0:
64,192,49419,1,0,0:0:0:0:
448,192,49553,1,0,0:0:0:0:
64,192,49687,1,0,0:0:0:0:
448,192,49821,1,0,0:0:0:0:
192,192,49955,1,0,0:0:0:0:
320,192,50089,1,0,0:0:0:0:
192,192,50224,1,0,0:0:0:0:
320,192,50358,128,0,50626:0:0:0:0:
448,192,50626,128,0,50894:0:0:0:0:
64,192,50760,1,0,0:0:0:0:
192,192,50894,128,0,51162:0:0:0:0:
320,192,51162,128,0,51430:0:0:0:0:
64,192,51162,1,0,0:0:0:0:
64,192,51430,1,0,0:0:0:0:
192,192,51698,1,0,0:0:0:0:
448,192,51698,1,0,0:0:0:0:
320,192,51698,1,0,0:0:0:0:
192,192,52234,1,0,0:0:0:0:
448,192,52234,1,0,0:0:0:0:
64,192,52770,1,0,0:0:0:0:
320,192,52770,1,0,0:0:0:0:
192,192,52770,1,0,0:0:0:0:
64,192,52949,1,0,0:0:0:0:
320,192,52949,1,0,0:0:0:0:
64,192,53128,1,0,0:0:0:0:
320,192,53128,1,0,0:0:0:0:
64,192,53307,1,0,0:0:0:0:
448,192,53307,1,0,0:0:0:0:
320,192,53307,1,0,0:0:0:0:
320,192,53843,1,0,0:0:0:0:
448,192,53843,1,0,0:0:0:0:
320,192,54111,1,0,0:0:0:0:
448,192,54111,1,0,0:0:0:0:
64,192,54379,1,0,0:0:0:0:
192,192,54379,1,0,0:0:0:0:
448,192,54379,128,0,54915:0:0:0:0:
192,192,54513,1,0,0:0:0:0:
64,192,54513,1,0,0:0:0:0:
64,192,54781,1,0,0:0:0:0:
192,192,54781,1,0,0:0:0:0:
192,192,54915,1,0,0:0:0:0:
320,192,54915,1,0,0:0:0:0:
320,192,55183,1,0,0:0:0:0:
192,192,55183,1,0,0:0:0:0:
64,192,55451,1,0,0:0:0:0:
448,192,55451,1,0,0:0:0:0:
320,192,55451,1,0,0:0:0:0:
64,192,55988,1,0,0:0:0:0:
448,192,55988,1,0,0:0:0:0:
64,192,56524,1,0,0:0:0:0:
448,192,56524,1,0,0:0:0:0:
192,192,57060,1,0,0:0:0:0:
320,192,57060,1,0,0:0:0:0:
448,192,57060,128,0,57596:0:0:0:0:
320,192,57239,1,0,0:0:0:0:
192,192,57239,1,0,0:0:0:0:
192,192,57417,1,0,0:0:0:0:
320,192,57417,1,0,0:0:0:0:
192,192,57596,1,0,0:0:0:0:
320,192,57596,1,0,0:0:0:0:
64,192,57596,128,0,58132:0:0:0:0:
320,192,58132,1,0,0:0:0:0:
192,192,58132,1,0,0:0:0:0:
320,192,58400,1,0,0:0:0:0:
64,192,58400,1,0,0:0:0:0:
320,192,58669,1,0,0:0:0:0:
448,192,58669,1,0,0:0:0:0:
64,192,58669,1,0,0:0:0:0:
448,192,58803,1,0,0:0:0:0:
320,192,58803,1,0,0:0:0:0:
192,192,59071,1,0,0:0:0:0:
448,192,59071,1,0,0:0:0:0:
192,192,59205,1,0,0:0:0:0:
448,192,59205,1,0,0:0:0:0:
64,192,59473,1,0,0:0:0:0:
320,192,59473,128,0,59741:0:0:0:0:
192,192,59741,1,0,0:0:0:0:
448,192,59741,128,0,60009:0:0:0:0:
320,192,60009,1,0,0:0:0:0:
64,192,60009,128,0,60277:0:0:0:0:
192,192,60277,1,0,0:0:0:0:
320,192,60277,1,0,0:0:0:0:
192,192,60545,1,0,0:0:0:0:
64,192,60679,1,0,0:0:0:0:
192,192,60813,1,0,0:0:0:0:
320,192,60813,1,0,0:0:0:0:
448,192,61081,128,0,61350:0:0:0:0:
320,192,61350,1,0,0:0:0:0:
64,192,61618,1,0,0:0:0:0:
192,192,61618,1,0,0:0:0:0:
320,192,61752,1,0,0:0:0:0:
448,192,61886,1,0,0:0:0:0:
192,192,61886,1,0,0:0:0:0:
64,192,62154,128,0,62422:0:0:0:0:
192,192,62422,1,0,0:0:0:0:
192,192,62690,1,0,0:0:0:0:
448,192,62824,1,0,0:0:0:0:
192,192,62958,1,0,0:0:0:0:
320,192,63226,128,0,63494:0:0:0:0:
448,192,63494,1,0,0:0:0:0:
64,192,63762,128,0,64299:0:0:0:0:
192,192,63762,1,0,0:0:0:0:
448,192,64030,128,0,64299:0:0:0:0:
192,192,64299,1,0,0:0:0:0:
320,192,64567,128,0,64835:0:0:0:0:
192,192,64835,1,0,0:0:0:0:
448,192,64969,1,0,0:0:0:0:
192,192,65103,1,0,0:0:0:0:
64,192,65103,1,0,0:0:0:0:
192,192,65371,128,0,65639:0:0:0:0:
64,192,65639,1,0,0:0:0:0:
192,192,65907,1,0,0:0:0:0:
448,192,66041,1,0,0:0:0:0:
320,192,66175,1,0,0:0:0:0:
320,192,66443,128,0,66711:0:0:0:0:
448,192,66711,1,0,0:0:0:0:
192,192,66980,1,0,0:0:0:0:
64,192,67114,1,0,0:0:0:0:
192,192,67248,1,0,0:0:0:0:
448,192,67516,128,0,67784:0:0:0:0:
64,192,67784,1,0,0:0:0:0:
320,192,68052,1,0,0:0:0:0:
448,192,68052,1,0,0:0:0:0:
448,192,68320,1,0,0:0:0:0:
64,192,68320,1,0,0:0:0:0:
192,192,68856,128,0,69124:0:0:0:0:
64,192,69124,1,0,0:0:0:0:
320,192,69258,1,0,0:0:0:0:
448,192,69392,1,0,0:0:0:0:
64,192,69392,1,0,0:0:0:0:
192,192,69929,1,0,0:0:0:0:
64,192,69929,1,0,0:0:0:0:
448,192,70465,128,0,71001:0:0:0:0:
320,192,70465,1,0,0:0:0:0:
192,192,71001,128,0,71537:0:0:0:0:
320,192,71001,1,0,0:0:0:0:
320,192,71537,1,0,0:0:0:0:
448,192,71671,1,0,0:0:0:0:
320,192,72073,128,0,72610:0:0:0:0:
192,192,72341,1,0,0:0:0:0:
192,192,72610,1,0,0:0:0:0:
64,192,72610,1,0,0:0:0:0:
64,192,73146,128,0,73682:0:0:0:0:
192,192,73414,1,0,0:0:0:0:
320,192,73548,1,0,0:0:0:0:
448,192,73682,1,0,0:0:0:0:
192,192,73682,1,0,0:0:0:0:
320,192,73950,128,0,74218:0:0:0:0:
448,192,74218,1,0,0:0:0:0:
448,192,74486,128,0,74754:0:0:0:0:
192,192,74620,1,0,0:0:0:0:
64,192,74754,1,0,0:0:0:0:
320,192,74754,1,0,0:0:0:0:
320,192,75022,128,0,75291:0:0:0:0:
192,192,75291,1,0,0:0:0:0:
192,192,75559,1,0,0:0:0:0:
64,192,75693,1,0,0:0:0:0:
192,192,75827,1,0,0:0:0:0:
448,192,75827,1,0,0:0:0:0:
64,192,76095,128,0,76363:0:0:0:0:
448,192,76363,1,0,0:0:0:0:
64,192,76631,1,0,0:0:0:0:
192,192,76631,1,0,0:0:0:0:
448,192,76899,1,0,0:0:0:0:
320,192,76899,1,0,0:0:0:0:
64,192,77167,1,0,0:0:0:0:
64,192,77435,1,0,0:0:0:0:
64,192,77703,1,0,0:0:0:0:
64,192,77971,1,0,0:0:0:0:
64,192,78240,1,0,0:0:0:0:
448,192,78508,128,0,79044:0:0:0:0:
192,192,79044,128,0,79312:0:0:0:0:
320,192,79178,1,0,0:0:0:0:
64,192,79580,128,0,79848:0:0:0:0:
192,192,79714,1,0,0:0:0:0:
448,192,79848,1,0,0:0:0:0:
320,192,79982,1,0,0:0:0:0:
64,192,80116,1,0,0:0:0:0:
192,192,80250,1,0,0:0:0:0:
320,192,80384,1,0,0:0:0:0:
448,192,80384,1,0,0:0:0:0:
64,192,80518,1,0,0:0:0:0:
192,192,80652,1,0,0:0:0:0:
64,192,80787,1,0,0:0:0:0:
448,192,80921,1,0,0:0:0:0:
320,192,81055,1,0,0:0:0:0:
64,192,81189,1,0,0:0:0:0:
192,192,81323,1,0,0:0:0:0:
448,192,81725,1,0,0:0:0:0:
448,192,81993,1,0,0:0:0:0:
448,192,82261,1,0,0:0:0:0:
192,192,82529,1,0,0:0:0:0:
192,192,82797,128,0,83333:0:0:0:0:
320,192,82797,1,0,0:0:0:0:
448,192,83333,1,0,0:0:0:0:
64,192,83467,1,0,0:0:0:0:
320,192,83602,128,0,83870:0:0:0:0:
64,192,83870,1,0,0:0:0:0:
192,192,83870,1,0,0:0:0:0:
448,192,84004,1,0,0:0:0:0:
192,192,84138,1,0,0:0:0:0:
448,192,84272,1,0,0:0:0:0:
64,192,84406,1,0,0:0:0:0:
192,192,84540,1,0,0:0:0:0:
448,192,84674,1,0,0:0:0:0:
192,192,84808,1,0,0:0:0:0:
320,192,84942,1,0,0:0:0:0:
64,192,85076,1,0,0:0:0:0:
448,192,85210,1,0,0:0:0:0:
192,192,85344,1,0,0:0:0:0:
448,192,85478,1,0,0:0:0:0:
320,192,85612,1,0,0:0:0:0:
64,192,86014,128,0,86282:0:0:0:0:
192,192,86282,1,0,0:0:0:0:
448,192,86417,1,0,0:0:0:0:
320,192,86551,128,0,86819:0:0:0:0:
448,192,86819,128,0,87087:0:0:0:0:
320,192,87087,1,0,0:0:0:0:
192,192,87355,128,0,87623:0:0:0:0:
320,192,87623,1,0,0:0:0:0:
448,192,87891,128,0,88159:0:0:0:0:
320,192,88159,1,0,0:0:0:0:
64,192,88427,128,0,88695:0:0:0:0:
320,192,88561,1,0,0:0:0:0:
192,192,88695,1,0,0:0:0:0:
320,192,88829,1,0,0:0:0:0:
448,192,88963,128,0,89232:0:0:0:0:
64,192,89232,1,0,0:0:0:0:
64,192,89500,128,0,89768:0:0:0:0:
320,192,89768,1,0,0:0:0:0:
448,192,90036,1,0,0:0:0:0:
320,192,90170,1,0,0:0:0:0:
192,192,90304,128,0,90572:0:0:0:0:
64,192,90438,1,0,0:0:0:0:
320,192,90572,1,0,0:0:0:0:
448,192,90840,1,0,0:0:0:0:
320,192,90840,1,0,0:0:0:0:
64,192,91108,1,0,0:0:0:0:
192,192,91242,1,0,0:0:0:0:
320,192,91376,1,0,0:0:0:0:
64,192,91510,1,0,0:0:0:0:
448,192,91644,128,0,91913:0:0:0:0:
320,192,91913,1,0,0:0:0:0:
64,192,92181,128,0,92449:0:0:0:0:
320,192,92449,1,0,0:0:0:0:
320,192,92717,1,0,0:0:0:0:
448,192,92851,1,0,0:0:0:0:
192,192,92985,1,0,0:0:0:0:
320,192,93119,1,0,0:0:0:0:
64,192,93253,128,0,93521:0:0:0:0:
192,192,93521,1,0,0:0:0:0:
320,192,93655,1,0,0:0:0:0:
192,192,93789,1,0,0:0:0:0:
64,192,93789,1,0,0:0:0:0:
64,192,94057,128,0,94593:0:0:0:0:
192,192,94325,1,0,0:0:0:0:
320,192,94459,1,0,0:0:0:0:
448,192,94593,1,0,0:0:0:0:
192,192,94593,1,0,0:0:0:0:
320,192,94728,1,0,0:0:0:0:
192,192,94862,1,0,0:0:0:0:
64,192,94862,1,0,0:0:0:0:
448,192,94996,1,0,0:0:0:0:
64,192,95130,1,0,0:0:0:0:
320,192,95130,1,0,0:0:0:0:
192,192,95264,1,0,0:0:0:0:
320,192,95666,1,0,0:0:0:0:
64,192,95666,1,0,0:0:0:0:
448,192,95800,1,0,0:0:0:0:
320,192,95934,1,0,0:0:0:0:
192,192,95934,1,0,0:0:0:0:
448,192,96068,1,0,0:0:0:0:
64,192,96202,1,0,0:0:0:0:
192,192,96202,1,0,0:0:0:0:
320,192,96336,1,0,0:0:0:0:
448,192,96738,1,0,0:0:0:0:
64,192,96738,1,0,0:0:0:0:
192,192,96872,1,0,0:0:0:0:
448,192,97006,1,0,0:0:0:0:
192,192,97140,1,0,0:0:0:0:
320,192,97274,1,0,0:0:0:0:
448,192,97408,1,0,0:0:0:0:
64,192,97543,1,0,0:0:0:0:
192,192,97677,1,0,0:0:0:0:
448,192,97811,1,0,0:0:0:0:
320,192,97945,1,0,0:0:0:0:
192,192,98079,1,0,0:0:0:0:
448,192,98079,1,0,0:0:0:0:
64,192,98213,1,0,0:0:0:0:
320,192,98347,1,0,0:0:0:0:
448,192,98347,1,0,0:0:0:0:
192,192,98481,1,0,0:0:0:0:
448,192,98615,1,0,0:0:0:0:
320,192,98883,128,0,99151:0:0:0:0:
192,192,99017,1,0,0:0:0:0:
64,192,99151,1,0,0:0:0:0:
192,192,99285,1,0,0:0:0:0:
448,192,99419,128,0,99687:0:0:0:0:
64,192,99955,1,0,0:0:0:0:
320,192,99955,1,0,0:0:0:0:
448,192,100089,1,0,0:0:0:0:
192,192,100224,1,0,0:0:0:0:
448,192,100358,1,0,0:0:0:0:
64,192,100492,1,0,0:0:0:0:
192,192,100626,1,0,0:0:0:0:
448,192,101028,1,0,0:0:0:0:
320,192,101028,1,0,0:0:0:0:
64,192,101162,1,0,0:0:0:0:
192,192,101296,1,0,0:0:0:0:
64,192,101430,1,0,0:0:0:0:
320,192,101564,1,0,0:0:0:0:
192,192,101698,1,0,0:0:0:0:
320,192,101832,1,0,0:0:0:0:
448,192,101966,1,0,0:0:0:0:
192,192,102100,1,0,0:0:0:0:
448,192,102234,1,0,0:0:0:0:
64,192,102368,1,0,0:0:0:0:
320,192,102502,1,0,0:0:0:0:
448,192,102636,128,0,103173:0:0:0:0:
64,192,103173,1,0,0:0:0:0:
192,192,103173,1,0,0:0:0:0:
192,192,103441,1,0,0:0:0:0:
320,192,103441,1,0,0:0:0:0:
448,192,103709,1,0,0:0:0:0:
320,192,103709,1,0,0:0:0:0:
192,192,103977,128,0,104245:0:0:0:0:
64,192,104245,1,0,0:0:0:0:
448,192,104513,128,0,104781:0:0:0:0:
192,192,104647,1,0,0:0:0:0:
320,192,104781,1,0,0:0:0:0:
64,192,105049,128,0,105317:0:0:0:0:
192,192,105317,1,0,0:0:0:0:
320,192,105451,1,0,0:0:0:0:
192,192,105585,1,0,0:0:0:0:
64,192,105585,1,0,0:0:0:0:
448,192,105854,1,0,0:0:0:0:
192,192,105854,1,0,0:0:0:0:
192,192,106122,1,0,0:0:0:0:
64,192,106256,1,0,0:0:0:0:
448,192,106390,1,0,0:0:0:0:
192,192,106524,1,0,0:0:0:0:
64,192,106658,128,0,106926:0:0:0:0:
192,192,106926,1,0,0:0:0:0:
448,192,107194,1,0,0:0:0:0:
448,192,107462,128,0,107730:0:0:0:0:
320,192,107596,1,0,0:0:0:0:
192,192,107730,1,0,0:0:0:0:
320,192,107998,1,0,0:0:0:0:
192,192,108266,128,0,108534:0:0:0:0:
448,192,108534,1,0,0:0:0:0:
448,192,108803,1,0,0:0:0:0:
320,192,108937,1,0,0:0:0:0:
192,192,109071,1,0,0:0:0:0:
64,192,109071,1,0,0:0:0:0:
448,192,109339,1,0,0:0:0:0:
320,192,109339,1,0,0:0:0:0:
320,192,109607,1,0,0:0:0:0:
64,192,109607,1,0,0:0:0:0:
192,192,109741,1,0,0:0:0:0:
64,192,109875,128,0,110143:0:0:0:0:
448,192,110143,1,0,0:0:0:0:
192,192,110143,1,0,0:0:0:0:
448,192,110411,128,0,110679:0:0:0:0:
320,192,110679,1,0,0:0:0:0:
192,192,110813,1,0,0:0:0:0:
448,192,110947,1,0,0:0:0:0:
320,192,111081,1,0,0:0:0:0:
64,192,111215,128,0,111484:0:0:0:0:
320,192,111752,1,0,0:0:0:0:
448,192,111752,1,0,0:0:0:0:
64,192,111752,1,0,0:0:0:0:
320,192,112288,1,0,0:0:0:0:
448,192,112288,1,0,0:0:0:0:
192,192,112824,1,0,0:0:0:0:
448,192,112824,1,0,0:0:0:0:
64,192,112824,1,0,0:0:0:0:
192,192,113003,1,0,0:0:0:0:
448,192,113003,1,0,0:0:0:0:
448,192,113181,1,0,0:0:0:0:
192,192,113181,1,0,0:0:0:0:
192,192,113360,1,0,0:0:0:0:
448,192,113360,1,0,0:0:0:0:
320,192,113360,1,0,0:0:0:0:
64,192,113896,1,0,0:0:0:0:
192,192,113896,1,0,0:0:0:0:
64,192,114030,1,0,0:0:0:0:
192,192,114030,1,0,0:0:0:0:
320,192,114299,1,0,0:0:0:0:
448,192,114299,1,0,0:0:0:0:
448,192,114433,1,0,0:0:0:0:
320,192,114433,1,0,0:0:0:0:
320,192,114701,1,0,0:0:0:0:
448,192,114701,1,0,0:0:0:0:
64,192,114969,1,0,0:0:0:0:
448,192,114969,1,0,0:0:0:0:
192,192,114969,1,0,0:0:0:0:
448,192,115237,1,0,0:0:0:0:
64,192,115237,1,0,0:0:0:0:
448,192,115505,1,0,0:0:0:0:
64,192,115505,1,0,0:0:0:0:
320,192,115505,1,0,0:0:0:0:
64,192,116041,1,0,0:0:0:0:
448,192,116041,1,0,0:0:0:0:
192,192,116443,1,0,0:0:0:0:
448,192,116577,1,0,0:0:0:0:
64,192,116577,1,0,0:0:0:0:
192,192,116845,1,0,0:0:0:0:
64,192,117114,1,0,0:0:0:0:
448,192,117114,1,0,0:0:0:0:
192,192,117114,128,0,117650:0:0:0:0:
448,192,117292,1,0,0:0:0:0:
64,192,117292,1,0,0:0:0:0:
64,192,117471,1,0,0:0:0:0:
448,192,117471,1,0,0:0:0:0:
448,192,117650,1,0,0:0:0:0:
64,192,117650,1,0,0:0:0:0:
320,192,117650,128,0,118186:0:0:0:0:
448,192,118186,1,0,0:0:0:0:
192,192,118186,1,0,0:0:0:0:
448,192,118454,1,0,0:0:0:0:
320,192,118454,1,0,0:0:0:0:
320,192,118722,1,0,0:0:0:0:
64,192,118722,1,0,0:0:0:0:
320,192,118856,1,0,0:0:0:0:
64,192,118856,1,0,0:0:0:0:
320,192,119124,1,0,0:0:0:0:
64,192,119124,1,0,0:0:0:0:
192,192,119258,1,0,0:0:0:0:
448,192,119258,1,0,0:0:0:0:
192,192,119526,1,0,0:0:0:0:
448,192,119526,128,0,119795:0:0:0:0:
192,192,119795,1,0,0:0:0:0:
320,192,119795,128,0,120063:0:0:0:0:
64,192,120063,128,0,120283:0:0:0:0:
192,192,120063,1,0,0:0:0:0:
448,192,120283,128,0,120819:0:0:0:0:
192,192,120551,1,0,0:0:0:0:
64,192,120685,1,0,0:0:0:0:
320,192,120819,1,0,0:0:0:0:
64,192,121087,128,0,121355:0:0:0:0:
192,192,121355,1,0,0:0:0:0:
192,192,121623,128,0,121891:0:0:0:0:
448,192,121757,1,0,0:0:0:0:
320,192,121891,1,0,0:0:0:0:
448,192,122159,128,0,122427:0:0:0:0:
64,192,122427,1,0,0:0:0:0:
192,192,122695,128,0,122963:0:0:0:0:
320,192,122829,1,0,0:0:0:0:
448,192,122963,1,0,0:0:0:0:
320,192,123232,128,0,123500:0:0:0:0:
64,192,123500,1,0,0:0:0:0:
448,192,123768,128,0,124304:0:0:0:0:
320,192,124036,128,0,124304:0:0:0:0:
192,192,124572,128,0,125108:0:0:0:0:
320,192,124840,1,0,0:0:0:0:
448,192,124974,1,0,0:0:0:0:
320,192,125108,1,0,0:0:0:0:
64,192,125108,1,0,0:0:0:0:
64,192,125376,128,0,125644:0:0:0:0:
192,192,125644,1,0,0:0:0:0:
448,192,125913,128,0,126181:0:0:0:0:
320,192,126047,1,0,0:0:0:0:
64,192,126181,1,0,0:0:0:0:
320,192,126449,128,0,126717:0:0:0:0:
192,192,126717,1,0,0:0:0:0:
448,192,126985,128,0,127253:0:0:0:0:
320,192,127119,1,0,0:0:0:0:
192,192,127253,1,0,0:0:0:0:
192,192,127521,128,0,127789:0:0:0:0:
64,192,127789,1,0,0:0:0:0:
64,192,128057,128,0,128593:0:0:0:0:
448,192,128325,128,0,128593:0:0:0:0:
192,192,128862,1,0,0:0:0:0:
320,192,128862,128,0,129398:0:0:0:0:
448,192,128862,1,0,0:0:0:0:
64,192,129130,1,0,0:0:0:0:
192,192,129264,1,0,0:0:0:0:
448,192,129398,128,0,129666:0:0:0:0:
64,192,129666,1,0,0:0:0:0:
64,192,129934,1,0,0:0:0:0:
192,192,129934,1,0,0:0:0:0:
448,192,130470,128,0,130738:0:0:0:0:
192,192,130470,128,0,130738:0:0:0:0:
192,192,131006,1,0,0:0:0:0:
320,192,131006,1,0,0:0:0:0:
320,192,131543,1,0,0:0:0:0:
192,192,131677,1,0,0:0:0:0:
64,192,131811,1,0,0:0:0:0:
64,192,132079,1,0,0:0:0:0:
448,192,132079,1,0,0:0:0:0:
320,192,132347,128,0,132883:0:0:0:0:
64,192,132615,128,0,132883:0:0:0:0:
64,192,133151,128,0,133687:0:0:0:0:
192,192,133419,1,0,0:0:0:0:
448,192,133553,1,0,0:0:0:0:
320,192,133687,1,0,0:0:0:0:
192,192,133687,1,0,0:0:0:0:
192,192,133955,128,0,134224:0:0:0:0:
64,192,134224,1,0,0:0:0:0:
448,192,134492,128,0,134760:0:0:0:0:
320,192,134626,1,0,0:0:0:0:
192,192,134760,1,0,0:0:0:0:
64,192,135028,128,0,135296:0:0:0:0:
320,192,135296,1,0,0:0:0:0:
192,192,135296,1,0,0:0:0:0:
448,192,135430,1,0,0:0:0:0:
64,192,135564,128,0,135832:0:0:0:0:
320,192,135698,1,0,0:0:0:0:
192,192,135832,1,0,0:0:0:0:
320,192,136100,128,0,136368:0:0:0:0:
448,192,136368,1,0,0:0:0:0:
64,192,136368,128,0,136636:0:0:0:0:
192,192,136636,1,0,0:0:0:0:
448,192,136636,128,0,137441:0:0:0:0:
320,192,136904,1,0,0:0:0:0:
192,192,136904,1,0,0:0:0:0:
192,192,137173,1,0,0:0:0:0:
64,192,137173,1,0,0:0:0:0:
320,192,137441,1,0,0:0:0:0:
192,192,137441,1,0,0:0:0:0:
64,192,137441,1,0,0:0:0:0:
