osu file format v14

[General]
AudioFilename: audio.mp3
AudioLeadIn: 0
PreviewTime: 67997
Countdown: 1
SampleSet: None
StackLeniency: 0.5
Mode: 0
LetterboxInBreaks: 0
WidescreenStoryboard: 1

[Editor]
Bookmarks: 901,6062,31868,37030,47352,57675,88642
DistanceSpacing: 1.8
BeatDivisor: 4
GridSize: 8
TimelineZoom: 2.799999

[Metadata]
Title:Of Ash And Torment
TitleUnicode:Of Ash And Torment
Artist:Skeletonwitch
ArtistUnicode:Skeletonwitch
Creator:Pituophis
Version:edgy diff name xd
Source:
Tags:
BeatmapID:1409013
BeatmapSetID:665229

[Difficulty]
HPDrainRate:4
CircleSize:4.4
OverallDifficulty:8.6
ApproachRate:9.6
SliderMultiplier:2
SliderTickRate:1

[Events]
//Background and Video events
0,0,"1464662956977.jpg",0,0
//Break Periods
//Storyboard Layer 0 (Background)
//Storyboard Layer 1 (Fail)
//Storyboard Layer 2 (Pass)
//Storyboard Layer 3 (Foreground)
//Storyboard Sound Samples

[TimingPoints]
256.375653993722,322.58064516129,4,3,0,60,1,0
901,322.58064516129,4,1,0,60,1,0
941,-125,4,2,0,40,0,0
6062,-83.3333333333333,4,3,0,60,0,0
33804,-71.4285714285714,4,3,0,60,0,0
34449,-83.3333333333333,4,3,0,60,0,0
47352,-76.9230769230769,4,3,0,60,0,0
57675,-83.3333333333333,4,3,0,60,0,0
88642,-71.4285714285714,4,3,0,60,0,0

[HitObjects]
149,206,256,5,8,0:1:0:0:
141,254,336,1,0,0:0:0:0:
132,303,417,2,0,L|180:294,1,50,8|0,0:0|0:0,0:0:0:0:
300,121,579,1,8,0:1:0:0:
307,170,659,1,0,0:0:0:0:
316,219,740,2,0,L|266:210,1,50,8|0,0:0|0:0,0:0:0:0:
149,37,901,6,0,L|264:15,1,100,0|0,3:0|0:0,0:0:0:0:
357,30,1142,1,0,0:0:0:0:
373,33,1223,1,0,0:0:0:0:
366,64,1303,1,0,0:0:0:0:
361,96,1384,1,2,0:0:0:0:
382,139,1464,1,2,0:0:0:0:
420,168,1546,2,0,L|438:272,1,80,2|0,0:0|0:0,0:0:0:0:
365,288,1788,1,0,0:0:0:0:
387,309,1868,1,0,0:0:0:0:
416,321,1949,1,0,0:0:0:0:
447,323,2030,6,0,L|347:339,1,80,2|2,0:0|0:0,0:0:0:0:
290,323,2271,1,2,0:0:0:0:
273,319,2352,1,2,0:0:0:0:
434,247,2513,1,0,0:0:0:0:
306,178,2675,1,0,0:0:0:0:
411,140,2836,1,0,0:0:0:0:
178,109,2997,1,2,0:0:0:0:
273,319,3159,1,2,0:0:0:0:
195,106,3320,1,2,0:0:0:0:
150,234,3481,6,0,L|61:218,1,80,2|0,0:0|0:0,0:0:0:0:
37,128,3723,1,0,0:0:0:0:
54,124,3804,1,0,0:0:0:0:
60,92,3884,1,0,0:0:0:0:
65,61,3965,1,2,0:0:0:0:
73,108,4045,1,2,0:0:0:0:
82,156,4126,2,0,L|186:173,1,80,2|0,0:0|0:0,0:0:0:0:
230,209,4368,1,0,0:0:0:0:
241,179,4449,1,0,0:0:0:0:
236,147,4530,1,0,0:0:0:0:
221,118,4610,6,0,L|318:100,1,80,2|2,0:0|0:0,0:0:0:0:
273,28,4852,1,2,0:0:0:0:
258,23,4933,1,2,0:0:0:0:
160,169,5094,1,0,0:0:0:0:
298,103,5255,1,0,0:0:0:0:
272,229,5417,1,0,0:0:0:0:
45,108,5578,1,2,0:0:0:0:
262,242,5739,1,2,0:0:0:0:
52,93,5900,2,0,L|43:142,1,40,2|0,0:0|0:0,0:0:0:0:
24,356,6062,6,0,L|163:331,1,119.999996337891,0|8,0:0|0:0,0:0:0:0:
238,334,6304,1,0,0:0:0:0:
273,335,6384,1,0,0:0:0:0:
307,325,6465,1,0,0:0:0:0:
335,302,6546,1,8,0:0:0:0:
276,292,6626,1,8,0:1:0:0:
217,282,6707,2,0,L|203:207,1,59.9999981689454,8|0,0:1|0:0,0:0:0:0:
299,198,6868,1,8,0:0:0:0:
346,202,6948,1,0,0:0:0:0:
390,185,7029,1,0,0:0:0:0:
421,149,7109,1,0,0:0:0:0:
432,103,7191,6,0,L|421:44,1,59.9999981689454,8|0,0:0|0:0,0:0:0:0:
336,108,7352,1,0,0:0:0:0:
288,99,7432,1,0,0:0:0:0:
241,91,7513,2,0,P|210:93|174:103,1,59.9999981689454,8|0,0:0|0:0,0:0:0:0:
121,228,7675,2,0,P|135:199|143:164,1,59.9999981689454,8|0,0:1|0:0,0:0:0:0:
21,125,7836,2,0,P|38:151|64:176,1,59.9999981689454,8|0,0:0|0:0,0:0:0:0:
101,102,7997,1,8,0:0:0:0:
92,54,8077,1,8,0:0:0:0:
84,7,8159,5,8,0:0:0:0:
73,66,8239,1,8,0:0:0:0:
63,125,8320,1,8,0:0:0:0:
53,184,8400,1,8,0:0:0:0:
42,243,8481,1,8,0:0:0:0:
32,302,8562,1,8,0:0:0:0:
22,361,8642,6,0,L|86:350,1,59.9999981689454,8|0,0:1|0:0,0:0:0:0:
243,215,8804,1,0,0:0:0:0:
195,207,8884,1,0,0:0:0:0:
148,199,8965,1,0,0:0:0:0:
100,192,9045,1,0,0:0:0:0:
53,184,9126,2,0,L|63:246,1,59.9999981689454,8|0,0:0|0:0,0:0:0:0:
227,309,9288,1,0,0:0:0:0:
274,305,9368,1,0,0:0:0:0:
313,279,9449,2,0,L|326:211,1,59.9999981689454,8|0,0:0|0:0,0:0:0:0:
155,135,9610,1,0,0:0:0:0:
202,126,9690,1,0,0:0:0:0:
249,118,9771,1,0,0:0:0:0:
296,109,9851,1,0,0:0:0:0:
344,101,9933,6,0,L|355:37,1,59.9999981689454,8|0,0:0|0:0,0:0:0:0:
436,180,10094,1,0,0:0:0:0:
398,209,10174,1,0,0:0:0:0:
352,222,10255,1,0,0:0:0:0:
305,216,10335,1,0,0:0:0:0:
264,192,10417,2,0,L|253:131,3,59.9999981689454,8|0|0|0,0:0|0:0|0:0|0:0,0:0:0:0:
107,144,10739,2,0,L|47:133,3,59.9999981689454,8|0|0|0,0:0|0:0|0:0|0:0,0:0:0:0:
86,303,11062,2,0,L|145:292,1,59.9999981689454
264,192,11223,5,8,0:1:0:0:
255,133,11303,1,0,0:0:0:0:
278,78,11384,1,8,0:0:0:0:
325,42,11464,1,0,0:0:0:0:
383,35,11545,1,0,0:0:0:0:
438,61,11626,1,0,0:0:0:0:
472,109,11707,1,8,0:0:0:0:
401,96,11787,1,8,0:1:0:0:
330,84,11868,1,8,0:1:0:0:
259,71,11948,1,0,0:0:0:0:
188,59,12030,1,8,0:0:0:0:
196,93,12110,1,0,0:0:0:0:
192,129,12191,1,0,0:0:0:0:
179,162,12271,1,0,0:0:0:0:
156,189,12352,2,0,L|70:205,1,59.9999981689454,8|0,0:0|0:0,0:0:0:0:
281,168,12514,5,0,0:0:0:0:
316,174,12594,1,0,0:0:0:0:
351,180,12675,2,0,L|340:119,1,59.9999981689454,8|0,0:0|0:0,0:0:0:0:
193,280,12836,1,0,0:0:0:0:
229,273,12916,1,0,0:0:0:0:
263,268,12997,2,0,L|252:328,1,59.9999981689454,8|0,0:0|0:0,0:0:0:0:
86,177,13159,1,0,0:0:0:0:
121,183,13239,1,0,0:0:0:0:
156,189,13320,2,0,L|145:128,1,59.9999981689454,8|0,0:0|0:0,0:0:0:0:
263,268,13481,2,0,L|252:328,1,59.9999981689454,8|0,0:1|0:0,0:0:0:0:
340,120,13642,2,0,L|329:59,1,59.9999981689454,8|0,0:0|0:0,0:0:0:0:
403,268,13804,5,0,0:0:0:0:
379,226,13884,1,0,0:0:0:0:
342,196,13965,1,8,0:0:0:0:
295,193,14045,1,0,0:0:0:0:
248,204,14126,1,0,0:0:0:0:
200,206,14207,1,0,0:0:0:0:
156,189,14288,2,0,L|145:128,1,59.9999981689454,8|0,0:0|0:0,0:0:0:0:
311,286,14449,2,0,L|332:167,1,119.999996337891,0|8,0:0|0:0,0:0:0:0:
247,100,14691,1,0,0:0:0:0:
231,67,14771,1,0,0:0:0:0:
206,42,14852,1,0,0:0:0:0:
173,27,14933,2,0,L|81:8,1,59.9999981689454,8|0,0:0|0:0,0:0:0:0:
28,181,15094,5,0,0:0:0:0:
53,156,15175,1,0,0:0:0:0:
86,141,15256,2,0,L|177:122,1,59.9999981689454,8|0,0:0|0:0,0:0:0:0:
240,289,15417,1,0,0:0:0:0:
215,264,15498,1,0,0:0:0:0:
182,249,15579,2,0,L|90:230,1,59.9999981689454,8|0,0:0|0:0,0:0:0:0:
96,383,15739,1,0,0:0:0:0:
121,358,15820,1,0,0:0:0:0:
154,343,15900,2,0,L|212:354,1,59.9999981689454,8|0,0:0|0:0,0:0:0:0:
162,192,16062,2,0,L|181:248,1,59.9999981689454,8|0,0:1|0:0,0:0:0:0:
293,123,16223,2,0,L|253:168,1,59.9999981689454,8|0,0:0|0:0,0:0:0:0:
417,202,16384,6,0,L|358:190,1,59.9999981689454,8|0,0:1|0:0,0:0:0:0:
181,248,16546,2,0,L|239:259,1,59.9999981689454,8|0,0:0|0:0,0:0:0:0:
293,123,16707,6,0,L|253:168,1,59.9999981689454,8|0,0:1|0:0,0:0:0:0:
214,350,16869,2,0,L|253:304,1,59.9999981689454,8|0,0:0|0:0,0:0:0:0:
162,192,17030,6,0,L|181:248,1,59.9999981689454,8|0,0:1|0:0,0:0:0:0:
319,373,17192,2,0,L|299:316,1,59.9999981689454,8|0,0:0|0:0,0:0:0:0:
154,343,17352,6,0,L|212:354,1,59.9999981689454,8|0,0:1|0:0,0:0:0:0:
389,296,17514,2,0,L|330:284,1,59.9999981689454,8|0,0:0|0:0,0:0:0:0:
122,260,17675,6,0,L|180:248,1,59.9999981689454,8|0,0:1|0:0,0:0:0:0:
415,220,17836,2,0,L|350:207,1,59.9999981689454,8|0,0:0|0:0,0:0:0:0:
92,176,17997,2,0,L|163:187,1,59.9999981689454,8|0,0:1|0:0,0:0:0:0:
415,220,18159,2,0,L|349:230,1,59.9999981689454,8|0,0:0|0:0,0:0:0:0:
122,260,18320,2,0,L|181:269,1,59.9999981689454,8|0,0:1|0:0,0:0:0:0:
392,297,18481,1,8,0:0:0:0:
383,249,18561,1,0,0:0:0:0:
375,202,18642,1,0,0:0:0:0:
366,155,18722,1,0,0:0:0:0:
358,107,18803,1,8,0:0:0:0:
350,60,18884,1,0,0:0:0:0:
341,13,18965,6,0,B|341:46|341:46|328:76,5,59.9999981689454,8|0|8|0|0|0,0:1|0:0|0:0|0:0|0:0|0:0,0:0:0:0:
232,69,19449,2,0,B|234:102|234:102|244:127,3,59.9999981689454,8|0|0|0,0:0|0:0|0:0|0:0,0:0:0:0:
390,175,19771,2,0,B|360:166|360:166|331:167,5,59.9999981689454,8|0|0|0|8|0,0:0|0:0|0:0|0:0|0:0|0:0,0:0:0:0:
248,216,20255,6,0,B|217:224|217:224|188:224,5,59.9999981689454,8|0|8|0|0|0,0:1|0:0|0:0|0:0|0:0|0:0,0:0:0:0:
232,69,20739,2,0,B|230:100|230:100|219:132,3,59.9999981689454,8|0|0|0,0:1|0:1|0:1|0:1,0:1:0:0:
332,258,21062,2,0,B|332:291|332:291|344:316,5,59.9999981689454,8|0|0|0|8|0,0:0|0:0|0:0|0:0|0:0|0:0,0:0:0:0:
248,308,21546,5,8,0:1:0:0:
215,323,21626,1,0,0:0:0:0:
180,326,21707,1,8,0:0:0:0:
145,318,21787,1,0,0:0:0:0:
115,298,21868,1,0,0:0:0:0:
94,269,21949,1,0,0:0:0:0:
84,234,22030,1,8,0:0:0:0:
131,243,22110,1,0,0:0:0:0:
179,251,22191,1,0,0:0:0:0:
226,260,22271,1,0,0:0:0:0:
273,268,22352,1,8,0:0:0:0:
252,238,22432,1,0,0:0:0:0:
239,205,22513,5,0,0:0:0:0:
233,169,22593,1,0,0:0:0:0:
235,133,22675,2,0,P|244:90|264:53,1,59.9999981689454,8|0,0:0|0:0,0:0:0:0:
372,242,22836,5,0,0:0:0:0:
347,214,22916,1,0,0:0:0:0:
331,182,22998,2,0,P|317:140|316:98,1,59.9999981689454,8|0,0:0|0:0,0:0:0:0:
504,208,23159,5,0,0:0:0:0:
469,196,23239,1,0,0:0:0:0:
439,177,23321,2,0,P|406:147|384:111,1,59.9999981689454,8|0,0:0|0:0,0:0:0:0:
258,6,23481,5,0,0:0:0:0:
283,34,23561,1,0,0:0:0:0:
299,66,23643,2,0,P|312:107|313:149,1,59.9999981689454,8|0,0:0|0:0,0:0:0:0:
429,257,23804,2,0,P|385:248|349:228,1,59.9999981689454,8|0,0:1|0:0,0:0:0:0:
198,274,23965,2,0,P|227:241|263:219,1,59.9999981689454,8|0,0:0|0:0,0:0:0:0:
311,197,24126,6,0,L|287:329,1,119.999996337891,8|8,0:1|0:0,0:0:0:0:
248,374,24368,1,0,0:0:0:0:
212,382,24449,1,0,0:0:0:0:
176,381,24529,1,0,0:0:0:0:
142,368,24610,1,8,0:0:0:0:
175,334,24690,1,8,0:1:0:0:
191,289,24771,1,8,0:1:0:0:
186,241,24851,1,0,0:0:0:0:
161,201,24933,2,0,P|206:185|232:186,1,59.9999981689454,8|0,0:0|0:0,0:0:0:0:
344,294,25094,5,0,0:0:0:0:
307,301,25174,1,0,0:0:0:0:
270,299,25255,2,0,P|226:278|209:259,1,59.9999981689454,8|0,0:0|0:0,0:0:0:0:
179,106,25417,5,0,0:0:0:0:
214,99,25497,1,0,0:0:0:0:
250,103,25578,2,0,P|293:123|310:142,1,59.9999981689454,8|0,0:0|0:0,0:0:0:0:
396,143,25739,5,0,0:0:0:0:
381,175,25819,1,0,0:0:0:0:
355,200,25900,2,0,P|310:216|284:214,1,59.9999981689454,8|0,0:0|0:0,0:0:0:0:
222,206,26062,5,0,0:0:0:0:
228,242,26142,1,0,0:0:0:0:
233,278,26223,2,0,L|160:266,1,59.9999981689454,8|0,0:3|0:0,0:0:0:0:
301,131,26384,2,0,L|287:57,1,59.9999981689454,8|0,0:0|0:0,0:0:0:0:
125,148,26546,2,0,L|51:135,1,59.9999981689454,8|0,0:3|0:0,0:0:0:0:
233,278,26707,6,0,L|206:131,1,119.999996337891,8|8,0:1|0:0,0:0:0:0:
232,72,26949,1,0,0:0:0:0:
260,50,27029,1,0,0:0:0:0:
295,41,27110,1,0,0:0:0:0:
330,45,27191,1,8,0:0:0:0:
283,36,27271,1,8,0:1:0:0:
236,28,27352,1,8,0:1:0:0:
189,20,27432,1,0,0:0:0:0:
141,10,27513,1,8,0:0:0:0:
121,38,27594,1,0,0:0:0:0:
112,74,27675,5,0,0:0:0:0:
119,109,27755,1,0,0:0:0:0:
140,137,27836,2,0,P|161:165|168:201,1,59.9999981689454,8|0,0:0|0:0,0:0:0:0:
335,190,27997,5,0,0:0:0:0:
299,198,28077,1,0,0:0:0:0:
268,217,28159,2,0,P|247:245|240:281,1,59.9999981689454,8|0,0:0|0:0,0:0:0:0:
77,203,28320,5,0,0:0:0:0:
84,238,28400,1,0,0:0:0:0:
105,266,28481,2,0,P|126:294|133:330,1,59.9999981689454,8|0,0:0|0:0,0:0:0:0:
229,358,28642,5,0,0:0:0:0:
263,357,28722,1,0,0:0:0:0:
295,341,28803,2,0,B|317:321|317:321|331:295,1,59.9999981689454,8|0,0:0|0:0,0:0:0:0:
372,144,28965,2,0,B|349:163|349:163|335:189,1,59.9999981689454,8|0,0:1|0:0,0:0:0:0:
397,338,29126,2,0,B|411:312|411:312|416:282,1,59.9999981689454,8|0,0:0|0:0,0:0:0:0:
474,141,29288,5,8,0:1:0:0:
438,134,29368,1,0,0:0:0:0:
403,128,29449,1,8,0:0:0:0:
367,122,29529,1,0,0:0:0:0:
331,115,29610,1,0,0:0:0:0:
296,109,29691,1,0,0:0:0:0:
260,103,29771,2,0,L|276:195,1,59.9999981689454,8|0,0:0|0:0,0:0:0:0:
146,316,29933,1,0,0:0:0:0:
154,268,30013,1,0,0:0:0:0:
162,221,30094,2,0,L|174:150,1,59.9999981689454,8|0,0:0|0:0,0:0:0:0:
46,65,30255,1,0,0:0:0:0:
81,58,30335,1,0,0:0:0:0:
116,52,30416,1,8,0:0:0:0:
152,46,30496,1,0,0:0:0:0:
187,39,30578,5,8,0:1:0:0:
165,81,30658,1,8,0:1:0:0:
171,128,30739,1,8,0:1:0:0:
203,163,30820,1,8,0:1:0:0:
247,176,30900,1,8,0:1:0:0:
291,161,30981,1,8,0:1:0:0:
319,123,31062,1,8,0:0:0:0:
308,183,31142,1,8,0:0:0:0:
298,242,31223,1,8,0:0:0:0:
287,301,31303,1,8,0:0:0:0:
277,360,31384,1,8,0:0:0:0:
336,357,31464,1,8,0:0:0:0:
382,318,31546,1,0,0:0:0:0:
334,309,31626,1,0,0:0:0:0:
287,301,31707,1,0,0:0:0:0:
240,293,31787,1,0,0:0:0:0:
192,285,31868,6,0,B|181:226|181:226|197:165,1,119.999996337891
330,64,32191,1,0,0:0:0:0:
79,163,32352,2,0,B|138:152|138:152|199:168,1,119.999996337891
300,301,32675,1,0,0:0:0:0:
79,163,32836,2,0,B|68:104|68:104|84:43,1,119.999996337891
26,273,33159,5,0,0:0:0:0:
196,167,33320,2,0,B|255:156|255:156|316:172,1,119.999996337891
83,45,33643,1,0,0:0:0:0:
142,288,33804,2,0,L|292:261,1,139.999995727539
482,102,34126,2,0,L|341:77,1,139.999995727539
123,215,34449,6,0,B|182:226|182:226|243:210,1,119.999996337891
344,77,34772,1,0,0:0:0:0:
245,328,34933,2,0,B|256:269|256:269|240:208,1,119.999996337891
107,107,35256,1,0,0:0:0:0:
245,328,35417,2,0,B|304:339|304:339|365:323,1,119.999996337891
395,158,35740,5,0,0:0:0:0:
160,274,35900,1,0,0:0:0:0:
424,290,36062,1,0,0:0:0:0:
298,246,36223,1,0,0:0:0:0:
318,62,36384,1,0,0:0:0:0:
308,96,36464,1,0,0:0:0:0:
286,124,36545,1,0,0:0:0:0:
255,143,36625,1,0,0:0:0:0:
184,129,36707,1,0,0:0:0:0:
153,147,36787,1,0,0:0:0:0:
131,175,36868,1,0,0:0:0:0:
121,210,36948,1,0,0:0:0:0:
139,280,37030,6,0,L|126:349,1,59.9999981689454
266,202,37191,2,0,L|255:142,1,59.9999981689454
286,314,37352,1,8,0:0:0:0:
319,301,37432,1,0,0:0:0:0:
347,279,37513,2,0,L|421:292,1,59.9999981689454
206,212,37675,2,0,L|266:202,1,59.9999981689454
341,129,37836,2,0,L|351:69,1,59.9999981689454
347,279,37997,5,8,0:0:0:0:
349,290,38077,1,0,0:0:0:0:
351,302,38158,1,0,0:0:0:0:
353,314,38238,1,0,0:0:0:0:
355,326,38320,1,0,0:0:0:0:
357,338,38400,1,0,0:0:0:0:
299,321,38481,2,0,L|288:380,1,59.9999981689454
326,160,38642,2,0,L|336:219,1,59.9999981689454,8|0,0:0|0:0,0:0:0:0:
406,300,38804,2,0,L|470:311,1,59.9999981689454
266,170,38965,6,0,L|330:158,1,59.9999981689454
166,274,39126,2,0,L|155:333,1,59.9999981689454
131,137,39288,1,8,0:0:0:0:
128,125,39368,1,0,0:0:0:0:
126,113,39449,1,0,0:0:0:0:
124,101,39529,1,0,0:0:0:0:
183,115,39610,6,0,L|251:103,1,59.9999981689454
79,173,39771,2,0,L|66:241,1,59.9999981689454
123,90,39933,1,8,0:0:0:0:
145,61,40013,1,0,0:0:0:0:
179,49,40094,2,0,L|239:38,1,59.9999981689454
4,69,40255,2,0,L|77:82,1,59.9999981689454
183,115,40417,2,0,L|195:183,1,59.9999981689454
143,296,40578,5,8,0:0:0:0:
154,298,40658,1,0,0:0:0:0:
166,300,40739,1,0,0:0:0:0:
178,302,40819,1,0,0:0:0:0:
190,304,40900,1,0,0:0:0:0:
202,306,40981,1,0,0:0:0:0:
185,248,41062,2,0,L|257:235,1,59.9999981689454
320,326,41223,2,0,L|406:341,1,59.9999981689454,8|0,0:0|0:0,0:0:0:0:
340,227,41384,2,0,L|327:154,1,59.9999981689454
174,307,41546,6,0,L|187:234,1,59.9999981689454
280,237,41707,2,0,L|366:222,1,59.9999981689454
112,176,41868,1,8,0:0:0:0:
100,173,41948,1,0,0:0:0:0:
88,171,42029,1,0,0:0:0:0:
76,169,42109,1,0,0:0:0:0:
106,116,42191,6,0,L|181:102,1,59.9999981689454
34,217,42352,2,0,L|20:292,1,59.9999981689454
141,251,42513,1,8,0:0:0:0:
172,233,42593,1,0,0:0:0:0:
192,202,42675,2,0,L|268:188,1,59.9999981689454
372,108,42836,2,0,L|295:94,1,59.9999981689454
208,90,42997,2,0,L|197:30,1,59.9999981689454
334,181,43159,5,8,0:0:0:0:
331,192,43239,1,0,0:0:0:0:
329,204,43320,1,0,0:0:0:0:
327,216,43400,1,0,0:0:0:0:
325,228,43481,1,0,0:0:0:0:
323,240,43562,1,0,0:0:0:0:
377,216,43642,2,0,L|453:202,1,59.9999981689454
307,328,43804,2,0,L|366:338,1,59.9999981689454,8|0,0:0|0:0,0:0:0:0:
240,219,43965,2,0,L|250:159,1,59.9999981689454
78,322,44126,6,0,L|137:311,1,59.9999981689454
105,133,44288,2,0,L|115:192,1,59.9999981689454
226,303,44449,1,8,0:0:0:0:
228,291,44529,1,0,0:0:0:0:
230,279,44610,1,0,0:0:0:0:
232,267,44690,1,0,0:0:0:0:
285,295,44771,2,0,L|295:354,1,59.9999981689454
147,252,44933,2,0,L|136:311,1,59.9999981689454
250,159,45094,2,0,L|309:148,1,59.9999981689454,8|0,0:0|0:0,0:0:0:0:
105,133,45255,6,0,L|115:192,1,59.9999981689454
221,326,45417,2,0,L|231:266,1,59.9999981689454
239,99,45578,2,0,L|249:158,1,59.9999981689454
355,292,45739,1,8,0:0:0:0:
357,280,45819,1,0,0:0:0:0:
359,268,45900,1,0,0:0:0:0:
361,256,45980,1,0,0:0:0:0:
301,271,46062,5,10,0:1:0:0:
247,247,46142,1,8,0:1:0:0:
225,194,46223,2,0,L|212:122,1,59.9999981689454,8|0,0:1|0:0,0:0:0:0:
364,246,46384,2,0,L|377:174,1,59.9999981689454,8|0,0:1|0:0,0:0:0:0:
122,143,46546,5,8,0:1:0:0:
131,96,46626,1,8,0:1:0:0:
169,66,46707,1,0,0:0:0:0:
174,125,46787,1,0,0:0:0:0:
209,172,46868,1,0,0:0:0:0:
265,193,46948,1,0,0:0:0:0:
320,145,47030,1,0,0:0:0:0:
365,159,47110,1,0,0:0:0:0:
400,192,47191,1,0,0:0:0:0:
417,237,47271,1,0,0:0:0:0:
358,274,47352,6,0,L|372:348,1,64.9999970245363,2|0,0:0|0:0,0:0:0:0:
221,190,47513,2,0,L|233:125,1,64.9999970245363
200,311,47674,1,10,0:0:0:0:
164,297,47754,1,0,0:0:0:0:
134,273,47835,2,0,L|54:287,1,64.9999970245363,2|0,0:0|0:0,0:0:0:0:
286,200,47997,2,0,L|221:190,1,64.9999970245363
140,111,48158,2,0,L|129:46,1,64.9999970245363,2|0,0:0|0:0,0:0:0:0:
134,273,48319,5,8,0:0:0:0:
132,285,48399,1,0,0:0:0:0:
129,298,48480,1,2,0:0:0:0:
127,311,48560,1,0,0:0:0:0:
125,324,48642,1,0,0:0:0:0:
123,336,48722,1,0,0:0:0:0:
186,318,48803,2,0,L|198:382,1,64.9999970245363,2|0,0:0|0:0,0:0:0:0:
156,144,48964,2,0,L|146:208,1,64.9999970245363,10|0,0:0|0:0,0:0:0:0:
70,295,49126,2,0,L|1:307,1,64.9999970245363
221,155,49287,6,0,L|152:142,1,64.9999970245363,2|0,0:0|0:0,0:0:0:0:
329,267,49448,2,0,L|341:331,1,64.9999970245363
367,119,49610,1,8,0:0:0:0:
370,106,49690,1,0,0:0:0:0:
372,93,49771,1,0,0:0:0:0:
375,81,49851,1,0,0:0:0:0:
311,96,49932,6,0,L|237:83,1,64.9999970245363,2|0,0:0|0:0,0:0:0:0:
423,158,50093,2,0,L|437:232,1,64.9999970245363
376,69,50255,1,10,0:0:0:0:
352,37,50335,1,0,0:0:0:0:
315,24,50416,2,0,L|250:12,1,64.9999970245363,2|0,0:0|0:0,0:0:0:0:
504,46,50577,2,0,L|425:60,1,64.9999970245363
311,96,50739,2,0,L|298:169,1,64.9999970245363,2|0,0:0|0:0,0:0:0:0:
354,291,50900,5,10,0:0:0:0:
342,293,50980,1,0,0:0:0:0:
329,295,51061,1,0,0:0:0:0:
316,298,51141,1,0,0:0:0:0:
303,300,51222,1,0,0:0:0:0:
290,302,51303,1,0,0:0:0:0:
309,239,51384,2,0,L|231:225,1,64.9999970245363
163,324,51545,2,0,L|70:340,1,64.9999970245363,8|0,0:0|0:0,0:0:0:0:
141,217,51706,2,0,L|155:138,1,64.9999970245363
321,303,51868,6,0,L|307:224,1,64.9999970245363
206,227,52029,2,0,L|113:211,1,64.9999970245363
388,162,52190,1,8,0:0:0:0:
401,158,52270,1,0,0:0:0:0:
414,156,52351,1,0,0:0:0:0:
426,154,52431,1,0,0:0:0:0:
394,97,52513,6,0,L|313:82,1,64.9999970245363,2|0,0:0|0:0,0:0:0:0:
472,206,52674,2,0,L|487:287,1,64.9999970245363
356,243,52835,1,10,0:0:0:0:
323,223,52915,1,0,0:0:0:0:
301,190,52997,2,0,L|219:174,1,64.9999970245363,2|0,0:0|0:0,0:0:0:0:
107,88,53158,2,0,L|190:73,1,64.9999970245363
284,69,53319,2,0,L|296:4,1,64.9999970245363,2|0,0:0|0:0,0:0:0:0:
148,167,53481,5,10,0:0:0:0:
151,179,53561,1,0,0:0:0:0:
153,192,53642,1,0,0:0:0:0:
155,205,53722,1,0,0:0:0:0:
158,218,53803,1,0,0:0:0:0:
160,231,53884,1,0,0:0:0:0:
101,205,53964,2,0,L|19:190,1,64.9999970245363
177,326,54126,2,0,L|113:336,1,64.9999970245363,10|0,0:0|0:0,0:0:0:0:
249,208,54287,2,0,L|239:143,1,64.9999970245363
424,319,54448,6,0,L|361:307,1,64.9999970245363,2|0,0:0|0:0,0:0:0:0:
395,115,54610,2,0,L|384:179,1,64.9999970245363
264,299,54771,1,10,0:0:0:0:
262,286,54851,1,0,0:0:0:0:
260,273,54932,1,0,0:0:0:0:
258,260,55012,1,0,0:0:0:0:
201,290,55093,2,0,L|190:354,1,64.9999970245363,2|0,0:0|0:0,0:0:0:0:
350,244,55255,2,0,L|362:307,1,64.9999970245363
239,143,55416,2,0,L|175:131,1,64.9999970245363,10|0,0:0|0:0,0:0:0:0:
395,115,55577,6,0,L|384:179,1,64.9999970245363,2|0,0:0|0:0,0:0:0:0:
270,324,55739,2,0,L|259:259,1,64.9999970245363
250,78,55900,2,0,L|240:142,1,64.9999970245363,2|0,0:0|0:0,0:0:0:0:
125,287,56061,1,10,0:0:0:0:
123,274,56141,1,0,0:0:0:0:
121,261,56222,1,0,0:0:0:0:
119,248,56302,1,0,0:0:0:0:
183,264,56384,5,8,0:1:0:0:
242,238,56464,1,8,0:1:0:0:
266,181,56545,2,0,L|279:103,1,64.9999970245363,8|0,0:1|0:0,0:0:0:0:
115,237,56706,2,0,L|101:159,1,64.9999970245363,8|0,0:1|0:0,0:0:0:0:
377,126,56868,5,8,0:1:0:0:
367,75,56948,1,8,0:1:0:0:
330,37,57029,1,0,0:0:0:0:
303,95,57109,1,0,0:0:0:0:
249,130,57190,1,0,0:0:0:0:
186,130,57270,1,0,0:0:0:0:
132,108,57352,1,0,0:0:0:0:
81,105,57432,1,0,0:0:0:0:
33,126,57513,1,0,0:0:0:0:
0,165,57593,1,0,0:0:0:0:
25,233,57675,5,8,0:0:0:0:
207,174,57836,1,0,0:0:0:0:
81,105,57997,1,0,0:0:0:0:
229,323,58159,5,8,0:0:0:0:
268,135,58320,1,0,0:0:0:0:
146,210,58481,1,0,0:0:0:0:
412,189,58642,5,8,0:0:0:0:
268,61,58803,1,0,0:0:0:0:
272,204,58964,1,0,0:0:0:0:
451,0,59126,5,8,0:0:0:0:
346,243,59288,1,8,0:0:0:0:
268,61,59449,1,0,0:0:0:0:
207,174,59610,1,0,0:0:0:0:
451,384,59771,5,8,0:0:0:0:
346,141,59933,1,8,0:0:0:0:
268,323,60094,1,0,0:0:0:0:
141,62,60255,5,8,0:0:0:0:
86,246,60417,1,0,0:0:0:0:
207,174,60578,1,0,0:0:0:0:
462,249,60739,5,8,0:0:0:0:
330,109,60901,1,0,0:0:0:0:
330,253,61062,1,0,0:0:0:0:
143,154,61223,5,8,0:0:0:0:
330,109,61385,1,0,0:0:0:0:
205,37,61546,1,0,0:0:0:0:
191,282,61707,5,8,0:0:0:0:
330,109,61868,1,8,0:0:0:0:
330,253,62030,1,0,0:0:0:0:
143,154,62191,1,0,0:0:0:0:
93,186,62271,1,0,0:0:0:0:
62,237,62352,6,0,L|48:162,1,59.9999981689454,8|0,3:0|3:0,3:0:0:0:
204,145,62513,2,0,L|214:85,1,59.9999981689454,8|0,3:0|3:0,3:0:0:0:
190,281,62675,2,0,L|200:340,1,59.9999981689454,0|0,3:0|3:0,3:0:0:0:
81,65,62836,5,10,0:0:0:0:
266,175,62997,1,0,0:0:0:0:
190,281,63159,1,0,0:0:0:0:
208,63,63320,5,10,0:0:0:0:
395,168,63481,1,0,0:0:0:0:
449,49,63643,1,0,0:0:0:0:
266,175,63804,5,10,0:0:0:0:
450,48,63965,1,0,0:0:0:0:
503,168,64127,1,0,0:0:0:0:
266,175,64288,5,10,0:0:0:0:
459,296,64449,1,8,0:0:0:0:
395,168,64610,1,0,0:0:0:0:
503,168,64771,1,2,0:0:0:0:
323,60,64933,5,8,0:0:0:0:
335,295,65094,1,8,0:0:0:0:
266,175,65255,1,0,0:0:0:0:
89,295,65417,5,8,0:0:0:0:
266,175,65578,1,0,0:0:0:0:
301,316,65739,1,0,0:0:0:0:
89,295,65900,5,8,0:0:0:0:
266,175,66061,1,0,0:0:0:0:
147,89,66222,1,0,0:0:0:0:
89,295,66384,5,8,0:0:0:0:
1,99,66545,1,0,0:0:0:0:
125,201,66707,1,8,0:1:0:0:
172,192,66787,1,8,0:1:0:0:
219,184,66868,1,8,0:1:0:0:
266,175,66948,1,8,0:1:0:0:
314,167,67029,1,8,0:1:0:0:
361,159,67110,1,8,0:1:0:0:
408,150,67190,1,8,0:1:0:0:
455,142,67271,1,8,0:1:0:0:
502,134,67352,5,8,0:0:0:0:
469,119,67432,1,0,0:0:0:0:
451,88,67513,1,0,0:0:0:0:
454,53,67593,1,0,0:0:0:0:
476,24,67675,5,12,0:0:0:0:
466,83,67756,1,0,0:0:0:0:
455,142,67836,1,0,0:0:0:0:
445,201,67917,1,0,0:0:0:0:
434,259,67997,5,8,0:0:0:0:
419,225,68079,1,0,0:0:0:0:
391,205,68159,1,0,0:0:0:0:
355,205,68240,1,0,0:0:0:0:
325,226,68320,1,0,0:0:0:0:
315,261,68400,1,0,0:0:0:0:
328,295,68481,2,0,L|257:281,1,59.9999981689454
162,242,68642,1,0,0:0:0:0:
177,208,68724,1,0,0:0:0:0:
205,188,68804,6,0,L|265:177,1,59.9999981689454
82,81,68965,1,0,0:0:0:0:
75,116,69045,1,0,0:0:0:0:
69,151,69126,1,0,0:0:0:0:
63,187,69206,1,0,0:0:0:0:
56,222,69288,6,0,L|43:150,1,59.9999981689454
182,97,69449,1,0,0:0:0:0:
217,95,69529,1,0,0:0:0:0:
251,107,69610,1,0,0:0:0:0:
278,131,69690,1,0,0:0:0:0:
293,163,69771,2,0,L|305:91,1,59.9999981689454
228,318,69933,1,0,0:0:0:0:
221,282,70013,1,0,0:0:0:0:
215,247,70094,6,0,L|202:175,1,59.9999981689454
371,79,70255,1,0,0:0:0:0:
393,106,70335,1,0,0:0:0:0:
406,140,70416,1,0,0:0:0:0:
407,176,70496,1,0,0:0:0:0:
398,210,70578,6,0,L|338:220,1,59.9999981689454
