osu file format v14

[General]
AudioFilename: audio.mp3
AudioLeadIn: 0
PreviewTime: -1
Countdown: 0
SampleSet: Soft
StackLeniency: 0.7
Mode: 0
LetterboxInBreaks: 0
WidescreenStoryboard: 0

[Editor]
Bookmarks: 712,6712,11795,13270,16383,20177,22824,28559,31005,38946,42740,45564,50089
DistanceSpacing: 1.4
BeatDivisor: 4
GridSize: 32
TimelineZoom: 0.8999997

[Metadata]
Title:Imagine
TitleUnicode:Imagine
Artist:SizzleBird
ArtistUnicode:SizzleBird
Creator:Legacy47
Version:Normal
Source:
Tags:sizzlebird imagine
BeatmapID:984271
BeatmapSetID:456848

[Difficulty]
HPDrainRate:2
CircleSize:3
OverallDifficulty:2
ApproachRate:3
SliderMultiplier:0.999999999999999
SliderTickRate:2

[Events]
//Background and Video events
0,0,"bg.jpg",0,0
//Break Periods
//Storyboard Layer 0 (Background)
//Storyboard Layer 1 (Fail)
//Storyboard Layer 2 (Pass)
//Storyboard Layer 3 (Foreground)
//Storyboard Sound Samples

[TimingPoints]
1507,352.941176470588,4,2,0,40,1,0
35389,-100,4,2,0,40,0,1
69271,-100,4,2,0,40,0,0

[HitObjects]
186,310,1507,6,0,P|118:198|132:126,1,200
256,96,2918,2,0,P|324:208|310:280,1,200
227,197,4330,5,0,2:2:0:0:
355,154,5036,1,0,2:2:0:0:
455,61,5742,2,0,P|487:157|455:253,1,200,0|0,2:2|2:2,2:2:0:0:
424,330,7154,6,0,P|296:330|264:266,1,200
368,218,8565,1,0,0:0:0:0:
288,320,9271,1,0,0:0:0:0:
160,320,9977,2,0,B|128:288|160:224|128:192|160:160|128:128,1,200
32,128,11389,5,0,0:0:0:0:
64,320,12801,6,0,P|64:288|96:224,1,99.9999999999999,0|0,2:2|2:2,2:2:0:0:
160,192,13506,2,0,P|192:160|256:160,1,99.9999999999999,0|0,2:2|2:2,2:2:0:0:
230,242,14212,1,0,2:2:0:0:
323,207,14565,1,0,2:2:0:0:
318,105,14918,5,0,2:2:0:0:
230,169,15271,1,0,2:2:0:0:
256,256,15624,2,0,P|192:256|160:224,1,99.9999999999999,0|0,2:2|2:2,2:2:0:0:
128,160,16330,2,0,P|128:128|160:64,1,99.9999999999999,0|0,2:2|2:2,2:2:0:0:
196,126,17036,1,0,2:2:0:0:
218,206,17389,1,0,2:2:0:0:
160,288,17742,6,0,P|256:288|320:192,1,200,0|0,2:2|2:2,2:2:0:0:
352,96,18801,1,0,2:2:0:0:
448,128,19154,2,0,P|448:192|416:224,1,99.9999999999999,0|0,2:2|2:2,2:2:0:0:
352,256,19859,2,0,P|320:256|256:224,1,99.9999999999999,0|0,2:2|2:2,2:2:0:0:
160,128,20565,1,0,2:2:0:0:
64,32,20918,5,0,2:2:0:0:
64,96,21271,2,0,P|64:192|96:256,1,150,0|0,2:2|2:2,2:2:0:0:
117,279,21977,1,0,2:2:0:0:
215,245,22330,1,0,2:2:0:0:
319,214,22683,6,0,P|415:246|479:182,1,200,0|0,2:2|2:2,2:2:0:0:
384,136,24095,5,0,2:2:0:0:
229,185,24448,1,0,2:2:0:0:
224,288,24801,2,0,P|256:288|320:256,1,99.9999999999999,0|0,2:2|2:2,2:2:0:0:
384,128,25506,5,0,2:2:0:0:
288,64,25859,2,0,P|256:64|192:96,1,99.9999999999999,0|0,2:2|2:2,2:2:0:0:
192,192,26565,5,0,2:2:0:0:
224,288,26918,2,0,P|256:288|320:256,1,99.9999999999999,0|0,2:2|2:2,2:2:0:0:
352,160,27624,5,0,2:2:0:0:
256,96,27977,1,0,2:2:0:0:
96,96,28330,1,0,2:2:0:0:
192,224,29036,5,0,0:0:0:0:
308,269,29389,1,0,0:0:0:0:
379,170,29742,1,0,0:0:0:0:
379,170,30095,2,0,P|281:178|183:232,1,200
128,288,31154,6,0,P|32:192|128:96,1,300
256,96,32565,1,0,0:0:0:0:
288,192,32918,1,0,0:0:0:0:
320,320,33271,2,0,B|288:288|256:320|224:288|224:320|192:288|192:320|160:288|160:320|128:288,1,200
64,96,35389,6,0,B|128:128|160:192|256:192,1,200
320,192,36448,1,0,0:0:0:0:
448,192,36801,1,0,0:0:0:0:
416,288,37154,6,0,P|384:320|352:288,1,99.9999999999999
320,192,37859,1,0,0:0:0:0:
235,110,38212,1,0,0:0:0:0:
140,43,38565,2,0,P|119:57|91:128,1,99.9999999999999
78,217,39271,1,0,0:0:0:0:
23,313,39624,2,0,P|87:313|183:217,1,200
258,160,41036,5,0,0:0:0:0:
310,244,41389,1,0,0:0:0:0:
198,265,41742,1,0,0:0:0:0:
96,224,42095,1,0,0:0:0:0:
128,160,42448,6,0,L|224:192,2,99.9999999999999
128,256,43506,6,0,L|32:288,2,99.9999999999999
224,224,44565,1,0,0:0:0:0:
320,192,44918,1,0,0:0:0:0:
416,160,45271,1,0,0:0:0:0:
96,128,46683,6,0,L|192:192,1,99.9999999999999
256,224,47389,2,0,L|352:288,1,99.9999999999999
448,288,48095,6,0,L|384:192,1,99.9999999999999
352,128,48801,2,0,L|288:32,1,99.9999999999999
224,96,49506,6,0,L|160:192,1,99.9999999999999
96,256,50212,1,0,0:0:0:0:
160,320,50565,1,0,0:0:0:0:
288,352,50918,2,0,P|352:288|288:224,1,200
192,192,51977,1,0,0:0:0:0:
320,128,52330,2,0,P|256:96|128:96,1,200
96,192,53389,5,0,0:0:0:0:
224,256,53742,1,0,0:0:0:0:
352,288,54095,2,0,P|384:224|384:192,1,99.9999999999999
384,96,54801,1,0,0:0:0:0:
256,128,55154,1,0,0:0:0:0:
160,192,55506,6,0,L|64:256,1,99.9999999999999
256,224,56212,2,0,L|160:288,1,99.9999999999999
352,256,56918,2,0,L|256:320,1,99.9999999999999
192,352,57624,5,0,0:0:0:0:
96,288,57977,2,0,P|64:192|96:96,1,200
224,96,59036,6,0,P|288:96|318:124,1,99.9999999999999
388,182,59742,1,0,0:0:0:0:
256,178,60095,1,0,0:0:0:0:
209,285,60448,1,0,0:0:0:0:
128,320,60801,6,0,P|128:256|160:224,1,99.9999999999999
218,156,61506,1,0,0:0:0:0:
65,195,61859,1,0,0:0:0:0:
217,283,62212,1,0,0:0:0:0:
304,320,62565,6,0,P|303:266|284:225,1,99.9999999999999
200,144,63271,1,0,0:0:0:0:
301,72,63624,1,0,0:0:0:0:
404,114,63977,1,0,0:0:0:0:
512,109,64330,6,0,P|482:196|385:203,1,200
271,154,65389,1,0,0:0:0:0:
137,202,65742,1,0,0:0:0:0:
270,248,66095,1,0,0:0:0:0:
200,313,66448,6,0,P|268:348|290:343,1,99.9999999999999
339,177,67154,6,0,P|290:150|233:155,1,99.9999999999999
273,255,67859,1,0,0:0:0:0:
