osu file format v14

[General]
AudioFilename: audio.mp3
AudioLeadIn: 0
PreviewTime: 78839
Countdown: 0
SampleSet: Soft
StackLeniency: 0.4
Mode: 0
LetterboxInBreaks: 0
WidescreenStoryboard: 1

[Editor]
Bookmarks: 24213,26739,36844,46949,52002,54528,56897,67160,72213,74739,77265,79634,112634
DistanceSpacing: 1
BeatDivisor: 4
GridSize: 4
TimelineZoom: 1.5

[Metadata]
Title:Dystopia (TV Size)
TitleUnicode:Dystopia (TV Size)
Artist:Sizuk feat. AYAME (from AliA)
ArtistUnicode:Sizuk feat. AYAME (from AliA)
Creator:-Aqua
Version:Suou's Normal
Source:冰剣の魔術師が世界を統べる
Tags:アメリア=ローズ Amelia Rose 冰剣の魔術師が世界を統べる〜世界最強の魔術師である少年は、魔術学院に入学する〜 Hyōken no Majutsushi ga Sekai o Suberu: Sekai Saikyō no Majutsushi de Aru Shōnen wa, Majutsu Gakuin ga Nyūgaku Suru Ice Sword Magician 冰剣の魔術師 The Iceblade Sorcerer Shall Rule the World Japanese Anime Rock J-rock Jrock Hyouken Saikyou Nyuugaku Shounen Hyoken Saikyo Nyugaku Shonen Shirahane Suou Ayesha Altugle Shizuku- Kazato Asa Shikibe Mayu Mocaotic Opening OP
BeatmapID:4130261
BeatmapSetID:1950676

[Difficulty]
HPDrainRate:3
CircleSize:3
OverallDifficulty:3
ApproachRate:5.5
SliderMultiplier:0.999999999999999
SliderTickRate:1

[Events]
//Background and Video events
0,0,"amelia.jpg",0,0
//Break Periods
//Storyboard Layer 0 (Background)
//Storyboard Layer 1 (Fail)
//Storyboard Layer 2 (Pass)
//Storyboard Layer 3 (Foreground)
//Storyboard Layer 4 (Overlay)
//Storyboard Sound Samples

[TimingPoints]
208,315.789473684211,4,2,1,50,1,0
16786,-100,4,2,1,5,0,0
16865,-100,4,2,1,50,0,0
17813,-100,4,2,1,5,0,0
17892,-100,4,2,1,50,0,0
26655,-100,4,2,1,5,0,0
26734,-100,4,2,1,60,0,0
31786,-100,4,2,1,65,0,0
36129,-100,4,2,1,5,0,0
36208,-100,4,2,1,65,0,0
36839,-100,4,2,1,70,0,0
41339,-100,4,2,1,5,0,0
41418,-100,4,2,1,70,0,0
45602,-100,4,2,1,5,0,0
45681,-100,4,2,1,70,0,0
46944,-100,4,2,1,60,0,0
51997,-100,4,2,2,60,0,0
54523,-100,4,2,1,60,0,0
54760,-100,4,2,1,5,0,0
54839,-100,4,2,1,60,0,0
55708,-100,4,2,1,5,0,0
55786,-100,4,2,1,60,0,0
57918,-100,4,2,1,5,0,0
57997,-100,4,2,1,60,0,0
60444,-100,4,2,1,5,0,0
60523,-100,4,2,1,60,0,0
62339,-100,4,2,1,5,0,0
62418,-100,4,2,1,60,0,0
63444,-100,4,2,1,5,0,0
63523,-100,4,2,1,60,0,0
65813,-100,4,2,1,5,0,0
65892,-100,4,2,1,60,0,0
74734,-100,4,2,1,70,0,0
74892,-100,4,2,1,50,0,0
75365,-100,4,2,1,60,0,0
75997,-100,4,2,1,70,0,0
76629,-100,4,2,1,80,0,0
77260,-100,4,2,1,90,0,0
78286,-100,4,2,1,5,0,0
78365,-100,4,2,1,90,0,0
78839,-100,4,2,1,60,0,0
79629,-100,4,2,1,85,0,1
79865,-100,4,2,1,5,0,1
79944,-100,4,2,1,85,0,1
81129,-100,4,2,1,5,0,1
81208,-100,4,2,1,85,0,1
83655,-100,4,2,1,5,0,1
83734,-100,4,2,1,85,0,1
84918,-100,4,2,1,5,0,1
84997,-100,4,2,1,85,0,1
85550,-100,4,2,1,5,0,1
85629,-100,4,2,1,85,0,1
85708,-100,4,2,1,5,0,1
85786,-100,4,2,1,85,0,1
86181,-100,4,2,1,5,0,1
86260,-100,4,2,1,85,0,1
86813,-100,4,2,1,5,0,1
86892,-100,4,2,1,85,0,1
86971,-100,4,2,1,5,0,1
87049,-100,4,2,1,85,0,1
87444,-100,4,2,1,5,0,1
87523,-100,4,2,1,85,0,1
89181,-100,4,2,1,5,0,1
89260,-100,4,2,1,85,0,1
89971,-100,4,2,1,5,0,1
90050,-100,4,2,1,85,0,1
91234,-100,4,2,1,5,0,1
91313,-100,4,2,1,85,0,1
95023,-100,4,2,1,5,0,1
95102,-100,4,2,1,85,0,1
100234,-100,4,2,1,5,0,1
100313,-100,4,2,1,85,0,1
105129,-100,4,2,1,5,0,1
105208,-100,4,2,1,85,0,1
106392,-100,4,2,1,5,0,1
106471,-100,4,2,1,85,0,1
109550,-100,4,2,1,5,0,1
109629,-100,4,2,1,85,0,1
112076,-100,4,2,1,5,0,1
112155,-100,4,2,1,85,0,1
112629,-100,4,2,1,35,0,0

[Colours]
Combo1 : 255,128,128
Combo2 : 255,43,43

[HitObjects]
256,192,24208,12,0,25944,0:0:0:0:
336,70,26734,5,4,1:2:0:0:
421,121,27050,1,2,0:0:0:0:
371,207,27365,2,0,P|322:224|267:268,1,99.9999999999999,10|0,0:0|0:0,0:0:0:0:
255,294,27839,1,2,1:2:0:0:
160,261,28155,1,10,0:0:0:0:
89,331,28471,1,2,1:2:0:0:
89,331,28629,2,0,L|100:388,2,50,10|2|2,0:0|1:2|0:0,0:0:0:0:
13,264,29260,6,0,B|-9:184|56:194|26:115,1,150,2|2,1:2|1:2,0:0:0:0:
5,81,29892,1,10,0:0:0:0:
5,81,30050,1,2,0:0:0:0:
82,17,30365,2,0,L|184:47,1,99.9999999999999,2|10,1:2|0:0,0:0:0:0:
215,78,30839,1,2,0:0:0:0:
155,158,31155,1,10,0:0:0:0:
212,239,31471,2,0,L|199:307,1,50,8|8,0:0|0:0,0:0:0:0:
187,335,31786,5,6,1:2:0:0:
274,383,32102,1,10,0:0:0:0:
324,296,32418,2,0,P|360:261|412:265,1,99.9999999999999,2|8,1:2|0:0,0:0:0:0:
454,280,32892,1,2,0:0:0:0:
508,195,33208,1,2,1:2:0:0:
508,195,33365,2,0,L|470:91,1,99.9999999999999,10|2,0:0|1:2,0:0:0:0:
454,60,33839,1,2,0:0:0:0:
454,60,33997,1,10,0:0:0:0:
360,24,34313,6,0,P|322:18|261:62,1,99.9999999999999,2|8,1:2|0:0,0:0:0:0:
234,140,34944,2,0,L|252:205,1,50,2|0,1:2|1:0,0:0:0:0:
280,226,35260,2,0,L|262:291,1,50,8|12,0:0|0:0,0:0:0:0:
223,299,35576,2,0,L|112:275,1,99.9999999999999,2|8,0:0|0:0,0:0:0:0:
58,211,36208,1,0,1:2:0:0:
58,211,36365,2,0,L|2:222,2,50,8|8|8,0:0|1:2|0:0,0:0:0:0:
88,171,36839,6,0,L|69:69,1,99.9999999999999,6|10,1:2|0:0,0:0:0:0:
92,30,37313,1,2,0:0:0:0:
92,30,37471,1,2,1:2:0:0:
184,67,37786,2,0,L|249:52,1,50,10|2,0:0|0:0,0:0:0:0:
279,75,38102,2,0,L|297:-2,2,74.9999999999999,2|2|2,1:2|0:0|0:0,0:0:0:0:
271,124,38734,2,0,L|301:233,1,99.9999999999999,2|8,1:2|0:0,0:0:0:0:
328,315,39365,6,0,B|301:340|301:340|250:336,2,74.9999999999999,2|2|2,1:2|0:0|0:0,0:0:0:0:
375,333,39997,2,0,L|405:224,1,99.9999999999999,2|8,1:2|0:0,0:0:0:0:
428,139,40629,2,0,L|504:116,2,74.9999999999999,2|2|2,1:2|0:0|0:0,0:0:0:0:
392,104,41260,1,2,1:2:0:0:
309,160,41576,2,0,L|248:146,1,50,10|8,0:0|0:0,0:0:0:0:
231,107,41892,6,0,P|193:98|138:138,1,99.9999999999999,6|10,1:2|0:0,0:0:0:0:
112,167,42365,1,2,0:0:0:0:
112,167,42523,1,10,0:0:0:0:
174,244,42839,2,0,L|161:311,1,50,10|2,0:0|1:2,0:0:0:0:
178,341,43155,2,8,L|77:364,1,99.9999999999999
34,370,43629,1,2,1:2:0:0:
34,370,43786,1,10,0:0:0:0:
25,270,44102,2,0,L|10:206,1,50,8|2,0:0|1:2,0:0:0:0:
31,174,44418,6,0,L|6:75,1,99.9999999999999,10|8,0:0|0:0,0:0:0:0:
49,48,44892,1,2,1:2:0:0:
49,48,45050,2,0,L|119:28,1,50,10|2,0:0|1:2,0:0:0:0:
126,74,45365,1,10,0:0:0:0:
218,36,45681,2,0,B|257:39|291:23|291:23|303:67|340:86,1,150,2|8,1:2|0:0,0:0:0:0:
370,116,46313,2,0,L|429:103,2,50,2|10|0,1:2|0:0|1:0,0:0:0:0:
307,192,46944,6,0,L|333:295,1,99.9999999999999,6|2,1:2|1:2,0:0:0:0:
290,380,47576,1,2,1:2:0:0:
210,329,47892,1,2,1:2:0:0:
210,329,48050,2,0,L|113:353,1,99.9999999999999,2|2,0:0|0:0,0:0:0:0:
69,378,48523,1,0,1:0:0:0:
10,296,48839,1,0,1:0:0:0:
60,211,49155,1,0,1:0:0:0:
60,211,49313,6,0,L|156:186,1,99.9999999999999,2|2,0:0|0:0,0:0:0:0:
198,214,49786,1,2,1:2:0:0:
272,147,50102,1,2,1:2:0:0:
368,188,50418,1,2,1:2:0:0:
368,188,50576,1,2,0:0:0:0:
347,289,50892,1,2,0:0:0:0:
347,289,51050,2,0,L|280:309,2,50,0|8|8,1:0|0:0|0:0,0:0:0:0:
393,318,51523,1,8,3:0:0:0:
393,318,51681,1,4,3:0:0:0:
484,277,51997,6,0,B|503:185|503:185|454:136,1,150,2|2,1:2|1:2,0:0:0:0:
428,108,52629,1,10,0:0:0:0:
309,199,53102,2,0,L|252:183,1,50,2|2,1:2|0:0,0:0:0:0:
228,146,53418,2,0,L|113:177,1,99.9999999999999,8|2,0:0|1:2,0:0:0:0:
106,214,53892,1,8,0:0:0:0:
22,159,54208,2,0,L|6:96,1,50,0|0,3:0|0:2,0:0:0:0:
16,64,54523,5,8,0:0:0:0:
16,64,54681,2,0,P|47:37|123:40,1,99.9999999999999,0|0,1:0|1:0,0:0:0:0:
145,60,55155,2,0,L|159:119,1,50,10|0,0:0|1:2,0:0:0:0:
142,157,55471,1,10,0:0:0:0:
237,202,55786,1,10,0:0:0:0:
237,202,55944,1,10,0:0:0:0:
416,17,56892,6,0,P|455:50|454:100,1,99.9999999999999,6|2,1:2|1:2,0:0:0:0:
428,137,57365,2,0,L|417:200,1,50,10|2,0:0|0:0,0:0:0:0:
441,233,57681,1,2,1:2:0:0:
373,306,57997,1,10,0:0:0:0:
373,306,58155,2,0,L|310:295,1,50,2|0,0:0|1:0,0:0:0:0:
274,289,58471,2,0,B|240:243|240:243|277:154,1,150,2|0,1:2|1:0,0:0:0:0:
305,64,59260,5,8,0:0:0:0:
305,64,59418,2,0,P|267:32|215:37,1,99.9999999999999,2|2,1:2|1:2,0:0:0:0:
180,67,59892,2,0,L|193:130,2,50,10|2|2,0:0|0:0|1:2,0:0:0:0:
98,19,60523,1,10,0:0:0:0:
98,19,60681,2,0,P|49:16|12:48,1,99.9999999999999,2|2,0:0|1:2,0:0:0:0:
3,97,61155,1,8,0:0:0:0:
65,182,61471,1,0,1:0:0:0:
65,182,61629,2,0,L|124:168,2,50,2|10|10,1:2|0:0|0:0,0:0:0:0:
38,224,62102,6,0,B|24:271|24:271|59:326,1,99.9999999999999,6|8,1:2|0:0,0:0:0:0:
81,354,62576,2,0,L|180:330,1,99.9999999999999,6|2,1:2|1:2,0:0:0:0:
227,320,63050,1,10,0:0:0:0:
314,367,63365,2,0,L|381:350,1,50,2|8,1:2|0:0,0:0:0:0:
409,332,63681,1,8,0:0:0:0:
409,332,63839,2,0,P|414:287|376:238,1,99.9999999999999,6|0,1:2|1:2,0:0:0:0:
352,204,64313,1,8,0:0:0:0:
253,219,64629,6,0,L|189:202,1,50,2|2,1:2|1:2,0:0:0:0:
158,186,64944,1,10,0:0:0:0:
119,93,65260,2,0,L|136:29,1,50,2|0,1:2|1:2,0:0:0:0:
152,1,65575,1,10,0:0:0:0:
239,49,65892,2,0,L|303:32,1,50,10|10,0:0|0:0,0:0:0:0:
340,30,66208,1,10,0:0:0:0:
340,30,66365,1,10,0:0:0:0:
443,138,66839,2,0,L|431:193,1,50,8|0,3:0|0:0,0:0:0:0:
418,235,67155,6,0,B|369:231|369:231|325:268,1,99.9999999999999,6|8,1:2|0:0,0:0:0:0:
255,330,67786,2,0,L|144:310,1,99.9999999999999,0|8,1:0|0:0,0:0:0:0:
122,283,68260,1,2,0:0:0:0:
122,283,68418,2,0,B|111:234|111:234|155:186,1,99.9999999999999,2|8,1:2|0:0,0:0:0:0:
178,161,68892,1,2,0:0:0:0:
178,161,69050,2,0,L|165:106,2,50,2|2|10,1:2|1:2|0:2,0:0:0:0:
249,230,69681,6,0,L|365:202,1,99.9999999999999,2|8,1:2|0:0,0:0:0:0:
398,196,70155,1,2,0:0:0:0:
398,196,70313,1,2,1:2:0:0:
468,125,70629,2,0,L|454:65,1,50,10|2,0:0|0:0,0:0:0:0:
442,28,70944,1,2,1:2:0:0:
345,0,71260,1,8,0:0:0:0:
285,81,71576,1,8,3:0:0:0:
285,81,71734,2,0,B|245:109|245:109|173:99,1,99.9999999999999,4|4,3:0|3:0,0:0:0:0:
155,69,72208,5,2,1:2:0:0:
12,209,72839,1,2,0:2:0:0:
118,322,73313,1,0,0:0:0:0:
118,322,73471,1,2,0:2:0:0:
219,212,73944,1,0,0:0:0:0:
219,212,74102,2,0,L|200:139,2,74.9999999999999,10|8|4,0:2|3:0|3:0,0:0:0:0:
257,253,74734,5,4,1:2:0:0:
257,253,74892,2,0,L|241:312,2,50,10|10|10,0:0|1:2|0:0,0:0:0:0:
308,167,75523,2,0,L|292:108,2,50,10|10|10,0:0|1:2|0:0,0:0:0:0:
395,216,76155,2,0,L|379:275,2,50,10|10|10,0:0|1:2|0:0,0:0:0:0:
429,121,76786,2,0,L|413:62,2,50,10|2|4,0:0|1:2|3:0,0:0:0:0:
473,144,77260,5,10,1:2:0:0:
504,239,77576,1,10,1:2:0:0:
459,328,77892,2,0,L|347:357,1,99.9999999999999,10|0,0:2|1:2,0:0:0:0:
314,336,78365,1,10,1:2:0:0:
329,186,78839,2,0,L|317:126,1,50,0|0,0:0|1:2,0:0:0:0:
312,91,79155,1,10,0:0:0:0:
312,91,79313,1,0,1:0:0:0:
228,35,79629,6,0,B|179:22|179:22|137:62,1,99.9999999999999,6|2,1:2|1:2,0:0:0:0:
132,104,80102,2,0,L|145:163,1,50,8|2,0:0|0:0,0:0:0:0:
181,184,80418,2,0,P|190:238|154:286,1,99.9999999999999,2|10,1:2|0:0,0:0:0:0:
137,314,80892,1,2,1:2:0:0:
209,382,81208,2,0,L|275:367,1,50,2|8,1:2|0:2,0:0:0:0:
297,340,81523,2,0,P|344:331|383:361,1,99.9999999999999,2|0,0:0|1:0,0:0:0:0:
434,383,81997,5,10,0:0:0:0:
434,383,82155,2,0,P|447:311|487:229,1,150,2|10,1:2|0:0,0:0:0:0:
512,203,82786,2,0,P|499:131|459:49,1,150,2|10,0:0|0:0,0:0:0:0:
418,49,83418,1,2,1:2:0:0:
342,114,83734,1,0,1:0:0:0:
342,114,83892,1,8,0:0:0:0:
379,206,84208,1,0,1:2:0:0:
321,288,84523,1,8,0:0:0:0:
321,288,84681,6,0,L|221:310,1,99.9999999999999,6|2,1:2|1:2,0:0:0:0:
175,326,85155,2,0,L|163:268,1,50,10|2,0:0|0:0,0:0:0:0:
173,227,85471,1,2,1:2:0:0:
105,161,85786,1,8,0:0:0:0:
105,161,85944,2,0,L|84:62,1,99.9999999999999,2|2,1:2|1:2,0:0:0:0:
119,27,86418,2,0,P|143:15|175:18,1,50,10|2,0:0|0:0,0:0:0:0:
206,44,86734,1,2,1:2:0:0:
307,16,87050,1,8,0:0:0:0:
307,16,87208,6,0,B|346:49|346:49|331:114,1,99.9999999999999,6|8,1:2|0:0,0:0:0:0:
308,139,87681,2,0,L|324:197,1,50,10|2,0:0|1:2,0:0:0:0:
337,234,87997,2,0,B|365:258|365:258|415:251,1,74.9999999999999,10|4,0:0|3:0,0:0:0:0:
476,212,88471,2,0,B|498:132|433:142|463:63,1,150,6|10,1:2|0:2,0:0:0:0:
380,9,89260,1,10,0:0:0:0:
380,9,89418,2,0,L|318:27,1,50,10|8,0:0|0:0,0:0:0:0:
295,58,89734,6,0,B|247:70|247:70|195:37,1,99.9999999999999,6|2,1:2|1:2,0:0:0:0:
159,19,90208,2,0,L|98:36,1,50,10|2,0:0|0:0,0:0:0:0:
77,69,90523,1,2,1:2:0:0:
108,169,90839,1,10,0:0:0:0:
108,169,90997,1,2,1:2:0:0:
48,249,91313,2,0,L|61:307,1,50,2|8,1:2|0:2,0:0:0:0:
34,341,91629,2,0,L|146:367,1,99.9999999999999,2|0,0:0|1:0,0:0:0:0:
174,338,92102,5,10,0:0:0:0:
174,338,92260,2,0,B|214:339|245:359|245:359|286:348|311:296,1,150,2|10,1:2|0:0,0:0:0:0:
335,275,92892,2,0,P|287:251|294:151,1,150,2|10,0:0|0:0,0:0:0:0:
304,117,93523,1,2,1:2:0:0:
405,98,93839,1,0,1:0:0:0:
405,98,93997,1,8,0:0:0:0:
478,174,94313,1,2,1:2:0:0:
478,174,94471,2,0,L|463:239,1,50,2|8,1:2|0:0,0:0:0:0:
472,272,94786,6,0,B|432:301|432:301|376:287,1,99.9999999999999,6|2,1:2|1:2,0:0:0:0:
336,270,95260,2,0,L|279:289,1,50,10|2,0:0|0:0,0:0:0:0:
270,332,95576,1,2,1:2:0:0:
181,297,95892,1,8,0:0:0:0:
181,297,96050,2,0,B|166:248|166:248|202:199,1,99.9999999999999,2|0,1:2|1:2,0:0:0:0:
226,170,96523,1,10,0:2:0:0:
236,70,96839,2,0,P|204:45|151:51,1,74.9999999999999,2|2,1:2|0:0,0:0:0:0:
90,28,97313,1,2,0:0:0:0:
90,28,97471,6,0,P|48:66|51:113,1,99.9999999999999,0|10,1:2|0:0,0:0:0:0:
76,147,97944,2,0,L|60:250,1,99.9999999999999,2|0,0:0|1:2,0:0:0:0:
27,283,98418,1,10,0:0:0:0:
27,283,98576,2,0,B|77:334|77:334|169:307,1,150,2|8,0:0|0:0,0:0:0:0:
250,282,99365,1,10,0:0:0:0:
250,282,99523,2,0,L|256:231,2,50,10|10|8,0:0|0:0|3:0,0:0:0:0:
250,332,99997,6,0,P|297:357|356:345,1,99.9999999999999,6|8,1:2|0:0,0:0:0:0:
388,382,100471,1,2,1:2:0:0:
388,382,100629,1,2,1:2:0:0:
478,342,100944,2,0,L|495:278,1,50,10|2,0:0|0:0,0:0:0:0:
503,245,101260,2,0,P|466:210|411:216,1,99.9999999999999,2|8,1:2|0:0,0:0:0:0:
378,240,101734,2,0,P|329:240|294:206,1,99.9999999999999,2|2,1:2|1:2,0:0:0:0:
255,173,102208,1,14,0:0:0:0:
269,74,102523,6,0,P|318:64|364:43,1,99.9999999999999,4|8,1:2|0:2,0:0:0:0:
396,5,102997,1,2,0:2:0:0:
396,5,103155,2,0,L|454:19,1,50,2|2,1:2|1:2,0:0:0:0:
494,25,103471,1,10,0:0:0:0:
511,123,103786,2,0,P|492:179|486:230,1,99.9999999999999,2|2,1:2|0:2,0:0:0:0:
454,257,104260,2,0,B|405:269|405:269|356:228,1,99.9999999999999,10|0,0:0|1:0,0:0:0:0:
340,201,104734,1,8,0:0:0:0:
340,201,104892,6,0,B|301:169|301:169|252:181,1,99.9999999999999,6|0,1:2|1:0,0:0:0:0:
228,224,105365,2,0,L|160:240,1,50,10|6,0:0|3:0,0:0:0:0:
131,250,105681,1,2,1:2:0:0:
66,181,105997,1,8,0:2:0:0:
66,181,106155,2,0,B|34:142|34:142|46:93,1,99.9999999999999,6|2,1:2|1:2,0:0:0:0:
76,53,106629,2,0,L|138:42,1,50,10|6,0:0|3:0,0:0:0:0:
172,59,106944,1,2,1:2:0:0:
267,23,107260,1,8,0:2:0:0:
267,23,107418,6,0,P|303:40|301:147,1,150,2|2,1:2|0:0,0:0:0:0:
298,242,108208,1,2,0:2:0:0:
298,242,108365,1,2,0:2:0:0:
201,215,108681,5,2,1:2:0:0:
141,295,108997,1,2,1:2:0:0:
51,249,109313,2,0,B|-1:196|-1:196|15:100,1,150,2|8,1:2|0:0,0:0:0:0:
25,76,109944,1,4,3:0:0:0:
25,76,110102,5,2,1:2:0:0:
113,30,110418,1,2,0:2:0:0:
179,112,110734,1,2,0:0:0:0:
179,112,110892,1,2,0:2:0:0:
272,75,111208,5,2,1:2:0:0:
339,148,111523,1,2,1:2:0:0:
291,236,111839,2,0,P|169:263|49:299,1,250,2|0,1:2|0:2,0:0:0:0:
