osu file format v14

[General]
AudioFilename: audio.mp3
AudioLeadIn: 0
PreviewTime: 40495
Countdown: 0
SampleSet: None
StackLeniency: 0.7
Mode: 0
LetterboxInBreaks: 0
WidescreenStoryboard: 1

[Editor]
DistanceSpacing: 1
BeatDivisor: 4
GridSize: 8
TimelineZoom: 2

[Metadata]
Title:NAVIGATOR (TV Size)
TitleUnicode:NAVIGATOR (TV Size)
Artist:SixTONES
ArtistUnicode:SixTONES
Creator:Yahuri
Version:NORMAL
Source:富豪刑事 Balance:UNLIMITED
Tags:six tones the millionaire detective fugou keiji balance unlimited fugō 神戸大助 kambe daisuke 加藤 春 kato haru japanese anime pop jpop alternator stones ストーンズ Sutōnzu sutoonzu male vocalist vocals 高地 優吾 Yugo Kochi 京本大我 京本 大我 Taiga Kyomoto 田中 樹 田中樹 Juri Tanaka 松村 北斗 松村北斗 Hokuto Matsumura Lewis Masaya Jesse ルイス・まさや・ジェシー ルイス まさや ジェシー Shintaro Morimoto 森本慎太郎 森本 慎太郎
BeatmapID:2635563
BeatmapSetID:1268188

[Difficulty]
HPDrainRate:3.5
CircleSize:3
OverallDifficulty:4
ApproachRate:5
SliderMultiplier:1.1
SliderTickRate:1

[Events]
//Background and Video events
0,0,"bg.jpg",0,0
//Break Periods
//Storyboard Layer 0 (Background)
//Storyboard Layer 1 (Fail)
//Storyboard Layer 2 (Pass)
//Storyboard Layer 3 (Foreground)
//Storyboard Layer 4 (Overlay)
//Storyboard Sound Samples

[TimingPoints]
325,410.958904109589,4,2,1,30,1,0
325,-125,4,2,1,30,0,0
3407,-125,4,2,1,15,0,0
3612,-125,4,2,1,30,0,0
7722,410.958904109589,4,3,1,60,1,0
7722,-100,4,3,1,60,0,0
10188,-100,4,3,1,60,0,0
10804,-100,4,3,1,30,0,0
11010,-100,4,3,1,60,0,0
14298,-100,4,1,2,50,0,0
27449,-100,4,2,1,40,0,0
34024,-100,4,2,1,50,0,0
40598,-90.9090909090909,4,3,1,60,0,1
53338,-90.9090909090909,4,3,1,60,0,0
53749,-90.9090909090909,4,3,1,60,0,1
67723,-90.9090909090909,4,3,3,60,0,1
67825,-90.9090909090909,4,3,1,60,0,1
69366,-90.9090909090909,4,3,3,60,0,1
69469,-90.9090909090909,4,3,1,60,0,1
71010,-90.9090909090909,4,3,3,60,0,1
71113,-90.9090909090909,4,3,1,60,0,1
72654,-90.9090909090909,4,3,3,60,0,1
72757,-90.9090909090909,4,3,1,60,0,1
80050,-100,4,3,1,60,0,0
80462,-100,4,3,1,40,0,0
86627,-100,4,3,1,10,0,0
87449,-100,4,3,1,15,0,0
88270,-100,4,3,1,20,0,0
89092,-100,4,3,1,30,0,0
89195,-100,4,3,1,35,0,0
89298,-100,4,3,1,40,0,0
89401,-100,4,3,1,55,0,0
89503,-100,4,3,1,40,0,0

[Colours]
Combo1 : 106,106,106
Combo2 : 191,191,191

[HitObjects]
4,49,325,5,2,0:0:0:0:
89,64,735,1,0,0:0:0:0:
170,31,1146,1,0,0:0:0:0:
256,46,1557,1,0,0:0:0:0:
336,13,1968,1,0,0:0:0:0:
422,28,2379,1,0,0:0:0:0:
508,43,2790,2,0,P|523:109|518:174,1,132
511,215,3612,5,2,0:0:0:0:
426,230,4023,1,0,0:0:0:0:
345,197,4434,1,0,0:0:0:0:
259,212,4845,1,0,0:0:0:0:
179,179,5256,1,0,0:0:0:0:
93,194,5667,1,0,0:0:0:0:
9,209,6078,2,0,B|-31:292|33:298|-5:378,1,176
208,327,7722,6,0,B|290:320|290:320|317:341,1,110,4|4,0:0|0:0,0:0:0:0:
395,265,8543,2,0,L|476:257,2,82.5,4|4|4,0:0|0:0|0:0,0:0:0:0:
350,233,9365,1,4,0:0:0:0:
339,125,9776,1,4,0:0:0:0:
379,24,10187,2,0,P|297:16|218:38,1,165,4|0,0:0|0:0,0:0:0:0:
178,76,11009,6,0,B|184:158|184:158|163:185,1,110,4|4,0:0|0:0,0:0:0:0:
119,278,11831,2,0,L|111:359,2,82.5,4|4|4,0:0|0:0|0:0,0:0:0:0:
77,242,12653,1,4,0:0:0:0:
66,134,13064,1,4,0:0:0:0:
167,179,13475,2,0,P|248:186|327:164,1,165,4|0,0:0|0:0,0:0:0:0:
371,129,14297,5,4,0:3:0:0:
416,229,14708,1,8,0:0:0:0:
385,334,15119,2,0,L|467:326,2,82.5,8|8|8,0:0|0:0|0:0,0:0:0:0:
338,304,15941,1,8,0:0:0:0:
236,347,16352,1,8,0:0:0:0:
129,318,16763,2,0,L|134:259,1,55,8|0,0:0|0:0,0:0:0:0:
174,226,17174,1,0,0:0:0:0:
185,116,17585,5,4,0:3:0:0:
104,42,17995,1,8,0:0:0:0:
6,92,18406,2,0,L|-1:9,2,82.5,8|8|8,0:0|0:0|0:0,0:0:0:0:
42,133,19228,2,0,P|96:128|149:143,1,110,8|8,0:0|0:0,0:0:0:0:
227,221,20050,2,0,P|281:225|334:210,1,110,8|0,0:0|0:0,0:0:0:0:
423,146,20872,5,4,0:3:0:0:
361,55,21283,1,8,0:0:0:0:
272,119,21694,2,0,L|189:111,2,82.5,8|8|8,0:0|0:0|0:0,0:0:0:0:
301,166,22516,1,8,0:0:0:0:
267,270,22927,1,8,0:0:0:0:
319,366,23338,2,0,L|377:360,1,55,8|0,0:0|0:0,0:0:0:0:
412,322,23749,2,0,L|470:316,1,55
505,278,24160,6,0,P|509:223|494:170,1,110,4|8,0:3|0:0,0:0:0:0:
396,121,24982,2,0,L|388:203,2,82.5,8|8|8,0:0|0:0|0:0,0:0:0:0:
364,75,25804,2,0,P|311:59|256:64,1,110,8|8,0:0|0:0,0:0:0:0:
195,156,26626,2,0,P|247:171|302:166,1,110,8|0,0:0|0:0,0:0:0:0:
364,75,27448,5,4,0:0:0:0:
412,173,27858,1,0,0:0:0:0:
460,271,28269,2,0,L|350:280,1,110
252,330,29091,1,0,0:0:0:0:
150,288,29502,1,0,0:0:0:0:
60,351,29913,2,0,P|44:298|50:243,1,110
139,179,30735,6,0,P|217:202|298:193,2,165,2|2|2,0:0|0:0|0:0,0:3:0:0:
36,138,32379,2,0,L|30:196,1,55
50,244,32790,2,0,L|44:302,1,55
64,350,33201,2,0,P|116:334|171:340,1,110
277,367,34023,5,0,1:0:0:0:
348,283,34434,1,8,1:2:0:0:
419,199,34845,2,0,L|505:191,2,82.5,0|8|8,1:0|0:0|0:0,0:0:0:0:
374,165,35667,1,0,1:0:0:0:
299,84,36078,1,8,1:2:0:0:
192,111,36489,2,0,L|105:103,2,82.5,0|8|8,1:0|0:0|0:0,0:0:0:0:
219,159,37311,6,0,P|235:211|229:266,1,110
237,374,38132,2,0,P|183:361|139:329,1,110
41,282,38954,2,0,P|78:242|128:219,1,110
229,265,39776,2,0,P|282:260|292:213,1,110,8|8,0:3|0:3,0:0:0:0:
206,127,40598,6,0,P|202:72|233:10,1,121.000003692627,4|0,1:3|1:0,0:0:0:0:
322,93,41420,2,0,L|445:71,1,121.000003692627,4|8,1:3|0:0,0:0:0:0:
496,110,42037,1,0,1:0:0:0:
496,110,42242,2,0,B|500:170|500:170|475:226,1,121.000003692627,4|0,1:3|1:0,0:0:0:0:
363,273,43064,2,0,L|302:262,1,60.5000018463135,4|0,1:3|0:0,0:0:0:0:
252,295,43475,2,0,L|191:305,1,60.5000018463135,8|0,0:0|0:0,0:0:0:0:
138,332,43886,6,0,B|122:241|122:241|102:220,1,121.000003692627,4|0,1:3|1:0,0:0:0:0:
3,149,44708,2,0,P|2:120|13:88,1,60.5000018463135,4|0,1:3|0:0,0:0:0:0:
63,57,45119,2,0,P|93:57|121:47,1,60.5000018463135,8|0,0:0|1:0,0:0:0:0:
168,13,45530,2,0,L|189:136,1,121.000003692627,4|0,1:3|1:0,0:0:0:0:
164,246,46352,2,0,L|108:236,2,40.333334564209,8|8|8,0:0|0:0|0:0,0:0:0:0:
200,265,46763,1,8,0:0:0:0:
280,174,47174,6,0,B|340:169|340:169|396:194,1,121.000003692627,4|0,1:3|1:0,0:0:0:0:
509,236,47995,2,0,L|487:112,1,121.000003692627,4|8,1:3|0:0,0:0:0:0:
455,72,48612,1,0,1:0:0:0:
455,72,48817,2,0,P|400:76|338:45,1,121.000003692627,4|0,1:3|1:0,0:0:0:0:
225,83,49639,2,0,P|196:84|164:73,1,60.5000018463135,4|0,1:3|0:0,0:0:0:0:
115,107,50050,2,0,L|125:168,1,60.5000018463135,8|0,0:0|0:0,0:0:0:0:
159,216,50461,6,0,B|175:306|175:306|163:333,1,121.000003692627,4|0,1:3|1:0,0:0:0:0:
53,383,51283,2,0,L|43:323,1,60.5000018463135,4|0,1:3|0:0,0:0:0:0:
5,275,51694,2,0,P|4:246|15:214,1,60.5000018463135,8|0,0:0|1:0,0:0:0:0:
48,166,52105,2,0,P|101:192|161:189,1,121.000003692627,4|0,1:3|1:0,0:0:0:0:
255,112,52927,2,0,L|277:236,1,121.000003692627,4|0,1:3|0:0,0:0:0:0:
393,263,53749,6,0,B|453:268|453:268|509:242,1,121.000003692627,4|0,1:3|1:0,0:0:0:0:
487,124,54571,2,0,B|427:119|427:119|371:143,1,121.000003692627,8|8,1:3|1:3,0:0:0:0:
320,172,55187,1,8,0:3:0:0:
320,172,55393,2,0,P|323:112|297:58,1,121.000003692627,4|0,1:3|1:0,0:0:0:0:
182,19,56215,1,0,1:0:0:0:
90,96,56626,1,0,1:0:0:0:
204,137,57037,5,4,1:3:0:0:
225,256,57448,2,0,L|235:316,1,60.5000018463135,0|0,0:0|1:0,0:0:0:0:
293,334,57858,2,0,P|337:318|383:318,2,90.7500027694703,8|0|0,0:2|0:0|1:0,0:0:0:0:
245,371,58680,1,0,1:0:0:0:
145,301,59091,1,0,0:0:0:0:
34,349,59502,2,0,P|24:320|25:290,1,60.5000018463135,8|0,0:2|1:0,0:0:0:0:
46,233,59913,1,0,0:0:0:0:
122,139,60324,6,0,B|31:123|31:123|10:103,1,121.000003692627,4|0,1:3|1:0,0:0:0:0:
93,15,61146,2,0,B|184:31|184:31|205:51,1,121.000003692627,8|8,1:3|1:3,0:0:0:0:
245,104,61763,1,8,0:3:0:0:
245,104,61968,2,0,P|242:164|268:218,1,121.000003692627,4|0,1:3|1:0,0:0:0:0:
383,257,62790,1,0,1:0:0:0:
475,180,63201,1,0,1:0:0:0:
361,139,63612,5,4,1:3:0:0:
267,217,64023,2,0,L|207:227,1,60.5000018463135,0|0,1:0|0:0,0:0:0:0:
189,285,64434,2,0,P|205:329|205:375,2,90.7500027694703,0|0|0,1:0|0:0|0:0,0:0:0:0:
152,237,65256,1,4,1:3:0:0:
198,125,65667,2,0,P|228:123|256:132,1,60.5000018463135,0|0,1:0|0:0,0:0:0:0:
309,161,66078,2,0,P|339:162|367:153,1,60.5000018463135,0|0,1:0|0:0,0:0:0:0:
418,120,66489,1,0,1:0:0:0:
510,198,66900,6,0,L|488:322,1,121.000003692627,4|0,1:3|1:0,0:0:0:0:
370,342,67722,2,0,L|385:253,2,90.7500027694703,12|8|8,1:3|0:0|0:0,0:0:0:0:
313,321,68543,2,0,B|253:316|253:316|197:342,1,121.000003692627,4|0,1:3|1:0,0:0:0:0:
81,308,69365,2,0,P|55:253|58:194,1,121.000003692627,4|0,1:3|1:0,0:0:0:0:
109,84,70187,5,4,1:3:0:0:
224,119,70598,1,0,1:0:0:0:
328,57,71009,2,0,P|387:54|441:80,1,121.000003692627,4|0,1:3|1:0,0:0:0:0:
479,127,71626,1,0,0:0:0:0:
479,127,71831,2,0,L|457:251,1,121.000003692627,4|0,1:3|1:0,0:0:0:0:
503,358,72653,2,0,P|475:367|445:366,1,60.5000018463135,4|0,1:3|0:0,0:0:0:0:
388,345,73064,1,0,1:0:0:0:
338,234,73475,6,0,B|354:143|354:143|342:116,1,121.000003692627,4|0,1:3|0:0,0:0:0:0:
254,33,74297,2,0,L|130:55,1,121.000003692627,8|0,0:2|0:0,0:0:0:0:
123,116,74913,1,0,1:0:0:0:
123,116,75119,2,0,P|139:160|139:206,2,90.7500027694703,4|0|0,1:3|1:0|1:0,0:0:0:0:
78,75,75941,1,8,0:2:0:0:
20,181,76352,1,0,0:0:0:0:
139,203,76763,6,0,L|228:188,2,90.7500027694703,4|0|0,1:3|0:0|1:0,0:0:0:0:
89,237,77585,2,0,L|0:222,2,90.7500027694703,8|0|0,0:2|0:0|1:0,0:0:0:0:
143,264,78406,1,4,1:3:0:0:
216,360,78817,1,0,0:0:0:0:
318,296,79228,2,0,P|328:267|327:237,1,60.5000018463135,8|0,0:2|1:0,0:0:0:0:
306,180,79639,1,0,0:0:0:0:
356,70,80050,6,0,L|465:79,1,110,0|0,1:0|0:0,0:0:0:0:
507,123,80667,1,0,1:0:0:0:
507,123,80872,2,0,P|511:177|496:230,1,110,8|0,0:2|0:0,0:0:0:0:
399,281,81694,2,0,L|391:198,2,82.5,0|0|0,1:0|1:0|1:0,0:0:0:0:
376,331,82516,1,12,0:2:0:0:
303,123,83338,6,0,P|248:118|195:133,1,110,0|0,1:0|0:0,0:0:0:0:
155,170,83954,1,0,1:0:0:0:
155,170,84160,2,0,L|145:279,1,110,8|0,0:2|0:0,0:0:0:0:
54,342,84982,2,0,P|39:303|36:262,2,82.5,0|0|0,1:0|1:0|1:0,0:0:0:0:
96,376,85804,1,12,0:2:0:0:
256,192,86626,12,0,89502,0:0:0:0:
