osu file format v14

[General]
AudioFilename: audio.mp3
AudioLeadIn: 0
PreviewTime: 40495
Countdown: 0
SampleSet: None
StackLeniency: 0.4
Mode: 0
LetterboxInBreaks: 0
WidescreenStoryboard: 1

[Editor]
DistanceSpacing: 1
BeatDivisor: 6
GridSize: 8
TimelineZoom: 2

[Metadata]
Title:NAVIGATOR (TV Size)
TitleUnicode:NAVIGATOR (TV Size)
Artist:SixTONES
ArtistUnicode:SixTONES
Creator:Yahuri
Version:HARD
Source:富豪刑事 Balance:UNLIMITED
Tags:six tones the millionaire detective fugou keiji balance unlimited fugō 神戸大助 kambe daisuke 加藤 春 kato haru japanese anime pop jpop alternator stones ストーンズ Sutōnzu sutoonzu male vocalist vocals 高地 優吾 Yugo Kochi 京本大我 京本 大我 Taiga Kyomoto 田中 樹 田中樹 Juri Tanaka 松村 北斗 松村北斗 Hokuto Matsumura Lewis Masaya Jesse ルイス・まさや・ジェシー ルイス まさや ジェシー Shintaro Morimoto 森本慎太郎 森本 慎太郎
BeatmapID:2635561
BeatmapSetID:1268188

[Difficulty]
HPDrainRate:4.5
CircleSize:3.5
OverallDifficulty:5.5
ApproachRate:7
SliderMultiplier:1.6
SliderTickRate:1

[Events]
//Background and Video events
0,0,"bg.jpg",0,0
//Break Periods
//Storyboard Layer 0 (Background)
//Storyboard Layer 1 (Fail)
//Storyboard Layer 2 (Pass)
//Storyboard Layer 3 (Foreground)
//Storyboard Layer 4 (Overlay)
//Storyboard Sound Samples

[TimingPoints]
325,410.958904109589,4,2,1,30,1,0
325,-125,4,2,1,30,0,0
3544,-125,4,2,1,15,0,0
3612,-125,4,2,1,30,0,0
7722,410.958904109589,4,3,1,60,1,0
7722,-90.9090909090909,4,3,1,60,0,0
10188,-90.9090909090909,4,3,1,60,0,0
10941,-90.9090909090909,4,3,1,15,0,0
11010,-90.9090909090909,4,3,1,60,0,0
14297,-100,4,1,2,50,0,0
27449,-125,4,2,1,40,0,0
34024,-125,4,2,1,50,0,0
40598,-90.9090909090909,4,3,1,60,0,1
46763,-76.9230769230769,4,3,1,60,0,1
47037,-76.9230769230769,4,3,1,5,0,1
47174,-90.9090909090909,4,3,1,60,0,1
53235,-90.9090909090909,4,3,1,30,0,1
53338,-90.9090909090909,4,3,1,60,0,0
53749,-90.9090909090909,4,3,1,60,0,1
67619,-90.9090909090909,4,3,1,30,0,1
67723,-90.9090909090909,4,3,3,60,0,1
67825,-90.9090909090909,4,3,1,60,0,1
68852,-90.9090909090909,4,3,1,30,0,1
68954,-90.9090909090909,4,3,1,60,0,1
69366,-90.9090909090909,4,3,3,60,0,1
69469,-90.9090909090909,4,3,1,60,0,1
71010,-90.9090909090909,4,3,3,60,0,1
71113,-90.9090909090909,4,3,1,60,0,1
72654,-90.9090909090909,4,3,3,60,0,1
72757,-90.9090909090909,4,3,1,60,0,1
75324,-90.9090909090909,4,3,1,30,0,1
75427,-90.9090909090909,4,3,1,60,0,1
75632,-90.9090909090909,4,3,1,30,0,1
75735,-90.9090909090909,4,3,1,60,0,1
80050,-100,4,3,1,60,0,0
80462,-100,4,3,1,40,0,0
86627,-100,4,3,1,10,0,0
87449,-100,4,3,1,15,0,0
88270,-100,4,3,1,20,0,0
89092,-100,4,3,1,30,0,0
89195,-100,4,3,1,35,0,0
89298,-100,4,3,1,40,0,0
89401,-100,4,3,1,55,0,0
89503,-100,4,3,1,40,0,0

[Colours]
Combo1 : 106,106,106
Combo2 : 191,191,191

[HitObjects]
309,30,325,5,2,0:0:0:0:
331,155,735,1,0,0:0:0:0:
406,51,1146,5,0,0:0:0:0:
362,169,1557,1,0,0:0:0:0:
478,117,1968,5,0,0:0:0:0:
381,198,2379,1,0,0:0:0:0:
300,101,2790,2,0,B|255:80|207:103|207:103|177:92|177:92|134:124|71:120,1,234.666666666667
62,136,3612,5,2,0:0:0:0:
159,218,4023,1,0,0:0:0:0:
31,231,4434,5,0,0:0:0:0:
155,252,4845,1,0,0:0:0:0:
52,326,5256,5,0,0:0:0:0:
171,283,5667,1,0,0:0:0:0:
281,348,6078,2,0,B|326:369|374:346|374:346|430:385|476:331|451:275|405:275,1,256
256,75,7722,6,0,B|140:54|140:54|87:78,1,176.000005371094,4|4,0:0|0:0,0:0:0:0:
15,131,8338,1,0,0:0:0:0:
63,204,8543,2,0,L|38:340,2,132.00000402832,4|4|4,0:0|0:0|0:0,0:0:0:0:
136,155,9365,2,0,P|218:152|304:183,1,176.000005371094,4|4,0:0|0:0,0:0:0:0:
305,183,10187,6,0,P|316:302|403:202,1,322.666676513672,4|0,0:0|0:0,0:0:0:0:
422,180,11009,6,0,B|443:64|443:64|419:11,1,176.000005371094,4|4,0:0|0:0,0:0:0:0:
336,44,11626,1,0,0:0:0:0:
252,77,11831,2,0,P|186:75|116:49,2,132.00000402832,4|4|4,0:0|0:0|0:0,0:0:0:0:
323,132,12653,2,0,L|292:311,1,176.000005371094,4|4,0:0|0:0,0:0:0:0:
293,305,13475,5,4,0:0:0:0:
205,313,13680,2,0,L|212:269,2,44.0000013427735
125,350,14091,1,0,0:0:0:0:
122,328,14194,1,0,0:0:0:0:
118,306,14297,6,0,L|103:225,1,80,4|0,0:3|0:0,0:0:0:0:
52,165,14708,1,8,0:0:0:0:
52,165,14913,1,0,0:0:0:0:
131,151,15119,2,0,L|249:130,2,120,8|8|8,0:0|0:0|0:0,0:0:0:0:
79,90,15941,6,0,P|76:50|91:14,1,80,8|0,0:0|0:0,0:0:0:0:
154,63,16352,2,0,P|190:39|234:37,1,80,8|0,0:0|0:0,0:0:0:0:
270,103,16763,2,0,L|350:88,1,80,8|0,0:0|0:0,0:0:0:0:
426,107,17174,2,0,L|397:266,1,160,0|4,0:0|0:3,0:0:0:0:
359,334,17790,5,0,0:0:0:0:
359,334,17995,2,0,P|322:349|282:346,1,80,8|0,0:0|0:0,0:0:0:0:
213,306,18406,2,0,L|234:188,2,120,8|8|8,0:0|0:0|0:0,0:0:0:0:
150,355,19228,2,0,P|67:360|-12:319,1,160,8|8,0:0|0:0,0:0:0:0:
28,171,20050,2,0,P|110:165|190:206,1,160,8|0,0:0|0:0,0:0:0:0:
280,320,20872,6,0,L|294:241,1,80,4|0,0:3|0:0,0:0:0:0:
331,172,21283,1,8,0:0:0:0:
331,172,21489,1,0,0:0:0:0:
374,238,21694,2,0,P|430:258|489:257,2,120,8|8|8,0:0|0:0|0:0,0:0:0:0:
331,172,22516,6,0,L|346:92,1,80,8|0,0:0|0:0,0:0:0:0:
307,22,22927,2,0,P|267:18|230:34,1,80,8|0,0:0|0:0,0:0:0:0:
180,97,23338,1,8,0:0:0:0:
180,97,23543,1,0,0:0:0:0:
127,160,23749,2,0,P|88:163|51:147,1,80
3,211,24160,6,0,P|75:243|154:236,1,160,4|8,0:3|0:0,0:0:0:0:
289,149,24982,2,0,L|268:267,2,120,8|8|8,0:0|0:0|0:0,0:0:0:0:
330,80,25804,6,0,P|408:72|481:104,1,160,8|8,0:0|0:0,0:0:0:0:
511,262,26626,2,0,P|432:269|359:237,1,160,8|0,0:0|0:0,0:0:0:0:
330,80,27448,5,4,0:0:0:0:
330,80,27858,2,0,L|186:67,2,128
353,193,29091,2,0,L|289:187,1,64
233,203,29502,2,0,L|169:197,1,64
113,213,29913,2,0,P|96:278|102:341,1,128
214,313,30735,6,0,L|208:377,2,64,2|0|0,0:0|0:0|0:0,0:0:0:0:
264,284,31352,2,0,L|258:348,2,64,2|0|0,0:0|0:0|0:0,0:0:0:0:
314,255,31968,1,2,0:0:0:0:
314,255,32174,1,0,0:0:0:0:
364,225,32379,2,0,P|371:195|368:163,1,64
409,123,32790,2,0,P|416:89|413:60,1,64
364,30,33201,2,0,P|300:34|239:18,1,128
127,52,34023,5,0,1:0:0:0:
127,52,34434,2,0,L|121:123,1,64,8|0,1:2|0:0,0:0:0:0:
95,167,34845,2,0,L|105:286,2,96,0|8|8,1:0|0:0|0:0,0:0:0:0:
122,115,35667,2,0,P|153:108|184:110,1,64,0|0,1:0|0:0,0:0:0:0:
235,137,36078,1,8,1:2:0:0:
235,137,36283,1,0,0:0:0:0:
281,102,36489,2,0,L|272:6,2,96,0|8|8,1:0|0:0|0:0,0:0:0:0:
324,140,37311,6,0,P|334:183|328:238,1,96
345,258,37722,2,0,P|312:288|262:311,1,96
253,335,38132,2,0,P|209:321|165:289,1,96
140,293,38543,2,0,P|129:249|135:194,1,96
119,174,38954,2,0,P|151:143|201:120,1,96
211,96,39365,1,0,0:0:0:0:
302,166,39776,6,0,P|323:115|309:37,1,128,8|8,0:3|0:3,0:0:0:0:
313,44,40598,6,0,B|429:23|429:23|480:49,1,176.000005371094,4|0,1:3|1:0,0:0:0:0:
408,161,41317,1,0,0:0:0:0:
408,161,41420,2,0,L|432:298,1,132.00000402832,4|0,1:3|1:0,0:0:0:0:
405,326,41831,1,8,0:3:0:0:
317,320,42037,1,0,1:0:0:0:
239,360,42242,6,0,P|173:361|112:338,1,132.00000402832,4|0,1:3|0:0,0:0:0:0:
77,311,42653,2,0,L|62:224,1,88.000002685547,0|0,1:0|0:0,0:0:0:0:
48,138,43064,2,0,P|91:138|132:123,1,88.000002685547,4|0,1:3|0:0,0:0:0:0:
164,40,43475,1,8,0:3:0:0:
250,25,43680,1,0,0:0:0:0:
308,92,43886,6,0,B|318:151|318:151|302:207|302:207|313:266,1,176.000005371094,4|0,1:3|1:0,0:0:0:0:
391,305,44502,1,0,0:0:0:0:
473,338,44708,2,0,L|488:251,1,88.000002685547,4|0,1:3|0:0,0:0:0:0:
491,229,45016,1,0,1:0:0:0:
495,207,45119,1,8,0:3:0:0:
453,130,45324,1,0,1:0:0:0:
374,170,45530,6,0,L|237:146,1,132.00000402832,4|0,1:3|0:0,0:0:0:0:
201,158,45941,2,0,P|201:114|186:73,1,88.000002685547,0|0,1:0|0:0,0:0:0:0:
99,88,46352,2,0,L|109:30,2,58.6666684570313,8|8|8,0:3|0:3|0:3,0:0:0:0:
61,129,46763,6,0,L|35:270,1,138.666660319011,8|0,0:3|0:0,0:0:0:0:
25,326,47174,6,0,B|72:290|72:290|129:280|129:280|184:297,1,176.000005371094,4|0,1:3|1:0,0:0:0:0:
315,342,47893,1,0,0:0:0:0:
315,342,47995,2,0,P|313:276|336:215,1,132.00000402832,4|0,1:3|1:0,0:0:0:0:
363,180,48406,1,8,0:3:0:0:
348,94,48612,1,0,1:0:0:0:
280,38,48817,6,0,L|143:62,1,132.00000402832,4|0,1:3|0:0,0:0:0:0:
108,45,49228,2,0,L|93:132,1,88.000002685547,0|0,1:0|0:0,0:0:0:0:
78,217,49639,1,4,1:3:0:0:
164,232,49845,1,0,0:0:0:0:
243,195,50050,2,0,P|286:195|327:210,1,88.000002685547,8|0,0:3|0:0,0:0:0:0:
413,195,50461,6,0,B|403:254|403:254|419:310|419:310|408:369,1,176.000005371094,4|0,1:3|1:0,0:0:0:0:
322,346,51078,1,0,0:0:0:0:
238,321,51283,2,0,L|151:336,1,88.000002685547,4|0,1:3|0:0,0:0:0:0:
129,339,51591,1,0,1:0:0:0:
107,343,51694,1,8,0:3:0:0:
35,290,51900,1,0,1:0:0:0:
56,204,52105,6,0,P|58:138|35:77,1,132.00000402832,4|0,1:3|0:0,0:0:0:0:
53,37,52516,2,0,L|140:52,1,88.000002685547,0|0,1:0|0:0,0:0:0:0:
213,101,52927,2,0,P|279:103|340:80,1,132.00000402832,4|0,1:3|0:0,0:0:0:0:
367,45,53338,2,0,L|359:1,3,44.0000013427735
384,86,53749,6,0,B|331:165|402:178|353:252,1,176.000005371094,4|0,1:3|1:0,0:0:0:0:
200,339,54571,1,8,0:3:0:0:
200,339,54674,2,0,L|287:354,1,88.000002685547,8|8,0:3|0:3,0:0:0:0:
328,339,54982,2,0,L|415:354,1,88.000002685547,8|8,0:3|0:3,0:0:0:0:
493,314,55393,6,0,P|502:223|460:149,1,176.000005371094,4|0,1:3|1:0,0:0:0:0:
311,59,56215,2,0,P|311:102|296:143,1,88.000002685547,0|0,1:0|0:0,0:0:0:0:
213,175,56626,2,0,P|213:131|198:90,1,88.000002685547,0|0,1:0|0:0,0:0:0:0:
116,59,57037,5,4,1:3:0:0:
116,59,57448,2,0,L|101:146,1,88.000002685547,0|0,0:0|1:0,0:0:0:0:
33,202,57858,2,0,L|55:332,1,132.00000402832,8|0,0:2|0:0,0:0:0:0:
88,360,58269,1,0,0:0:0:0:
138,287,58475,1,0,1:0:0:0:
160,291,58578,1,0,0:0:0:0:
182,294,58680,6,0,L|269:309,1,88.000002685547,4|0,1:3|0:0,0:0:0:0:
305,284,58989,2,0,L|392:299,1,88.000002685547,0|0,1:0|0:0,0:0:0:0:
428,274,59297,1,0,1:0:0:0:
412,187,59502,1,8,0:2:0:0:
454,109,59708,1,0,1:0:0:0:
438,22,59913,2,0,L|482:14,3,44.0000013427735
398,40,60324,6,0,B|305:62|317:-8|231:12,1,176.000005371094,4|0,1:3|1:0,0:0:0:0:
63,68,61146,1,8,0:3:0:0:
63,68,61249,2,0,P|47:109|47:152,1,88.000002685547,8|8,0:3|0:3,0:0:0:0:
71,189,61557,2,0,P|86:230|86:273,1,88.000002685547,8|8,0:3|0:3,0:0:0:0:
122,354,61968,6,0,P|198:313|284:323,1,176.000005371094,4|0,1:3|1:0,0:0:0:0:
452,377,62790,2,0,P|467:335|467:292,1,88.000002685547,0|0,1:0|0:0,0:0:0:0:
432,211,63201,2,0,P|416:170|415:126,1,88.000002685547,0|0,1:0|0:0,0:0:0:0:
443,42,63612,6,0,L|356:57,1,88.000002685547,4|0,1:3|0:0,0:0:0:0:
276,95,64023,2,0,L|189:80,1,88.000002685547,0|0,1:0|0:0,0:0:0:0:
109,43,64434,2,0,L|87:173,1,132.00000402832,0|0,1:0|0:0,0:0:0:0:
63,210,64845,1,0,1:0:0:0:
126,271,65050,1,0,0:0:0:0:
145,282,65153,1,0,0:0:0:0:
164,293,65256,6,0,P|204:307|248:307,1,88.000002685547,4|0,1:3|0:0,0:0:0:0:
316,250,65667,1,0,1:0:0:0:
331,163,65872,1,0,0:0:0:0:
289,85,66078,2,0,P|247:69|204:69,1,88.000002685547,0|0,1:0|0:0,0:0:0:0:
116,76,66489,2,0,L|124:32,3,44.0000013427735,0|0|0|0,1:0|0:0|0:0|0:0,0:0:0:0:
92,112,66900,6,0,L|107:199,1,88.000002685547,4|0,1:3|0:0,0:0:0:0:
79,285,67311,1,0,1:0:0:0:
79,285,67413,2,0,P|122:284|163:268,1,88.000002685547
191,234,67722,2,0,P|256:231|317:254,1,132.00000402832,12|8,1:3|0:0,0:0:0:0:
345,289,68132,1,0,1:0:0:0:
361,376,68338,1,8,0:3:0:0:
283,347,68543,5,4,1:3:0:0:
283,347,68646,2,0,P|239:347|198:363,1,88.000002685547
156,349,68954,1,0,1:0:0:0:
87,293,69160,1,0,0:0:0:0:
91,271,69263,1,0,0:0:0:0:
94,249,69365,2,0,L|79:162,1,88.000002685547,4|0,1:3|0:0,0:0:0:0:
116,82,69776,2,0,L|108:38,3,44.0000013427735,0|0|0|0,1:0|0:0|0:0|0:0,0:0:0:0:
154,102,70187,6,0,L|241:117,1,88.000002685547,4|0,1:3|0:0,0:0:0:0:
276,90,70495,2,0,L|363:105,1,88.000002685547
398,78,70804,1,0,0:0:0:0:
469,128,71009,2,0,B|490:244|490:244|464:295,1,176.000005371094,4|0,1:3|1:0,0:0:0:0:
379,266,71626,1,0,0:0:0:0:
357,270,71728,1,0,0:0:0:0:
335,273,71831,6,0,L|248:258,1,88.000002685547,4|0,1:3|0:0,0:0:0:0:
191,190,72242,1,0,1:0:0:0:
206,103,72448,1,0,0:0:0:0:
148,35,72653,2,0,P|105:35|64:50,1,88.000002685547,4|0,1:3|0:0,0:0:0:0:
22,130,73064,2,0,L|66:138,3,44.0000013427735,0|0|0|0,1:0|0:0|0:0|0:0,0:0:0:0:
0,168,73475,5,4,1:3:0:0:
23,252,73680,2,0,L|15:296,2,44.0000013427735
109,237,74091,1,0,1:0:0:0:
131,233,74194,1,0,0:0:0:0:
153,230,74297,1,8,0:2:0:0:
239,215,74502,2,0,L|247:171,2,44.0000013427735
224,301,74913,1,0,1:0:0:0:
220,323,75016,1,0,0:0:0:0:
217,345,75119,6,0,P|257:360|301:360,1,88.000002685547,4|0,1:3|0:0,0:0:0:0:
344,371,75427,2,0,P|378:343|399:305,1,88.000002685547,0|0,1:0|0:0,0:0:0:0:
430,274,75735,1,0,1:0:0:0:
414,186,75941,1,8,0:2:0:0:
358,118,76146,2,0,P|398:102|442:102,2,88.000002685547,0|0|0,1:0|0:0|0:0,0:0:0:0:
289,174,76763,6,0,P|227:150|162:153,1,132.00000402832,4|0,1:3|0:0,0:0:0:0:
119,277,77379,1,0,1:0:0:0:
201,307,77585,2,0,P|266:309|327:286,1,132.00000402832,8|0,0:2|0:0,0:0:0:0:
459,315,78201,1,0,1:0:0:0:
463,293,78304,1,0,0:0:0:0:
466,271,78406,6,0,L|451:184,1,88.000002685547,4|0,1:3|0:0,0:0:0:0:
478,149,78715,2,0,L|395:118,1,88.000002685547,0|0,1:0|0:0,0:0:0:0:
378,77,79023,1,0,1:0:0:0:
291,92,79228,1,8,0:2:0:0:
218,42,79434,1,0,1:0:0:0:
131,57,79639,2,0,L|87:49,3,44.0000013427735
146,93,80050,5,0,1:0:0:0:
146,93,80667,1,0,1:0:0:0:
132,171,80872,1,8,0:2:0:0:
180,311,81489,5,0,1:0:0:0:
180,311,81694,2,0,P|241:311|298:333,2,120,0|0|0,1:0|1:0|1:0,0:0:0:0:
109,349,82516,1,12,1:2:0:0:
366,291,83338,5,0,1:0:0:0:
366,291,83954,1,0,1:0:0:0:
380,213,84160,1,8,0:2:0:0:
332,73,84776,5,0,1:0:0:0:
332,73,84982,2,0,P|271:73|214:51,2,120,0|0|0,1:0|1:0|1:0,0:0:0:0:
403,35,85804,1,12,1:2:0:0:
256,192,86626,12,0,89502,0:0:0:0:
