osu file format v14

[General]
AudioFilename: audio.mp3
AudioLeadIn: 0
PreviewTime: 60147
Countdown: 0
SampleSet: Soft
StackLeniency: 0.7
Mode: 0
LetterboxInBreaks: 0
WidescreenStoryboard: 0

[Editor]
Bookmarks: 53463,97510
DistanceSpacing: 1
BeatDivisor: 8
GridSize: 32
TimelineZoom: 1.4

[Metadata]
Title:Topoviy Lut (feat. Maemiza)
TitleUnicode:Топовый лут (feat. Maemiza)
Artist:Six Stones
ArtistUnicode:Six Stones
Creator:3mplify
Version:Insane: Kar98k
Source:
Tags:BevzProDota koda unappreciative harepascals Azzedd LunchMoney Lewis Bills PlayerUnknown's Battlegrounds PUBG Шесть Камней Russian cut short rap hip hop haus soul jazz
BeatmapID:1674547
BeatmapSetID:797340

[Difficulty]
HPDrainRate:6.5
CircleSize:5
OverallDifficulty:8
ApproachRate:8.2
SliderMultiplier:1.4
SliderTickRate:1

[Events]
//Background and Video events
0,0,"Anime-Original-Anime-Art-Anime-PUBG-4236639.jpg",0,0
//Break Periods
//Storyboard Layer 0 (Background)
//Storyboard Layer 1 (Fail)
//Storyboard Layer 2 (Pass)
//Storyboard Layer 3 (Foreground)
//Storyboard Layer 4 (Overlay)
//Storyboard Sound Samples

[TimingPoints]
386,476.190476190476,4,2,1,100,1,0
13719,-100,4,2,1,60,0,0
15624,-133.333333333333,4,2,1,30,0,0
28957,-100,4,2,1,80,0,0
29433,-100,4,2,1,5,0,0
30862,-100,4,2,1,40,0,0
46100,-133.333333333333,4,2,1,50,0,0
53719,-133.333333333333,4,2,1,55,0,0
59433,-100,4,2,1,60,0,0
60385,-100,4,2,1,80,0,0
61338,-80,4,2,1,70,0,1
76576,-75.187969924812,4,2,1,70,0,1
89909,-100,4,2,1,60,0,1
91814,-133.333333333333,4,2,1,50,0,0
93719,-133.333333333333,4,2,1,40,0,0
95624,-133.333333333333,4,2,1,30,0,0
97528,-133.333333333333,4,2,1,25,0,0
98481,-133.333333333333,4,2,1,20,0,0
98957,-133.333333333333,4,2,1,15,0,0
99195,-133.333333333333,4,2,1,10,0,0

[Colours]
Combo1 : 255,185,105
Combo2 : 77,178,255
Combo3 : 231,176,255
Combo4 : 196,102,55

[HitObjects]
256,192,8005,12,0,13243,0:0:0:0:
106,149,13719,6,0,L|106:72,1,70,4|0,0:3|0:0,0:0:0:0:
180,206,14195,2,0,L|180:283,1,70,4|0,0:3|0:0,0:0:0:0:
192,113,14671,2,0,P|223:86|265:80,1,70,6|0,0:3|0:0,0:0:0:0:
324,136,15147,2,0,P|293:163|251:169,1,70,6|0,0:3|0:0,0:0:0:70:Onii-Chan.wav
337,46,15624,6,0,P|379:52|416:46,1,78.7500030040742,2|0,0:3|0:0,0:0:0:0:
449,34,16100,2,0,P|442:76|448:113,1,78.7500030040742,2|0,0:3|0:0,0:0:0:0:
461,146,16576,1,2,0:3:0:0:
449,258,16814,5,2,0:3:0:0:
463,279,16933,1,2,0:3:0:0:
477,301,17052,1,2,0:3:0:0:
337,246,17290,1,2,0:3:0:0:
236,298,17528,2,0,P|204:301|176:296,1,52.5000020027161,2|0,0:3|0:0,0:0:0:0:
18,349,18005,6,0,P|50:346|78:351,1,52.5000020027161,2|0,0:3|0:0,0:0:0:0:
146,274,18481,1,2,0:3:0:0:
95,168,18719,1,2,0:3:0:0:
84,146,18838,1,2,0:3:0:0:
76,123,18957,2,0,P|104:102|115:84,1,52.5000020027161,2|2,0:3|0:3,0:0:0:0:
211,182,19433,2,0,P|183:161|172:143,1,52.5000020027161,2|2,0:3|0:3,0:0:0:0:
194,64,19909,5,2,0:3:0:0:
294,124,20147,1,2,0:3:0:0:
297,7,20385,1,2,0:3:0:0:
397,69,20624,1,2,0:3:0:0:
420,56,20743,1,2,0:3:0:0:
443,44,20862,2,0,P|473:49|500:44,1,52.5000020027161,2|0,0:3|0:0,0:0:0:0:
470,140,21338,5,2,0:3:0:0:
387,225,21576,1,0,0:0:0:0:
384,141,21814,1,0,0:0:0:0:
392,310,22052,1,0,0:0:0:0:
310,185,22290,5,0,0:0:0:0:
464,262,22528,1,2,0:3:0:0:
311,271,22766,1,2,0:3:0:0:
470,140,23005,1,2,0:3:0:0:
308,98,23243,6,0,P|264:103|221:98,1,78.7500030040742,2|0,0:3|0:0,0:0:0:0:
198,123,23719,2,0,P|193:167|198:210,1,78.7500030040742,2|0,0:3|0:0,0:0:0:0:
170,230,24195,1,2,0:3:0:0:
43,166,24433,5,2,0:3:0:0:
69,165,24552,1,2,0:3:0:0:
95,164,24671,1,2,0:3:0:0:
52,308,24909,1,2,0:3:0:0:
179,371,25147,2,0,P|205:373|231:370,1,52.5000020027161,2|0,0:3|0:0,0:0:0:0:
325,223,25624,6,0,P|321:257|330:293,1,52.5000020027161,2|0,0:3|0:0,0:0:0:0:
320,373,26100,1,2,0:3:0:0:
208,285,26338,1,2,0:3:0:0:
207,259,26457,1,2,0:3:0:0:
206,233,26576,2,0,P|176:229|145:237,1,52.5000020027161,2|2,0:3|0:3,0:0:0:0:
267,177,27052,2,0,P|297:181|328:173,1,52.5000020027161,2|2,0:3|0:3,0:0:0:0:
400,62,27528,5,2,0:3:0:0:
443,185,27766,1,2,0:3:0:0:
288,91,28005,2,0,P|258:87|227:95,1,52.5000020027161,2|2,0:3|0:3,0:0:0:0:
211,82,28362,1,2,0:3:0:0:
186,73,28481,1,2,0:3:0:0:
108,207,28719,1,2,0:3:0:0:
30,72,28957,6,0,B|58:71|94:46|94:46|85:89|103:119,1,140,2|0,0:3|0:3,0:0:0:0:
91,192,30862,6,0,B|127:204|127:204|156:192,1,70,0|2,3:0|0:3,0:0:0:0:
249,237,31338,1,2,3:3:0:0:
177,98,31576,1,2,0:3:0:0:
269,142,31814,2,0,B|304:131|304:131|336:145,2,70,2|2|2,3:0|0:3|3:0,0:0:0:0:
342,70,32528,1,2,0:3:0:0:
353,217,32766,6,0,P|388:204|411:174,1,70,2|2,3:0|0:3,0:0:0:0:
287,273,33243,2,0,P|280:309|295:344,1,70,2|2,3:0|0:3,0:0:0:0:
429,332,33719,2,0,P|400:308|362:303,1,70,2|0,3:0|0:3,0:0:0:0:
272,188,34195,1,0,3:0:0:0:
187,309,34433,1,0,0:0:0:0:
103,209,34671,6,0,B|138:197|138:197|168:208,1,70,0|2,3:0|0:3,0:0:0:0:
40,140,35147,1,2,3:0:0:0:
40,278,35385,1,2,0:3:0:0:
132,120,35624,2,0,B|143:85|143:85|131:54,2,70,2|2|2,3:0|0:3|3:0,0:0:0:0:
223,34,36337,1,2,0:3:0:0:
260,161,36576,6,0,P|295:163|329:152,1,70,2|2,3:0|0:3,0:0:0:0:
448,125,37052,2,0,P|427:154|420:189,1,70,2|0,3:0|0:0,0:0:0:0:
383,305,37528,2,0,P|366:272|339:249,1,70,0|0,3:0|0:0,0:0:0:0:
285,88,38005,1,2,3:0:0:0:
203,217,38243,1,0,0:0:0:0:
123,122,38481,6,0,B|158:133|158:133|188:122,1,70,2|2,3:0|0:3,0:0:0:0:
156,39,38957,1,10,3:0:0:0:
317,171,39195,1,2,0:3:0:0:
350,88,39433,2,0,B|314:76|314:76|284:87,1,70,2|2,3:0|0:3,0:0:0:0:
404,163,39909,1,10,3:0:0:0:
316,1,40147,1,2,0:3:0:0:
214,141,40385,6,0,P|192:169|161:187,1,70,2|0,3:0|0:0,0:0:0:0:
63,258,40862,2,0,P|98:261|129:279,1,70,10|0,3:0|0:0,0:0:0:0:
241,327,41337,2,0,P|226:293|227:257,1,70,2|0,3:0|0:0,0:0:0:0:
317,270,41814,1,8,3:0:0:0:
177,379,42052,1,0,0:0:0:0:
155,203,42290,6,0,B|178:232|178:232|210:237,1,70,0|2,3:0|0:3,0:0:0:0:
221,154,42766,1,10,3:0:0:0:
134,297,43005,1,0,0:0:0:0:
301,300,43243,2,0,B|336:288|336:288|367:299,1,70,2|2,3:0|0:3,0:0:0:0:
436,190,43719,1,10,3:0:0:0:
464,361,43956,1,2,0:3:0:0:
332,212,44195,6,0,B|328:172|328:172|341:143,1,70,2|2,3:0|0:3,0:0:0:0:
351,119,44552,1,2,0:3:0:0:
364,94,44671,1,10,3:0:0:0:
256,34,44909,1,2,0:3:0:0:
148,94,45147,1,2,3:0:0:0:
161,119,45265,1,2,0:3:0:0:
172,145,45385,2,0,B|185:177|185:177|180:212,1,70,2|10,0:3|3:0,0:0:0:0:
328,328,46100,5,2,0:3:0:0:
197,325,46338,1,2,0:3:0:0:
197,325,46457,1,2,0:3:0:0:
197,325,46576,2,0,P|203:354|196:384,1,52.5000020027161,10|0,0:3|0:0,0:0:0:0:
115,351,47052,2,0,P|86:341|64:320,1,52.5000020027161,2|0,0:3|0:0,0:0:0:0:
133,266,47528,2,0,P|155:246|184:237,1,52.5000020027161,10|2,0:3|0:3,0:0:0:0:
112,180,48005,5,2,0:3:0:0:
119,149,48124,1,0,0:0:0:0:
117,116,48243,1,2,0:3:0:0:
101,87,48362,1,0,0:0:0:0:
76,67,48481,1,10,0:3:0:0:
219,132,48719,1,2,0:3:0:0:
351,55,48957,2,0,P|324:58|295:55,1,52.5000020027161,2|2,0:3|0:3,0:0:0:0:
430,131,49433,2,0,P|456:133|482:130,1,52.5000020027161,10|0,0:3|0:0,0:0:0:0:
294,172,49909,5,2,0:3:0:0:
288,299,50147,1,2,0:3:0:0:
288,299,50266,1,2,0:3:0:0:
288,299,50385,2,0,P|260:293|231:299,1,52.5000020027161,10|0,0:3|0:0,0:0:0:0:
118,257,50862,2,0,P|146:251|175:257,1,52.5000020027161,2|0,0:3|0:0,0:0:0:0:
283,203,51338,2,0,P|255:197|226:203,1,52.5000020027161,10|2,0:3|0:3,0:0:0:0:
120,125,51814,5,2,0:3:0:0:
151,133,51933,1,0,0:0:0:0:
183,125,52052,1,2,0:3:0:0:
215,117,52171,1,0,0:0:0:0:
246,125,52290,1,10,0:3:0:0:
360,35,52528,1,2,0:3:0:0:
377,175,52766,2,0,P|373:201|377:228,1,52.5000020027161,2|2,0:3|0:3,0:0:0:0:
316,350,53243,2,0,P|320:324|316:297,1,52.5000020027161,10|0,0:3|0:0,0:0:0:0:
238,197,53719,5,2,0:3:0:0:
200,308,53957,1,2,0:3:0:0:
200,308,54076,1,2,0:3:0:0:
200,308,54195,2,0,P|204:338|200:361,1,52.5000020027161,10|0,0:3|0:0,0:0:0:0:
63,337,54671,2,0,P|88:340|114:336,1,52.5000020027161,2|0,0:3|0:0,0:0:0:0:
85,199,55147,2,0,P|81:224|85:250,1,52.5000020027161,10|2,0:3|0:3,0:0:0:0:
63,113,55624,5,2,0:3:0:0:
94,116,55743,1,0,0:0:0:0:
126,108,55862,1,2,0:3:0:0:
152,88,55981,1,0,0:0:0:0:
167,59,56100,1,10,0:3:0:0:
254,173,56338,1,2,0:3:0:0:
341,59,56576,2,0,P|375:63|408:57,1,52.5000020027161,2|2,0:3|0:3,0:0:0:0:
502,138,57052,2,0,P|467:134|435:140,1,52.5000020027161,10|2,0:3|0:3,0:0:0:0:
388,284,57528,5,2,0:3:0:0:
245,356,57766,1,2,0:3:0:0:
245,356,57885,1,2,0:3:0:0:
245,356,58005,2,0,P|228:331|198:315,1,52.5000020027161,10|0,0:3|0:0,0:0:0:0:
118,330,58481,2,0,P|123:300|113:267,1,52.5000020027161,2|2,0:3|0:3,0:0:0:0:
46,221,58957,2,0,P|70:204|87:173,1,52.5000020027161,10|2,0:3|0:3,0:0:0:0:
192,95,59433,6,0,L|122:95,1,70,6|0,0:3|0:0,0:0:0:0:
231,185,59909,2,0,L|301:185,1,70,6|0,0:3|0:0,0:0:0:0:
408,95,60385,5,6,0:3:0:0:
123,275,60862,1,6,0:3:0:0:
455,217,61338,6,0,P|411:223|368:218,1,87.5,4|0,3:2|0:0,0:0:0:0:
426,306,61814,2,0,P|469:301|512:306,1,87.5,8|0,3:0|0:0,0:0:0:0:
484,130,62290,1,0,3:0:0:0:
320,312,62528,5,2,0:3:0:0:
320,312,62647,1,2,0:3:0:0:
320,312,62766,1,8,3:0:0:0:
400,98,63004,1,2,0:3:0:0:
400,98,63124,1,2,0:3:0:0:
400,98,63243,2,0,P|356:103|313:98,1,87.5,0|0,3:0|0:0,0:0:0:0:
162,200,63719,6,0,P|205:194|248:199,1,87.5,8|0,3:0|0:0,0:0:0:0:
207,104,64195,1,0,3:0:0:0:
207,296,64433,1,2,0:3:0:0:
207,296,64552,1,2,0:3:0:0:
207,296,64671,2,0,P|222:346|251:370,1,87.5,10|2,3:0|0:3,0:0:0:0:
324,335,65028,5,0,0:0:0:0:
324,335,65147,2,0,P|365:322|406:335,1,87.5,2|2,3:0|0:3,0:0:0:0:
512,200,65624,1,10,3:0:0:0:
487,384,65861,1,2,0:3:0:0:
386,186,66100,1,2,3:0:0:0:
324,335,66338,1,2,0:3:0:0:
324,335,66457,1,2,0:3:0:0:
324,335,66576,2,0,P|327:291|308:249,1,87.5,10|2,3:0|0:3,0:0:0:0:
114,150,67052,5,0,3:0:0:0:
195,359,67290,1,0,0:0:0:0:
212,119,67528,1,8,3:0:0:0:
84,332,67766,1,0,0:0:0:0:
70,57,68005,5,8,3:0:0:0:
174,253,68243,1,2,0:3:0:0:
169,21,68481,1,10,3:0:0:0:
57,229,68719,1,2,0:3:0:0:
198,129,68957,6,0,P|246:137|290:129,1,87.5,4|0,3:2|0:0,0:0:0:0:
447,205,69433,2,0,P|399:197|355:205,1,87.5,8|0,3:0|0:0,0:0:0:0:
402,113,69909,1,0,3:0:0:0:
403,293,70147,5,2,0:3:0:0:
403,293,70266,1,2,0:3:0:0:
403,293,70385,1,8,3:0:0:0:
218,212,70623,1,2,0:3:0:0:
218,212,70743,1,2,0:3:0:0:
218,212,70862,2,0,P|210:260|218:304,1,87.5,2|0,3:0|0:0,0:0:0:0:
45,231,71338,6,0,P|88:236|130:228,1,87.5,8|0,3:0|0:0,0:0:0:0:
87,342,71814,1,0,3:0:0:0:
87,120,72052,1,2,0:3:0:0:
87,120,72171,1,2,0:3:0:0:
86,120,72290,2,0,P|83:76|60:39,1,87.5,10|2,3:0|0:3,0:0:0:0:
160,47,72647,5,0,0:0:0:0:
160,47,72766,2,0,P|202:57|247:45,1,87.5,2|2,3:0|0:3,0:0:0:0:
365,184,73243,1,10,3:0:0:0:
385,11,73480,1,2,0:3:0:0:
233,150,73719,1,2,3:0:0:0:
465,90,73957,1,2,0:3:0:0:
465,90,74076,1,2,0:3:0:0:
465,90,74195,2,0,P|459:148|472:180,1,87.5,10|0,3:0|0:0,0:0:0:0:
495,325,74671,5,0,3:0:0:0:
223,268,74909,1,0,0:0:0:0:
409,265,75147,1,8,3:0:0:0:
164,339,75385,1,0,0:0:0:0:
382,368,75624,5,8,3:0:0:0:
76,261,75862,1,0,0:0:0:0:
318,301,76100,1,8,3:0:0:0:
54,357,76338,1,8,0:3:0:0:
256,231,76576,6,0,P|276:192|267:134,1,93.0999961643983,4|0,3:2|0:0,0:0:0:0:
110,163,77052,2,0,P|148:183|207:174,1,93.0999961643983,4|0,3:2|0:0,0:0:0:0:
358,159,77528,2,0,P|319:139|261:148,1,93.0999961643983,4|2,3:2|0:3,0:0:0:0:
225,145,77885,1,2,0:3:0:0:
225,145,78005,1,2,3:0:0:0:
372,26,78243,1,2,0:3:0:0:
302,223,78481,5,0,3:0:0:0:
288,262,78600,1,0,0:0:0:0:
259,292,78719,1,2,0:3:0:0:
218,302,78838,1,0,0:0:0:0:
176,300,78957,6,0,P|164:319|155:342,1,46.5499980821992,2|0,3:0|0:0,0:0:0:0:
72,229,79195,2,0,P|86:250|93:271,1,46.5499980821992,0|0,0:0|0:0,0:0:0:0:
142,173,79433,2,0,P|192:188|244:169,1,93.0999961643983,2|2,3:0|0:3,0:0:0:0:
273,152,79790,1,2,0:3:0:0:
273,152,79909,1,2,3:0:0:0:
358,319,80147,1,2,0:3:0:0:
408,191,80385,6,0,P|457:202|521:182,1,93.0999961643983,4|0,3:2|0:0,0:0:0:0:
500,41,80862,2,0,P|465:77|451:143,1,93.0999961643983,4|0,3:2|0:0,0:0:0:0:
294,58,81338,2,0,P|343:69|407:49,1,93.0999961643983,4|2,3:2|0:3,0:0:0:0:
418,89,81694,1,2,0:3:0:0:
418,89,81814,1,2,3:0:0:0:
256,185,82052,1,2,0:3:0:0:
77,41,82290,5,2,3:0:0:0:
94,80,82409,1,0,0:0:0:0:
93,121,82528,1,2,0:3:0:0:
76,160,82647,1,0,0:0:0:0:
58,198,82766,6,0,P|56:221|61:243,1,46.5499980821992,2|0,3:0|0:0,0:0:0:0:
195,261,83005,2,0,P|170:260|148:265,1,46.5499980821992,2|0,0:3|0:0,0:0:0:0:
0,315,83243,2,0,P|36:334|99:329,1,93.0999961643983,2|2,3:0|0:3,0:0:0:0:
137,350,83600,1,0,0:0:0:0:
137,350,83719,1,2,3:0:0:0:
149,176,83957,1,2,0:3:0:0:
347,210,84195,6,0,P|364:259|415:282,1,93.0999961643983,4|0,3:2|0:0,0:0:0:0:
290,302,84671,2,0,P|239:319|217:370,1,93.0999961643983,4|0,3:2|0:0,0:0:0:0:
201,243,85147,2,0,P|183:193|133:169,1,93.0999961643983,4|2,3:2|0:3,0:0:0:0:
143,129,85504,1,2,0:3:0:0:
143,129,85624,1,2,3:0:0:0:
39,264,85862,1,2,0:3:0:0:
201,243,86100,5,0,3:0:0:0:
240,256,86219,1,0,0:0:0:0:
279,243,86338,1,2,0:3:0:0:
318,256,86457,1,0,0:0:0:0:
357,243,86576,6,0,P|384:239|409:244,1,46.5499980821992,2|0,3:0|0:0,0:0:0:0:
512,187,86814,2,0,P|485:191|460:186,1,46.5499980821992,0|0,0:0|0:0,0:0:0:0:
386,159,87052,2,0,P|377:106|391:66,1,93.0999961643983,2|2,3:0|0:3,0:0:0:0:
367,33,87409,1,2,0:3:0:0:
367,33,87528,1,2,3:0:0:0:
249,169,87766,1,2,0:3:0:0:
131,33,88005,6,0,P|182:42|244:27,1,93.0999961643983,4|0,3:2|0:0,0:0:0:0:
80,116,88481,2,0,P|131:125|193:110,1,93.0999961643983,4|0,3:2|0:0,0:0:0:0:
29,199,88957,2,0,P|80:208|142:193,1,93.0999961643983,4|2,3:2|0:3,0:0:0:0:
156,223,89314,1,2,0:3:0:0:
156,223,89433,1,2,3:0:0:0:
48,381,89671,1,2,0:3:0:0:
244,344,89909,5,2,0:3:0:0:
263,319,90028,1,0,0:0:0:0:
293,309,90147,1,2,0:3:0:0:
324,312,90266,1,0,0:0:0:0:
353,324,90385,6,0,P|377:326|411:322,1,35,2|0,0:3|0:0,0:0:0:0:
375,252,90624,2,0,P|398:245|428:230,1,35,2|0,0:3|0:0,0:0:0:0:
367,183,90862,2,0,P|370:137|366:105,1,70,2|2,0:3|0:3,0:0:0:0:
363,85,91219,1,0,0:0:0:0:
363,85,91338,1,2,0:3:0:0:
460,156,91576,1,2,0:3:0:0:
267,142,91814,5,2,0:3:0:0:
193,112,92052,1,2,0:3:0:0:
193,112,92171,1,2,0:3:0:0:
193,112,92290,2,0,P|167:108|136:113,1,52.5000020027161,10|0,0:3|0:0,0:0:0:0:
62,128,92766,2,0,P|72:152|91:176,1,52.5000020027161,2|0,0:3|0:0,0:0:0:0:
139,232,93243,2,0,P|156:211|166:182,1,52.5000020027161,10|0,0:3|0:0,0:0:0:0:
284,106,93719,5,0,0:0:0:0:
295,134,93838,1,0,0:0:0:0:
302,166,93957,1,0,0:0:0:0:
302,199,94076,1,0,0:0:0:0:
297,231,94195,1,10,0:3:0:0:
272,349,94433,1,2,0:3:0:0:
395,313,94671,2,0,P|393:287|394:260,1,52.5000020027161,2|0,0:3|0:0,0:0:0:0:
451,139,95147,2,0,P|453:164|451:191,1,52.5000020027161,8|0,0:3|0:0,0:0:0:0:
395,62,95624,5,2,0:3:0:0:
303,35,95862,1,2,0:3:0:0:
303,35,95981,1,2,0:3:0:0:
303,35,96100,2,0,P|275:26|245:30,1,52.5000020027161,10|0,0:3|0:0,0:0:0:0:
164,87,96576,2,0,P|190:87|213:97,1,52.5000020027161,2|0,0:3|0:0,0:0:0:0:
257,171,97052,2,0,P|230:182|210:205,1,52.5000020027161,10|0,0:3|0:0,0:0:0:0:
291,269,97528,5,0,0:0:0:0:
313,269,97647,1,0,0:0:0:0:
334,269,97766,1,0,0:0:0:0:
355,269,97885,1,0,0:0:0:0:
377,269,98004,1,10,0:3:0:0:
511,222,98243,1,2,0:3:0:0:
457,284,98481,2,0,P|455:316|460:355,1,52.5000020027161,2|0,0:3|0:0,0:0:0:0:
431,206,98957,2,0,P|433:174|428:135,1,52.5000020027161,8|0,0:3|0:0,0:0:0:0:
