osu file format v14

[General]
AudioFilename: audio.mp3
AudioLeadIn: 0
PreviewTime: 25221
Countdown: 0
SampleSet: Soft
StackLeniency: 0.7
Mode: 0
LetterboxInBreaks: 0
WidescreenStoryboard: 1

[Editor]
Bookmarks: 27901,53164
DistanceSpacing: 2.1
BeatDivisor: 8
GridSize: 16
TimelineZoom: 1.8

[Metadata]
Title:Patsany, ne teryayte rapir (feat. Maemiza)
TitleUnicode:Пацаны, не теряйте рапир (feat. Maemiza)
Artist:Six Stones
ArtistUnicode:Six Stones
Creator:3mplify
Version:Seto's Hard
Source:
Tags:BevzProDota Seto Kousuke Шесть Камней Dota 2 Pudge Russian Где-то ты и я Тёма Иной i_NoY rap hip hop
BeatmapID:1948049
BeatmapSetID:930412

[Difficulty]
HPDrainRate:5
CircleSize:4
OverallDifficulty:6
ApproachRate:8
SliderMultiplier:1.7
SliderTickRate:1

[Events]
//Background and Video events
0,0,"me after ranking this set(0) goin to Seto to flex in tetris 99.jpg",0,0
Video,0,"3mp so pro.avi"
//Break Periods
2,28729,32225
//Storyboard Layer 0 (Background)
//Storyboard Layer 1 (Fail)
//Storyboard Layer 2 (Pass)
//Storyboard Layer 3 (Foreground)
//Storyboard Layer 4 (Overlay)
//Storyboard Sound Samples

[TimingPoints]
108,631.578947368421,4,2,1,30,1,0
108,-133.333333333333,4,2,1,30,0,0
1055,-133.333333333333,4,2,1,40,0,0
2634,-133.333333333333,4,2,1,50,0,0
5160,-133.333333333333,4,2,1,60,0,0
10213,-71.4285714285714,4,2,1,75,0,0
27897,-71.4285714285714,4,2,1,50,0,0
32344,631.578947368421,4,2,1,50,1,0
32975,631.578947368421,4,2,1,85,1,0
32975,-66.6666666666667,4,2,1,85,0,0
50659,-133.333333333333,4,2,1,50,0,0
53185,-83.3333333333333,4,2,1,75,0,0
65817,-83.3333333333333,4,2,1,65,0,0
67396,-83.3333333333333,4,2,1,55,0,0
68343,-111.111111111111,4,2,1,45,0,0
68975,-111.111111111111,4,2,1,35,0,0
69606,-111.111111111111,4,2,1,25,0,0

[Colours]
Combo1 : 244,247,149
Combo2 : 236,221,189
Combo3 : 255,192,174
Combo4 : 174,176,251

[HitObjects]
106,209,108,6,0,P|168:184|187:109,1,127.500004863739,2|0,0:0|0:0,0:0:0:0:
189,130,1055,2,0,B|227:125|263:147|263:147|283:130|293:92,1,127.500004863739,2|0,0:0|0:0,0:0:0:0:
248,19,2002,2,0,P|235:43|242:61,1,31.8750012159348,0|2,0:0|0:0,0:0:0:0:
18,126,2634,2,0,P|67:135|93:186,1,95.6250036478044,2|0,0:0|0:0,0:0:0:0:
100,250,3265,1,0,0:0:0:0:
225,133,3581,2,0,B|193:162|193:162|194:260,1,127.500004863739,2|0,0:0|0:0,0:0:0:0:
293,293,4371,1,0,0:0:0:0:
293,293,4529,2,0,L|291:214,1,63.7500024318696,2|0,0:0|0:0,0:0:0:0:
389,343,5160,6,0,L|386:219,1,95.6250036478044,2|0,0:0|0:0,0:0:0:0:
385,171,5792,1,0,0:0:0:0:
258,339,6108,2,0,P|222:353|136:303,1,127.500004863739,2|0,0:0|0:0,0:0:0:0:
15,279,7055,2,0,P|37:283|64:265,1,31.8750012159348,0|2,0:0|0:0,0:0:0:0:
122,38,7686,2,0,P|115:87|137:147,1,95.6250036478044,2|0,0:0|0:0,0:0:0:0:
237,114,8318,2,0,L|237:32,1,63.7500024318696,0|2,0:0|0:0,0:0:0:0:
237,50,9265,6,0,L|237:114,1,63.7500024318696,0|2,0:0|0:0,0:0:0:0:
271,187,9739,1,2,0:0:0:0:
350,191,9897,2,0,L|404:174,1,31.8750012159348,2|2,0:0|0:0,0:0:0:0:
402,70,10213,6,0,B|378:100|378:100|381:201,1,118.999996368408,2|0,3:1|0:0,0:0:0:0:
484,201,10686,1,0,0:0:0:0:
484,201,10844,2,0,L|483:93,1,59.4999981842042,8|0,0:3|0:0,0:0:0:0:
415,274,11160,2,0,P|356:224|267:251,1,178.499994552612,2|2,3:2|0:0,0:0:0:0:
128,277,11792,2,0,P|131:315|160:347,1,59.4999981842042,2|2,3:2|0:0,0:0:0:0:
204,170,12107,2,0,L|197:85,1,59.4999981842042,8|0,0:3|3:0,0:0:0:0:
19,325,12739,6,0,P|119:328|142:384,1,118.999996368408,2|0,3:2|0:0,0:0:0:0:
243,251,13213,1,2,0:0:0:0:
246,255,13371,2,0,P|231:311|249:340,1,59.4999981842042,8|2,0:3|0:0,0:0:0:0:
373,384,13686,2,0,L|373:200,1,178.499994552612,2|0,3:2|0:0,0:0:0:0:
461,274,14318,2,0,L|461:163,1,59.4999981842042,2|2,3:2|0:0,0:0:0:0:
460,78,14634,1,8,0:3:0:0:
460,78,14792,1,2,3:2:0:0:
375,119,14950,2,0,P|347:125|294:104,1,59.4999981842042,0|2,0:0|0:2,0:0:0:0:
223,191,15265,6,0,P|198:134|243:62,1,118.999996368408,0|2,3:0|0:0,0:0:0:0:
310,218,15739,1,2,0:0:0:0:
310,218,15897,2,0,L|315:301,1,59.4999981842042,8|2,0:3|0:0,0:0:0:0:
208,368,16213,2,0,L|223:187,1,178.499994552612,2|2,3:2|0:0,0:0:0:0:
310,218,16844,2,0,L|315:301,1,59.4999981842042,2|0,3:2|0:0,0:0:0:0:
474,278,17160,2,0,L|477:218,1,59.4999981842042,8|0,0:3|0:0,0:0:0:0:
361,5,17792,6,0,P|352:79|283:103,1,118.999996368408,2|2,3:2|0:0,0:0:0:0:
220,137,18265,1,2,0:0:0:0:
220,137,18424,2,0,P|204:113|211:50,1,59.4999981842042,8|0,0:3|0:0,0:0:0:0:
48,26,18739,2,0,P|84:81|63:186,1,178.499994552612,2|2,3:2|0:0,0:0:0:0:
151,201,19371,2,0,P|139:233|88:268,1,59.4999981842042,2|0,3:2|0:0,0:0:0:0:
52,369,19686,1,8,0:3:0:0:
52,369,19844,1,2,3:2:0:0:
152,334,20002,2,0,P|187:328|244:337,1,59.4999981842042,2|0,0:0|0:0,0:0:0:0:
329,363,20318,6,0,B|298:338|298:338|304:185,1,178.499994552612,2|0,3:2|0:0,0:0:0:0:
402,213,20950,2,0,L|398:301,1,59.4999981842042,8|0,0:3|0:0,0:0:0:0:
480,358,21265,2,0,L|489:139,1,178.499994552612,2|0,3:2|0:0,0:0:0:0:
484,87,21897,2,0,P|454:103|418:102,1,59.4999981842042,2|2,3:2|0:0,0:0:0:0:
311,27,22213,2,0,L|395:30,1,59.4999981842042,8|2,0:3|3:2,0:0:0:0:
192,277,22844,6,0,P|193:208|123:185,1,118.999996368408,2|2,3:2|0:0,0:0:0:0:
113,64,23318,1,2,0:0:0:0:
113,64,23476,2,0,P|81:93|74:160,1,59.4999981842042,8|2,0:3|0:0,0:0:0:0:
215,110,23792,2,0,L|395:141,1,178.499994552612,2|0,3:2|0:0,0:0:0:0:
472,227,24423,2,0,P|449:248|404:249,1,59.4999981842042,2|0,3:2|0:0,0:0:0:0:
360,348,24739,2,0,P|336:329|320:270,1,59.4999981842042,8|2,0:3|3:2,0:0:0:0:
211,288,25055,2,0,P|217:259|236:236,1,59.4999981842042,2|0,0:0|0:0,0:0:0:0:
164,152,25371,6,0,L|282:155,1,118.999996368408,2|2,3:2|0:0,0:0:0:0:
366,104,25844,1,2,0:0:0:0:
366,104,26002,2,0,P|367:70|348:35,1,59.4999981842042,8|2,0:3|0:2,0:0:0:0:
495,51,26318,2,0,P|453:111|513:222,1,178.499994552612,0|2,3:0|0:0,0:0:0:0:
476,312,26950,2,0,P|447:296|396:301,1,59.4999981842042,2|0,3:2|0:0,0:0:0:0:
349,199,27265,2,0,P|327:228|333:284,1,59.4999981842042,8|2,0:3|3:2,0:0:0:0:
69,352,27897,6,0,L|93:164,1,178.499994552612,2|0,0:0|0:0,0:0:0:0:
91,174,28529,1,0,0:0:0:0:
436,84,32975,6,0,P|400:106|267:47,1,191.250007295609,2|2,3:1|0:0,0:0:0:0:
196,134,33607,2,0,P|175:104|180:45,1,63.7500024318696,8|0,0:3|0:0,0:0:0:0:
240,222,33922,2,0,B|207:240|166:240|166:240|103:222|103:222|151:225|200:202,1,191.250007295609,2|0,3:2|0:0,0:0:0:0:
316,165,34554,2,0,P|327:190|314:266,1,63.7500024318696,2|0,3:0|0:0,0:0:0:0:
259,310,34869,1,8,0:3:0:0:
391,304,35027,1,0,3:0:0:0:
329,381,35185,1,2,0:3:0:0:
329,381,35501,6,0,P|331:332|309:308,1,63.7500024318696,2|2,3:1|0:0,0:0:0:0:
254,219,35817,2,0,L|164:251,1,63.7500024318696,2|0,0:2|0:0,0:0:0:0:
136,362,36133,2,0,L|100:308,1,63.7500024318696,10|0,0:3|0:0,0:0:0:0:
2,232,36448,1,2,3:2:0:0:
2,232,36606,2,0,L|215:241,1,191.250007295609,2|2,0:0|3:0,0:0:0:0:
371,55,37396,5,8,0:3:0:0:
449,117,37554,1,0,3:0:0:0:
485,29,37711,1,2,0:3:0:0:
485,29,38027,6,0,P|422:94|465:183,1,191.250007295609,2|2,3:1|0:0,0:0:0:0:
404,274,38659,2,0,P|438:288|478:278,1,63.7500024318696,8|0,0:3|0:0,0:0:0:0:
337,199,38975,2,0,B|294:175|294:175|225:171|137:206,1,191.250007295609,2|0,3:2|0:0,0:0:0:0:
69,140,39607,2,0,P|53:175|61:221,1,63.7500024318696,2|0,3:0|0:0,0:0:0:0:
97,341,39922,1,8,0:3:0:0:
97,341,40080,2,0,L|104:246,1,63.7500024318696,2|2,3:2|0:3,0:0:0:0:
240,171,40396,1,2,0:0:0:0:
240,171,40554,6,0,B|229:312|229:312|251:281|288:273,1,191.250007295609,2|2,3:2|0:0,0:0:0:0:
390,357,41185,2,0,P|355:373|299:353,2,95.6250036478044,8|0|0,0:3|0:0|0:0,0:0:0:0:
483,234,41817,2,0,L|493:362,1,127.500004863739,2|0,0:0|0:0,0:0:0:0:
378,193,42448,5,8,0:3:0:0:
447,115,42606,1,0,3:0:0:0:
361,43,42764,1,2,0:3:0:0:
361,43,43080,6,0,P|302:72|194:24,1,191.250007295609,2|2,3:1|0:0,0:0:0:0:
113,84,43712,2,0,P|94:55|100:8,1,63.7500024318696,8|0,0:3|0:0,0:0:0:0:
205,165,44027,2,0,L|14:166,1,191.250007295609,2|0,3:2|0:0,0:0:0:0:
16,274,44659,2,0,L|90:274,1,63.7500024318696,2|0,3:0|0:0,0:0:0:0:
238,334,44975,1,8,0:3:0:0:
171,258,45133,1,0,3:0:0:0:
104,369,45290,1,2,0:3:0:0:
104,369,45607,6,0,L|169:366,1,63.7500024318696,2|2,3:1|0:0,0:0:0:0:
257,255,45922,2,0,L|322:252,1,63.7500024318696,2|0,0:2|0:0,0:0:0:0:
431,364,46238,2,0,L|366:361,1,63.7500024318696,10|0,0:3|0:0,0:0:0:0:
487,274,46554,1,2,3:2:0:0:
487,274,46712,2,0,L|470:70,1,191.250007295609,2|2,0:0|3:0,0:0:0:0:
248,26,47501,5,8,0:3:0:0:
324,89,47659,1,0,3:0:0:0:
259,165,47817,1,2,0:3:0:0:
259,165,48133,6,0,P|167:130|83:189,1,191.250007295609,2|2,3:1|0:0,0:0:0:0:
18,125,48764,2,0,P|6:155|24:228,1,63.7500024318696,8|0,0:3|0:0,0:0:0:0:
124,310,49080,2,0,L|337:305,1,191.250007295609,2|0,3:2|0:0,0:0:0:0:
429,360,49712,2,0,L|409:274,1,63.7500024318696,2|0,3:0|0:0,0:0:0:0:
379,97,50028,2,0,L|363:186,1,63.7500024318696,8|0,0:3|3:0,0:0:0:0:
365,190,50659,6,0,P|293:154|258:167,1,95.6250036478044,2|0,3:2|0:0,0:0:0:0:
282,155,51290,1,0,0:0:0:0:
199,61,51606,2,0,L|177:199,1,127.500004863739,2|2,0:0|0:0,0:0:0:0:
91,336,52554,5,2,0:0:0:0:
25,214,52869,1,0,0:0:0:0:
255,301,53186,6,0,P|312:264|296:165,1,152.999995330811,2|2,3:1|0:0,0:0:0:0:
240,117,53817,1,8,0:3:0:0:
25,214,54133,2,0,L|254:210,1,203.999993774414,2|2,3:2|3:0,0:0:0:0:
327,24,55080,2,0,L|276:28,1,50.9999984436036,8|2,0:3|3:2,0:0:0:0:
276,27,55712,6,0,P|320:58|265:162,1,152.999995330811,2|0,3:2|0:0,0:0:0:0:
228,210,56343,1,8,0:3:0:0:
322,384,56659,2,0,B|315:235|315:235|306:260|280:289,1,203.999993774414,2|2,3:2|3:0,0:0:0:0:
422,384,57606,2,0,P|415:235|415:235,1,101.999996887207,8|2,0:3|0:3,0:0:0:0:
461,49,58238,6,0,P|439:101|332:73,1,152.999995330811,0|2,3:0|0:0,0:0:0:0:
280,25,58869,1,8,0:3:0:0:
155,176,59185,2,0,L|158:380,1,203.999993774414,2|2,3:2|3:0,0:0:0:0:
18,203,60133,2,0,L|24:128,1,50.9999984436036,8|2,0:3|3:2,0:0:0:0:
22,152,60764,6,0,P|86:165|124:62,1,152.999995330811,2|0,3:2|0:0,0:0:0:0:
99,14,61396,1,8,0:3:0:0:
235,152,61712,2,0,B|287:165|287:165|440:100,1,203.999993774414,2|2,3:2|3:0,0:0:0:0:
508,301,62659,2,0,L|405:347,1,101.999996887207,8|2,0:3|0:3,0:0:0:0:
188,356,63291,6,0,P|180:290|276:265,1,152.999995330811,0|0,3:0|0:0,0:0:0:0:
342,271,63922,1,8,0:3:0:0:
247,96,64238,2,0,P|152:83|55:123,1,203.999993774414,2|2,3:0|3:0,0:0:0:0:
47,359,65186,2,0,L|110:351,1,50.9999984436036,8|0,0:3|3:0,0:0:0:0:
97,352,65817,6,0,P|118:289|253:321,1,203.999993774414,0|8,3:0|0:3,0:0:0:0:
378,379,66764,2,0,L|384:157,1,203.999993774414,2|2,3:0|3:0,0:0:0:0:
316,29,67711,1,8,0:3:0:0:
210,19,68027,1,2,0:3:0:0:
155,104,68344,6,0,L|158:258,1,152.999995330811,0|8,3:0|0:3,0:0:0:0:
354,256,69290,2,0,L|357:104,1,152.999995330811,2|2,3:0|3:0,0:0:0:0:
