osu file format v14

[General]
AudioFilename: audio.mp3
AudioLeadIn: 0
PreviewTime: 25221
Countdown: 0
SampleSet: Soft
StackLeniency: 0.7
Mode: 0
LetterboxInBreaks: 0
WidescreenStoryboard: 1

[Editor]
DistanceSpacing: 1.2
BeatDivisor: 16
GridSize: 16
TimelineZoom: 1.8

[Metadata]
Title:Patsany, ne teryayte rapir (feat. Maemiza)
TitleUnicode:Пацаны, не теряйте рапир (feat. Maemiza)
Artist:Six Stones
ArtistUnicode:Six Stones
Creator:3mplify
Version:Normal
Source:
Tags:BevzProDota Seto Kousuke Шесть Камней Dota 2 Pudge Russian Где-то ты и я Тёма Иной i_NoY rap hip hop
BeatmapID:1945267
BeatmapSetID:930412

[Difficulty]
HPDrainRate:4
CircleSize:3.6
OverallDifficulty:4
ApproachRate:5
SliderMultiplier:1.4
SliderTickRate:1

[Events]
//Background and Video events
0,0,"me after ranking this set(0) goin to Seto to flex in tetris 99.jpg",0,0
Video,0,"3mp so pro.avi"
//Break Periods
2,29480,31775
//Storyboard Layer 0 (Background)
//Storyboard Layer 1 (Fail)
//Storyboard Layer 2 (Pass)
//Storyboard Layer 3 (Foreground)
//Storyboard Sound Samples

[TimingPoints]
108,631.578947368421,4,2,1,30,1,0
108,-100,4,2,1,30,0,0
1055,-100,4,2,1,40,0,0
2634,-100,4,2,1,50,0,0
5160,-100,4,2,1,60,0,0
10213,-83.3333333333333,4,2,1,75,0,0
27897,-83.3333333333333,4,2,1,50,0,0
32344,631.578947368421,4,2,1,50,1,0
32344,-83.3333333333333,4,2,1,50,0,0
32975,631.578947368421,4,2,1,85,1,0
32975,-83.3333333333333,4,2,1,85,0,0
50659,-90.9090909090909,4,2,1,50,0,0
52554,-90.9090909090909,4,2,1,50,0,0
53186,-100,4,2,1,75,0,0
65817,-100,4,2,1,65,0,0
67396,-100,4,2,1,55,0,0
68344,-100,4,2,1,45,0,0
68975,-100,4,2,1,35,0,0
69607,-100,4,2,1,25,0,0

[Colours]
Combo1 : 244,247,149
Combo2 : 236,221,189
Combo3 : 255,192,174
Combo4 : 174,176,251

[HitObjects]
49,223,108,6,0,P|130:224|194:216,1,140,2|0,0:0|0:0,0:0:0:0:
268,189,1055,1,2,0:0:0:0:
391,302,1686,2,0,P|413:332|441:357,2,70,0|0|0,0:0|0:0|0:0,0:0:0:0:
400,218,2634,6,0,P|407:146|400:75,1,140,2|0,0:0|0:0,0:0:0:0:
349,12,3581,1,2,0:0:0:0:
189,64,4213,1,0,0:0:0:0:
251,120,4529,2,0,P|286:125|329:124,1,70,2|0,0:0|0:0,0:0:0:0:
365,195,5160,6,0,P|335:272|292:314,1,140,2|0,0:0|0:0,0:0:0:0:
212,326,6107,1,2,0:0:0:0:
104,197,6739,2,0,P|99:157|103:127,2,70,0|0|0,0:0|0:0|0:0,0:0:0:0:
256,192,7686,12,2,9581,0:0:0:0:
350,34,10213,6,0,B|351:96|351:96|317:160,1,125.999996154785,2|0,3:1|0:0,0:0:0:0:
300,194,10844,1,8,0:3:0:0:
258,276,11160,2,0,P|219:260|177:262,1,83.9999974365235,2|0,3:2|0:0,0:0:0:0:
131,269,11634,1,2,0:0:0:0:
98,302,11792,2,0,B|88:342|88:342|100:387,2,83.9999974365235,2|8|2,3:2|0:3|0:0,0:0:0:0:
122,212,12739,6,0,B|131:171|131:171|119:126,1,83.9999974365235,2|0,3:2|0:0,0:0:0:0:
106,86,13213,1,2,0:0:0:0:
123,43,13371,2,0,P|158:34|208:39,1,83.9999974365235,8|2,0:3|3:2,0:0:0:0:
295,59,14002,2,0,P|336:63|377:54,2,83.9999974365235,2|2|8,0:0|3:2|0:3,0:0:0:0:
228,123,14950,1,0,0:0:0:0:
295,185,15265,6,0,B|357:185|357:185|420:219,1,125.999996154785,0|2,3:0|0:0,0:0:0:0:
453,238,15897,1,8,0:3:0:0:
459,330,16213,1,2,3:2:0:0:
374,292,16529,2,0,B|337:269|337:269|293:269,2,83.9999974365235,2|2|8,0:0|3:2|0:3,0:0:0:0:
311,362,17476,1,2,0:0:0:0:
264,360,17634,1,2,0:0:0:0:
226,333,17792,6,0,P|203:288|206:249,2,83.9999974365235,2|2|8,3:2|0:0|0:3,0:0:0:0:
295,273,18739,1,2,3:2:0:0:
295,226,18897,2,0,B|294:179|294:179|314:137,1,83.9999974365235,2|2,0:0|0:0,0:0:0:0:
282,108,19371,2,0,B|239:87|239:87|193:88,2,83.9999974365235,2|8|2,3:2|0:3|0:0,0:0:0:0:
219,175,20318,6,0,B|156:174|156:174|93:140,1,125.999996154785,2|0,3:2|0:0,0:0:0:0:
60,121,20949,1,8,0:3:0:0:
17,202,21265,2,0,P|13:270|18:330,1,125.999996154785,2|0,3:2|0:0,0:0:0:0:
64,324,21897,2,0,P|109:318|150:325,1,83.9999974365235,2|8,3:2|0:3,0:0:0:0:
192,332,22371,1,2,3:2:0:0:
316,270,22844,6,0,B|355:256|355:256|401:264,1,83.9999974365235,2|2,3:2|0:0,0:0:0:0:
442,272,23318,2,0,L|434:313,2,41.9999987182618,2|8|2,0:0|0:3|0:0,0:0:0:0:
450,225,23792,6,0,B|457:183|457:183|444:143,1,83.9999974365235,2|2,3:2|0:0,0:0:0:0:
367,91,24423,2,0,L|359:132,1,41.9999987182618,2|0,3:2|0:0,0:0:0:0:
346,176,24739,2,0,P|300:173|261:154,1,83.9999974365235,8|2,0:3|0:0,0:0:0:0:
196,95,25371,6,0,P|197:52|189:11,1,83.9999974365235,2|2,3:2|0:0,0:0:0:0:
145,26,25844,1,2,0:0:0:0:
102,42,26002,2,0,B|57:52|57:52|11:39,2,83.9999974365235,8|0|2,0:3|3:0|0:0,0:0:0:0:
189,11,26950,1,2,3:2:0:0:
276,41,27265,1,8,0:3:0:0:
263,85,27423,2,0,P|253:143|269:217,1,125.999996154785,2|2,3:2|0:0,0:0:0:0:
361,143,28371,5,0,0:0:0:0:
84,183,32975,6,0,L|162:154,1,83.9999974365235,2|2,3:1|0:3,0:0:0:0:
187,193,33449,2,0,L|265:164,1,83.9999974365235,2|0,0:0|0:0,0:0:0:0:
309,179,33922,2,0,P|344:156|357:37,1,167.999994873047,2|2,3:2|3:0,0:0:0:0:
281,90,34869,1,8,0:3:0:0:
405,226,35501,6,0,P|427:225|447:226,2,41.9999987182618,2|2|2,3:1|0:0|0:2,0:0:0:0:
327,276,36133,2,0,P|287:290|246:289,1,83.9999974365235,10|2,0:3|3:2,0:0:0:0:
200,282,36606,1,2,0:0:0:0:
271,163,37080,1,2,3:0:0:0:
201,102,37396,2,0,L|160:102,1,41.9999987182618,8|0,0:3|3:0,0:0:0:0:
117,122,37711,1,2,0:3:0:0:
54,189,38028,6,0,L|54:278,1,83.9999974365235,2|2,3:1|0:3,0:0:0:0:
89,302,38501,2,0,L|163:259,1,83.9999974365235,2|0,0:0|0:0,0:0:0:0:
188,299,38975,2,0,P|221:344|325:338,1,167.999994873047,2|2,3:2|3:0,0:0:0:0:
270,271,39922,1,8,0:3:0:0:
253,227,40080,2,0,P|248:182|250:135,1,83.9999974365235,2|2,3:2|0:0,0:0:0:0:
269,101,40554,5,2,3:2:0:0:
153,24,41027,1,2,0:0:0:0:
108,38,41185,2,0,B|63:48|63:48|17:35,2,83.9999974365235,8|2|2,0:3|3:2|0:0,0:0:0:0:
66,218,42449,2,0,L|66:259,1,41.9999987182618,8|0,0:3|3:0,0:0:0:0:
66,306,42764,1,2,0:3:0:0:
153,335,43081,6,0,L|153:246,1,83.9999974365235,2|2,3:1|0:3,0:0:0:0:
195,232,43554,2,0,L|195:143,1,83.9999974365235,2|0,0:0|0:0,0:0:0:0:
239,134,44027,2,0,P|171:95|159:7,1,167.999994873047,2|2,3:2|3:0,0:0:0:0:
245,41,44975,1,8,0:3:0:0:
137,191,45607,6,0,P|136:213|137:233,2,41.9999987182618,2|2|2,3:1|0:0|0:2,0:0:0:0:
79,118,46238,2,0,P|53:151|43:191,1,83.9999974365235,10|2,0:3|3:2,0:0:0:0:
48,237,46711,1,2,0:0:0:0:
48,375,47186,1,2,3:0:0:0:
124,323,47501,1,8,0:3:0:0:
159,353,47659,2,0,L|201:353,1,41.9999987182618,0|2,3:0|0:3,0:0:0:0:
293,350,48133,6,0,L|322:271,1,83.9999974365235,2|0,3:1|0:0,0:0:0:0:
354,243,48606,2,0,L|318:163,1,83.9999974365235,2|0,0:0|0:0,0:0:0:0:
321,120,49080,2,0,P|288:136|177:76,1,167.999994873047,2|2,3:2|3:0,0:0:0:0:
265,45,50028,1,8,0:3:0:0:
413,126,50659,6,0,P|441:178|446:237,1,115.50000352478,2|0,3:2|0:0,0:0:0:0:
398,350,51606,1,2,0:0:0:0:
254,139,52554,5,2,0:0:0:0:
120,216,53186,6,0,P|167:273|231:294,1,140,2|8,3:1|0:3,0:0:0:0:
311,301,54132,1,2,3:2:0:0:
464,232,54764,2,0,P|480:266|479:303,2,70,2|8|0,3:0|0:3|0:0,0:0:0:0:
385,201,55712,6,0,P|320:205|248:176,1,140,2|8,3:2|0:3,0:0:0:0:
177,138,56658,1,2,3:2:0:0:
74,270,57290,1,2,3:0:0:0:
142,320,57606,2,0,P|179:322|216:313,1,70,8|2,0:3|0:3,0:0:0:0:
179,237,58238,6,0,P|161:166|160:95,1,140,0|8,3:0|0:3,0:0:0:0:
182,18,59185,1,2,3:2:0:0:
287,149,59817,2,0,P|294:183|289:217,2,70,2|8|0,3:0|0:3|0:0,0:0:0:0:
319,70,60764,6,0,P|399:60|464:68,1,140,2|8,3:2|0:3,0:0:0:0:
496,141,61711,1,2,3:2:0:0:
407,283,62343,1,2,3:0:0:0:
337,237,62659,2,0,P|301:232|261:237,1,70,8|2,0:3|0:3,0:0:0:0:
192,270,63290,6,0,P|143:226|119:151,1,140,0|8,3:0|0:3,0:0:0:0:
115,73,64237,1,2,3:0:0:0:
282,122,64870,2,0,P|319:131|356:124,2,70,2|8|0,3:0|0:3|0:0,0:0:0:0:
208,161,65817,6,0,P|206:248|214:300,1,140,0|8,3:0|0:3,0:0:0:0:
252,375,66765,1,2,3:0:0:0:
92,324,67395,1,2,3:0:0:0:
125,246,67712,2,0,P|126:202|121:171,1,70,8|2,0:3|0:3,0:0:0:0:
79,103,68343,6,0,P|156:89|221:96,1,140,0|8,3:0|0:3,0:0:0:0:
299,114,69290,1,2,3:0:0:0:
221,262,69922,1,2,3:0:0:0:
