osu file format v14

[General]
AudioFilename: Siti Nurhaliza - Warna Warna Malaysiaku Gemilang.mp3
AudioLeadIn: 0
PreviewTime: 73872
Countdown: 0
SampleSet: Soft
StackLeniency: 0.7
Mode: 3
LetterboxInBreaks: 0
SpecialStyle: 0
WidescreenStoryboard: 0

[Editor]
DistanceSpacing: 0.9
BeatDivisor: 4
GridSize: 32
TimelineZoom: 2.3

[Metadata]
Title:Warna Warna Malaysiaku Gemilang
TitleUnicode:Warna Warna Malaysiaku Gemilang
Artist:Siti Nurhaliza
ArtistUnicode:Siti Nurhaliza
Creator:InabaYap
Version:Hard
Source:
Tags:Siti Nurhaliza Malaysia Warna Patriotic Colours Colors Color
BeatmapID:911668
BeatmapSetID:421525

[Difficulty]
HPDrainRate:8
CircleSize:7
OverallDifficulty:7.5
ApproachRate:5
SliderMultiplier:1.4
SliderTickRate:1

[Events]
//Background and Video events
0,0,"Logo 50tahun_2.jpg",0,0
//Break Periods
//Storyboard Layer 0 (Background)
//Storyboard Layer 1 (Fail)
//Storyboard Layer 2 (Pass)
//Storyboard Layer 3 (Foreground)
//Storyboard Sound Samples

[TimingPoints]
3999.50192066287,379.746835443038,4,2,0,30,1,0

[HitObjects]
256,192,1436,128,0,3999:0:0:0:0:
182,192,3999,1,0,0:0:0:0:
36,192,3999,1,0,0:0:0:0:
475,192,3999,1,0,0:0:0:0:
329,192,3999,1,0,0:0:0:0:
36,192,4189,1,0,0:0:0:0:
256,192,4379,1,0,0:0:0:0:
402,192,4379,1,0,0:0:0:0:
109,192,4379,1,0,0:0:0:0:
182,192,4569,1,0,0:0:0:0:
36,192,4569,1,0,0:0:0:0:
329,192,4569,1,0,0:0:0:0:
402,192,4758,1,0,0:0:0:0:
109,192,4758,1,0,0:0:0:0:
36,192,4948,1,0,0:0:0:0:
182,192,4948,1,0,0:0:0:0:
329,192,4948,1,0,0:0:0:0:
256,192,5138,1,0,0:0:0:0:
109,192,5138,1,0,0:0:0:0:
402,192,5138,1,0,0:0:0:0:
182,192,5518,1,0,0:0:0:0:
329,192,5518,1,0,0:0:0:0:
36,192,5708,1,0,0:0:0:0:
182,192,5708,1,0,0:0:0:0:
475,192,5708,1,0,0:0:0:0:
329,192,5708,1,0,0:0:0:0:
256,192,5898,1,0,0:0:0:0:
402,192,5898,1,0,0:0:0:0:
109,192,5898,1,0,0:0:0:0:
182,192,6088,1,0,0:0:0:0:
329,192,6088,1,0,0:0:0:0:
36,192,6277,1,0,0:0:0:0:
182,192,6277,1,0,0:0:0:0:
329,192,6277,1,0,0:0:0:0:
475,192,6277,1,0,0:0:0:0:
109,192,6467,1,0,0:0:0:0:
182,192,6467,1,0,0:0:0:0:
329,192,6467,1,0,0:0:0:0:
402,192,6467,1,0,0:0:0:0:
256,192,6657,1,0,0:0:0:0:
109,192,6657,1,0,0:0:0:0:
402,192,6657,1,0,0:0:0:0:
182,192,6847,1,0,0:0:0:0:
329,192,6847,1,0,0:0:0:0:
36,192,7037,1,0,0:0:0:0:
182,192,7037,1,0,0:0:0:0:
329,192,7037,1,0,0:0:0:0:
475,192,7037,1,0,0:0:0:0:
475,192,7227,1,0,0:0:0:0:
109,192,7417,1,0,0:0:0:0:
256,192,7417,1,0,0:0:0:0:
402,192,7417,1,0,0:0:0:0:
329,192,7607,1,0,0:0:0:0:
475,192,7607,1,0,0:0:0:0:
182,192,7607,1,0,0:0:0:0:
109,192,7796,1,0,0:0:0:0:
402,192,7796,1,0,0:0:0:0:
182,192,7986,1,0,0:0:0:0:
329,192,7986,1,0,0:0:0:0:
475,192,7986,1,0,0:0:0:0:
256,192,8176,1,0,0:0:0:0:
109,192,8176,1,0,0:0:0:0:
402,192,8176,1,0,0:0:0:0:
182,192,8556,1,0,0:0:0:0:
329,192,8556,1,0,0:0:0:0:
109,192,8746,1,0,0:0:0:0:
402,192,8746,1,0,0:0:0:0:
256,192,8936,1,0,0:0:0:0:
36,192,8936,1,0,0:0:0:0:
475,192,8936,1,0,0:0:0:0:
109,192,9126,1,0,0:0:0:0:
402,192,9126,1,0,0:0:0:0:
36,192,9315,1,0,0:0:0:0:
182,192,9315,1,0,0:0:0:0:
329,192,9315,1,0,0:0:0:0:
475,192,9315,1,0,0:0:0:0:
109,192,9505,1,0,0:0:0:0:
402,192,9505,1,0,0:0:0:0:
182,192,9695,1,0,0:0:0:0:
256,192,9695,1,0,0:0:0:0:
329,192,9695,1,0,0:0:0:0:
36,192,9695,1,0,0:0:0:0:
475,192,9695,1,0,0:0:0:0:
109,192,10075,1,0,0:0:0:0:
36,192,10075,1,0,0:0:0:0:
182,192,10075,1,0,0:0:0:0:
475,192,10075,1,0,0:0:0:0:
329,192,10075,1,0,0:0:0:0:
256,192,10455,1,0,0:0:0:0:
109,192,10455,1,0,0:0:0:0:
402,192,10455,1,0,0:0:0:0:
182,192,10645,1,0,0:0:0:0:
329,192,10645,1,0,0:0:0:0:
182,192,11024,1,0,0:0:0:0:
329,192,11024,1,0,0:0:0:0:
109,192,11214,1,0,0:0:0:0:
256,192,11214,1,0,0:0:0:0:
402,192,11214,1,0,0:0:0:0:
182,192,11784,1,0,0:0:0:0:
329,192,11784,1,0,0:0:0:0:
109,192,11974,1,0,0:0:0:0:
256,192,11974,1,0,0:0:0:0:
402,192,11974,1,0,0:0:0:0:
182,192,12164,1,0,0:0:0:0:
329,192,12164,1,0,0:0:0:0:
36,192,12353,1,0,0:0:0:0:
182,192,12353,1,0,0:0:0:0:
182,192,12543,1,0,0:0:0:0:
36,192,12543,1,0,0:0:0:0:
109,192,12733,1,0,0:0:0:0:
256,192,12733,1,0,0:0:0:0:
402,192,12733,1,0,0:0:0:0:
36,192,12923,1,0,0:0:0:0:
36,192,13113,1,0,0:0:0:0:
182,192,13113,1,0,0:0:0:0:
329,192,13113,1,0,0:0:0:0:
475,192,13113,1,0,0:0:0:0:
109,192,13493,1,0,0:0:0:0:
256,192,13493,1,0,0:0:0:0:
402,192,13493,1,0,0:0:0:0:
182,192,13683,1,0,0:0:0:0:
329,192,13683,1,0,0:0:0:0:
182,192,14062,1,0,0:0:0:0:
329,192,14062,1,0,0:0:0:0:
109,192,14252,1,0,0:0:0:0:
256,192,14252,1,0,0:0:0:0:
402,192,14252,1,0,0:0:0:0:
329,192,14632,1,0,0:0:0:0:
475,192,14632,1,0,0:0:0:0:
329,192,14822,1,0,0:0:0:0:
475,192,14822,1,0,0:0:0:0:
109,192,15012,1,0,0:0:0:0:
256,192,15012,1,0,0:0:0:0:
402,192,15012,1,0,0:0:0:0:
475,192,15202,1,0,0:0:0:0:
36,192,15391,1,0,0:0:0:0:
182,192,15391,1,0,0:0:0:0:
329,192,15391,1,0,0:0:0:0:
475,192,15391,1,0,0:0:0:0:
109,192,15581,1,0,0:0:0:0:
402,192,15581,1,0,0:0:0:0:
256,192,15771,1,0,0:0:0:0:
36,192,15771,1,0,0:0:0:0:
475,192,15771,1,0,0:0:0:0:
109,192,16151,1,0,0:0:0:0:
402,192,16151,1,0,0:0:0:0:
36,192,16151,1,0,0:0:0:0:
475,192,16151,1,0,0:0:0:0:
256,192,16531,1,0,0:0:0:0:
402,192,16531,1,0,0:0:0:0:
475,192,16531,1,0,0:0:0:0:
36,192,16721,1,0,0:0:0:0:
109,192,16721,1,0,0:0:0:0:
36,192,17100,1,0,0:0:0:0:
109,192,17100,1,0,0:0:0:0:
256,192,17290,1,0,0:0:0:0:
402,192,17290,1,0,0:0:0:0:
475,192,17290,1,0,0:0:0:0:
36,192,17860,1,0,0:0:0:0:
109,192,17860,1,0,0:0:0:0:
256,192,18050,1,0,0:0:0:0:
402,192,18050,1,0,0:0:0:0:
475,192,18050,1,0,0:0:0:0:
182,192,18240,1,0,0:0:0:0:
36,192,18429,1,0,0:0:0:0:
109,192,18429,1,0,0:0:0:0:
36,192,18619,1,0,0:0:0:0:
109,192,18619,1,0,0:0:0:0:
256,192,18809,1,0,0:0:0:0:
402,192,18809,1,0,0:0:0:0:
475,192,18809,1,0,0:0:0:0:
475,192,19189,128,0,19758:0:0:0:0:
36,192,19189,1,0,0:0:0:0:
182,192,19189,1,0,0:0:0:0:
329,192,19189,1,0,0:0:0:0:
256,192,19569,1,0,0:0:0:0:
402,192,19569,1,0,0:0:0:0:
182,192,19569,1,0,0:0:0:0:
109,192,19758,128,0,20328:0:0:0:0:
329,192,19758,1,0,0:0:0:0:
329,192,20138,1,0,0:0:0:0:
182,192,20328,128,0,20898:0:0:0:0:
329,192,20328,1,0,0:0:0:0:
402,192,20518,1,0,0:0:0:0:
256,192,20518,1,0,0:0:0:0:
109,192,20898,128,0,21088:0:0:0:0:
329,192,20898,1,0,0:0:0:0:
475,192,20898,1,0,0:0:0:0:
402,192,20898,1,0,0:0:0:0:
182,192,21088,128,0,21277:0:0:0:0:
36,192,21088,1,0,0:0:0:0:
256,192,21088,1,0,0:0:0:0:
402,192,21277,128,0,21467:0:0:0:0:
329,192,21467,128,0,21657:0:0:0:0:
182,192,21467,1,0,0:0:0:0:
475,192,21467,1,0,0:0:0:0:
109,192,21657,128,0,21847:0:0:0:0:
182,192,21657,1,0,0:0:0:0:
36,192,21847,128,0,22037:0:0:0:0:
256,192,21847,1,0,0:0:0:0:
402,192,21847,1,0,0:0:0:0:
36,192,22227,128,0,22796:0:0:0:0:
109,192,22227,1,0,0:0:0:0:
182,192,22227,1,0,0:0:0:0:
329,192,22227,1,0,0:0:0:0:
329,192,22607,1,0,0:0:0:0:
475,192,22607,1,0,0:0:0:0:
256,192,22607,1,0,0:0:0:0:
182,192,22796,1,0,0:0:0:0:
402,192,22796,1,0,0:0:0:0:
109,192,22796,128,0,23746:0:0:0:0:
182,192,23176,1,0,0:0:0:0:
402,192,23176,1,0,0:0:0:0:
475,192,23366,1,0,0:0:0:0:
329,192,23366,1,0,0:0:0:0:
256,192,23366,1,0,0:0:0:0:
475,192,23746,128,0,24315:0:0:0:0:
36,192,23746,1,0,0:0:0:0:
182,192,23746,1,0,0:0:0:0:
36,192,23936,1,0,0:0:0:0:
182,192,23936,1,0,0:0:0:0:
109,192,24126,1,0,0:0:0:0:
329,192,24126,1,0,0:0:0:0:
256,192,24126,1,0,0:0:0:0:
402,192,24315,128,0,25265:0:0:0:0:
36,192,24315,1,0,0:0:0:0:
182,192,24315,1,0,0:0:0:0:
36,192,24505,1,0,0:0:0:0:
182,192,24505,1,0,0:0:0:0:
36,192,24695,1,0,0:0:0:0:
182,192,24695,1,0,0:0:0:0:
109,192,24885,1,0,0:0:0:0:
256,192,24885,1,0,0:0:0:0:
329,192,24885,1,0,0:0:0:0:
36,192,25075,1,0,0:0:0:0:
182,192,25075,1,0,0:0:0:0:
36,192,25265,128,0,25834:0:0:0:0:
109,192,25265,1,0,0:0:0:0:
329,192,25265,1,0,0:0:0:0:
182,192,25265,1,0,0:0:0:0:
475,192,25645,1,0,0:0:0:0:
402,192,25645,1,0,0:0:0:0:
256,192,25645,1,0,0:0:0:0:
182,192,25834,1,0,0:0:0:0:
329,192,25834,1,0,0:0:0:0:
109,192,25834,128,0,26784:0:0:0:0:
329,192,26214,1,0,0:0:0:0:
182,192,26214,1,0,0:0:0:0:
475,192,26404,1,0,0:0:0:0:
402,192,26404,1,0,0:0:0:0:
256,192,26404,1,0,0:0:0:0:
182,192,26784,128,0,26974:0:0:0:0:
329,192,26784,1,0,0:0:0:0:
36,192,26784,1,0,0:0:0:0:
109,192,26974,128,0,27164:0:0:0:0:
329,192,26974,1,0,0:0:0:0:
36,192,26974,1,0,0:0:0:0:
182,192,27164,128,0,27353:0:0:0:0:
256,192,27164,1,0,0:0:0:0:
402,192,27164,1,0,0:0:0:0:
475,192,27353,128,0,27543:0:0:0:0:
36,192,27353,1,0,0:0:0:0:
109,192,27353,1,0,0:0:0:0:
402,192,27543,128,0,27733:0:0:0:0:
36,192,27543,1,0,0:0:0:0:
109,192,27543,1,0,0:0:0:0:
329,192,27733,128,0,27923:0:0:0:0:
36,192,27733,1,0,0:0:0:0:
109,192,27733,1,0,0:0:0:0:
36,192,27923,128,0,28113:0:0:0:0:
256,192,27923,1,0,0:0:0:0:
402,192,27923,1,0,0:0:0:0:
109,192,28303,128,0,28872:0:0:0:0:
36,192,28303,1,0,0:0:0:0:
182,192,28303,1,0,0:0:0:0:
329,192,28303,1,0,0:0:0:0:
402,192,28683,1,0,0:0:0:0:
256,192,28683,1,0,0:0:0:0:
475,192,28683,1,0,0:0:0:0:
36,192,28872,1,0,0:0:0:0:
329,192,28872,1,0,0:0:0:0:
182,192,28872,128,0,29632:0:0:0:0:
36,192,29252,1,0,0:0:0:0:
329,192,29252,1,0,0:0:0:0:
256,192,29442,1,0,0:0:0:0:
402,192,29442,1,0,0:0:0:0:
475,192,29442,1,0,0:0:0:0:
402,192,29822,128,0,30391:0:0:0:0:
36,192,29822,1,0,0:0:0:0:
109,192,29822,1,0,0:0:0:0:
36,192,30012,1,0,0:0:0:0:
109,192,30012,1,0,0:0:0:0:
256,192,30202,1,0,0:0:0:0:
475,192,30202,1,0,0:0:0:0:
182,192,30202,1,0,0:0:0:0:
329,192,30391,128,0,31341:0:0:0:0:
36,192,30391,1,0,0:0:0:0:
109,192,30391,1,0,0:0:0:0:
36,192,30581,1,0,0:0:0:0:
109,192,30581,1,0,0:0:0:0:
36,192,30771,1,0,0:0:0:0:
109,192,30771,1,0,0:0:0:0:
256,192,30961,1,0,0:0:0:0:
475,192,30961,1,0,0:0:0:0:
182,192,30961,1,0,0:0:0:0:
402,192,31341,128,0,31910:0:0:0:0:
182,192,31341,1,0,0:0:0:0:
36,192,31341,1,0,0:0:0:0:
475,192,31341,1,0,0:0:0:0:
256,192,31721,1,0,0:0:0:0:
109,192,31721,1,0,0:0:0:0:
475,192,31721,1,0,0:0:0:0:
256,192,31910,128,0,32480:0:0:0:0:
36,192,31910,1,0,0:0:0:0:
109,192,31910,1,0,0:0:0:0:
329,192,31910,1,0,0:0:0:0:
402,192,32290,1,0,0:0:0:0:
109,192,32290,1,0,0:0:0:0:
475,192,32290,1,0,0:0:0:0:
402,192,32480,1,0,0:0:0:0:
182,192,32480,1,0,0:0:0:0:
109,192,32480,1,0,0:0:0:0:
475,192,32480,1,0,0:0:0:0:
329,192,32480,128,0,33050:0:0:0:0:
475,192,32670,1,0,0:0:0:0:
36,192,33050,1,0,0:0:0:0:
182,192,33050,1,0,0:0:0:0:
475,192,33050,1,0,0:0:0:0:
256,192,33050,128,0,33240:0:0:0:0:
182,192,33240,1,0,0:0:0:0:
475,192,33240,1,0,0:0:0:0:
109,192,33240,1,0,0:0:0:0:
329,192,33240,128,0,33429:0:0:0:0:
475,192,33429,128,0,33619:0:0:0:0:
109,192,33619,1,0,0:0:0:0:
182,192,33619,1,0,0:0:0:0:
402,192,33619,128,0,33809:0:0:0:0:
36,192,33619,1,0,0:0:0:0:
329,192,33809,128,0,33999:0:0:0:0:
109,192,33999,1,0,0:0:0:0:
182,192,33999,1,0,0:0:0:0:
256,192,33999,128,0,34189:0:0:0:0:
36,192,33999,1,0,0:0:0:0:
475,192,34379,1,0,0:0:0:0:
329,192,34379,1,0,0:0:0:0:
36,192,34758,1,0,0:0:0:0:
402,192,34758,1,0,0:0:0:0:
475,192,34948,1,0,0:0:0:0:
36,192,34948,1,0,0:0:0:0:
402,192,35328,1,0,0:0:0:0:
36,192,35328,128,0,35613:0:0:0:0:
475,192,35518,1,0,0:0:0:0:
36,192,35708,1,0,0:0:0:0:
36,192,35898,1,0,0:0:0:0:
402,192,35898,1,0,0:0:0:0:
475,192,36088,1,0,0:0:0:0:
109,192,36088,1,0,0:0:0:0:
182,192,36277,1,0,0:0:0:0:
402,192,36467,1,0,0:0:0:0:
475,192,36657,1,0,0:0:0:0:
182,192,36657,128,0,37037:0:0:0:0:
402,192,36847,1,0,0:0:0:0:
475,192,37037,1,0,0:0:0:0:
475,192,37417,1,0,0:0:0:0:
329,192,37417,1,0,0:0:0:0:
36,192,37796,1,0,0:0:0:0:
402,192,37796,1,0,0:0:0:0:
475,192,37986,1,0,0:0:0:0:
36,192,37986,1,0,0:0:0:0:
36,192,38366,1,0,0:0:0:0:
402,192,38366,1,0,0:0:0:0:
475,192,38556,1,0,0:0:0:0:
36,192,38556,1,0,0:0:0:0:
36,192,38746,1,0,0:0:0:0:
36,192,38936,1,0,0:0:0:0:
402,192,38936,1,0,0:0:0:0:
475,192,39126,1,0,0:0:0:0:
109,192,39126,1,0,0:0:0:0:
182,192,39315,1,0,0:0:0:0:
402,192,39315,1,0,0:0:0:0:
402,192,39505,1,0,0:0:0:0:
475,192,39695,1,0,0:0:0:0:
182,192,39695,128,0,40075:0:0:0:0:
402,192,39885,1,0,0:0:0:0:
475,192,40075,1,0,0:0:0:0:
329,192,40075,1,0,0:0:0:0:
256,192,40265,1,0,0:0:0:0:
182,192,40455,1,0,0:0:0:0:
329,192,40455,1,0,0:0:0:0:
475,192,40455,1,0,0:0:0:0:
36,192,40834,1,0,0:0:0:0:
402,192,40834,1,0,0:0:0:0:
36,192,41024,1,0,0:0:0:0:
475,192,41024,1,0,0:0:0:0:
36,192,41404,1,0,0:0:0:0:
402,192,41404,1,0,0:0:0:0:
36,192,41594,1,0,0:0:0:0:
475,192,41594,1,0,0:0:0:0:
36,192,41784,1,0,0:0:0:0:
36,192,41974,1,0,0:0:0:0:
402,192,41974,1,0,0:0:0:0:
109,192,42164,1,0,0:0:0:0:
475,192,42164,1,0,0:0:0:0:
182,192,42353,1,0,0:0:0:0:
402,192,42353,1,0,0:0:0:0:
402,192,42543,1,0,0:0:0:0:
182,192,42733,1,0,0:0:0:0:
475,192,42733,1,0,0:0:0:0:
402,192,42923,1,0,0:0:0:0:
182,192,43113,128,0,43493:0:0:0:0:
475,192,43113,1,0,0:0:0:0:
109,192,43493,128,0,44252:0:0:0:0:
329,192,43493,1,0,0:0:0:0:
475,192,43493,1,0,0:0:0:0:
402,192,43683,1,0,0:0:0:0:
402,192,43872,1,0,0:0:0:0:
475,192,44062,1,0,0:0:0:0:
182,192,44252,128,0,45012:0:0:0:0:
402,192,44442,1,0,0:0:0:0:
36,192,44442,1,0,0:0:0:0:
475,192,44632,1,0,0:0:0:0:
109,192,44632,1,0,0:0:0:0:
256,192,45012,128,0,45771:0:0:0:0:
402,192,45012,1,0,0:0:0:0:
36,192,45012,1,0,0:0:0:0:
475,192,45202,1,0,0:0:0:0:
109,192,45202,1,0,0:0:0:0:
402,192,45391,1,0,0:0:0:0:
36,192,45391,1,0,0:0:0:0:
402,192,45581,1,0,0:0:0:0:
36,192,45581,1,0,0:0:0:0:
182,192,45771,128,0,46151:0:0:0:0:
475,192,45771,1,0,0:0:0:0:
109,192,45771,1,0,0:0:0:0:
402,192,45961,1,0,0:0:0:0:
36,192,45961,1,0,0:0:0:0:
475,192,46151,1,0,0:0:0:0:
109,192,46151,1,0,0:0:0:0:
36,192,46151,128,0,46531:0:0:0:0:
475,192,46531,1,0,0:0:0:0:
109,192,46531,1,0,0:0:0:0:
256,192,46531,128,0,48999:0:0:0:0:
36,192,46721,1,0,0:0:0:0:
329,192,46910,1,0,0:0:0:0:
109,192,46910,1,0,0:0:0:0:
475,192,47100,1,0,0:0:0:0:
182,192,47100,1,0,0:0:0:0:
329,192,47480,1,0,0:0:0:0:
36,192,47480,1,0,0:0:0:0:
475,192,47670,1,0,0:0:0:0:
182,192,47670,1,0,0:0:0:0:
329,192,48050,1,0,0:0:0:0:
36,192,48050,1,0,0:0:0:0:
475,192,48240,1,0,0:0:0:0:
182,192,48240,1,0,0:0:0:0:
329,192,48429,1,0,0:0:0:0:
36,192,48429,1,0,0:0:0:0:
329,192,48619,1,0,0:0:0:0:
182,192,48619,1,0,0:0:0:0:
475,192,48809,1,0,0:0:0:0:
109,192,48999,128,0,49189:0:0:0:0:
329,192,48999,1,0,0:0:0:0:
36,192,48999,1,0,0:0:0:0:
402,192,49189,128,0,49379:0:0:0:0:
475,192,49189,1,0,0:0:0:0:
182,192,49189,1,0,0:0:0:0:
329,192,49379,128,0,49569:0:0:0:0:
36,192,49379,1,0,0:0:0:0:
256,192,49569,128,0,52037:0:0:0:0:
475,192,49569,1,0,0:0:0:0:
109,192,49569,1,0,0:0:0:0:
36,192,49758,1,0,0:0:0:0:
329,192,49758,1,0,0:0:0:0:
109,192,49948,1,0,0:0:0:0:
402,192,49948,1,0,0:0:0:0:
182,192,50138,1,0,0:0:0:0:
475,192,50138,1,0,0:0:0:0:
109,192,50518,1,0,0:0:0:0:
402,192,50518,1,0,0:0:0:0:
182,192,50708,1,0,0:0:0:0:
475,192,50708,1,0,0:0:0:0:
109,192,51088,1,0,0:0:0:0:
402,192,51088,1,0,0:0:0:0:
182,192,51277,1,0,0:0:0:0:
475,192,51277,1,0,0:0:0:0:
109,192,51467,1,0,0:0:0:0:
402,192,51467,1,0,0:0:0:0:
182,192,51657,1,0,0:0:0:0:
475,192,51657,1,0,0:0:0:0:
182,192,52037,128,0,52227:0:0:0:0:
402,192,52037,1,0,0:0:0:0:
475,192,52037,1,0,0:0:0:0:
109,192,52227,128,0,52417:0:0:0:0:
329,192,52227,1,0,0:0:0:0:
402,192,52227,1,0,0:0:0:0:
36,192,52417,128,0,52607:0:0:0:0:
256,192,52417,1,0,0:0:0:0:
329,192,52417,1,0,0:0:0:0:
182,192,52607,128,0,55265:0:0:0:0:
329,192,52607,1,0,0:0:0:0:
475,192,52607,128,0,53366:0:0:0:0:
109,192,52607,1,0,0:0:0:0:
402,192,52607,1,0,0:0:0:0:
36,192,52796,1,0,0:0:0:0:
109,192,52986,1,0,0:0:0:0:
256,192,53176,1,0,0:0:0:0:
329,192,53176,1,0,0:0:0:0:
402,192,53366,128,0,53936:0:0:0:0:
36,192,53556,1,0,0:0:0:0:
109,192,53556,1,0,0:0:0:0:
256,192,53746,1,0,0:0:0:0:
329,192,53746,1,0,0:0:0:0:
475,192,53936,128,0,54126:0:0:0:0:
402,192,54126,128,0,54885:0:0:0:0:
36,192,54126,1,0,0:0:0:0:
109,192,54126,1,0,0:0:0:0:
256,192,54315,1,0,0:0:0:0:
329,192,54315,1,0,0:0:0:0:
36,192,54505,1,0,0:0:0:0:
109,192,54505,1,0,0:0:0:0:
256,192,54695,1,0,0:0:0:0:
329,192,54695,1,0,0:0:0:0:
475,192,55075,1,0,0:0:0:0:
329,192,55265,128,0,55645:0:0:0:0:
475,192,55265,1,0,0:0:0:0:
109,192,55265,128,0,55645:0:0:0:0:
475,192,55455,1,0,0:0:0:0:
475,192,55645,128,0,56404:0:0:0:0:
36,192,55645,128,0,58683:0:0:0:0:
182,192,55645,1,0,0:0:0:0:
402,192,55645,1,0,0:0:0:0:
109,192,55834,1,0,0:0:0:0:
256,192,55834,1,0,0:0:0:0:
182,192,56024,1,0,0:0:0:0:
329,192,56024,1,0,0:0:0:0:
256,192,56214,1,0,0:0:0:0:
402,192,56214,1,0,0:0:0:0:
402,192,56404,128,0,58303:0:0:0:0:
109,192,56594,1,0,0:0:0:0:
182,192,56594,1,0,0:0:0:0:
256,192,56784,1,0,0:0:0:0:
329,192,56784,1,0,0:0:0:0:
109,192,57164,1,0,0:0:0:0:
182,192,57164,1,0,0:0:0:0:
256,192,57353,1,0,0:0:0:0:
329,192,57353,1,0,0:0:0:0:
109,192,57543,1,0,0:0:0:0:
182,192,57543,1,0,0:0:0:0:
256,192,57733,1,0,0:0:0:0:
329,192,57733,1,0,0:0:0:0:
475,192,57923,1,0,0:0:0:0:
182,192,57923,1,0,0:0:0:0:
109,192,57923,1,0,0:0:0:0:
109,192,58113,1,0,0:0:0:0:
182,192,58113,1,0,0:0:0:0:
182,192,58303,1,0,0:0:0:0:
109,192,58303,1,0,0:0:0:0:
475,192,58303,1,0,0:0:0:0:
109,192,58683,128,0,61721:0:0:0:0:
256,192,58683,1,0,0:0:0:0:
402,192,58683,1,0,0:0:0:0:
329,192,58683,128,0,61721:0:0:0:0:
475,192,59442,1,0,0:0:0:0:
402,192,59442,1,0,0:0:0:0:
475,192,60202,1,0,0:0:0:0:
402,192,60202,1,0,0:0:0:0:
475,192,60961,1,0,0:0:0:0:
256,192,60961,1,0,0:0:0:0:
402,192,60961,1,0,0:0:0:0:
402,192,61151,1,0,0:0:0:0:
182,192,61151,1,0,0:0:0:0:
36,192,61341,1,0,0:0:0:0:
256,192,61341,1,0,0:0:0:0:
182,192,61531,1,0,0:0:0:0:
402,192,61531,1,0,0:0:0:0:
182,192,61721,128,0,64758:0:0:0:0:
475,192,61721,1,0,0:0:0:0:
256,192,61721,1,0,0:0:0:0:
402,192,61721,1,0,0:0:0:0:
36,192,61721,128,0,64758:0:0:0:0:
475,192,62480,1,0,0:0:0:0:
402,192,62480,1,0,0:0:0:0:
475,192,63240,1,0,0:0:0:0:
402,192,63240,1,0,0:0:0:0:
329,192,63809,1,0,0:0:0:0:
402,192,63809,1,0,0:0:0:0:
256,192,63809,1,0,0:0:0:0:
475,192,63999,1,0,0:0:0:0:
109,192,64189,1,0,0:0:0:0:
256,192,64379,1,0,0:0:0:0:
329,192,64379,1,0,0:0:0:0:
402,192,64379,1,0,0:0:0:0:
256,192,64758,128,0,67796:0:0:0:0:
329,192,64758,1,0,0:0:0:0:
402,192,64758,1,0,0:0:0:0:
109,192,64758,128,0,67796:0:0:0:0:
475,192,65518,1,0,0:0:0:0:
402,192,65518,1,0,0:0:0:0:
475,192,66277,1,0,0:0:0:0:
402,192,66277,1,0,0:0:0:0:
475,192,67037,1,0,0:0:0:0:
329,192,67037,1,0,0:0:0:0:
36,192,67037,1,0,0:0:0:0:
182,192,67227,1,0,0:0:0:0:
402,192,67227,1,0,0:0:0:0:
329,192,67417,1,0,0:0:0:0:
475,192,67417,1,0,0:0:0:0:
402,192,67607,1,0,0:0:0:0:
182,192,67607,1,0,0:0:0:0:
36,192,67796,1,0,0:0:0:0:
475,192,67796,1,0,0:0:0:0:
329,192,67796,1,0,0:0:0:0:
182,192,67796,128,0,68556:0:0:0:0:
402,192,67796,128,0,70834:0:0:0:0:
36,192,68556,128,0,69315:0:0:0:0:
256,192,69315,1,0,0:0:0:0:
109,192,69315,128,0,70075:0:0:0:0:
329,192,69505,1,0,0:0:0:0:
256,192,69695,1,0,0:0:0:0:
329,192,69885,1,0,0:0:0:0:
256,192,70075,1,0,0:0:0:0:
182,192,70075,128,0,70834:0:0:0:0:
36,192,70265,1,0,0:0:0:0:
109,192,70265,1,0,0:0:0:0:
329,192,70265,1,0,0:0:0:0:
36,192,70455,1,0,0:0:0:0:
109,192,70455,1,0,0:0:0:0:
256,192,70455,1,0,0:0:0:0:
36,192,70645,1,0,0:0:0:0:
109,192,70645,1,0,0:0:0:0:
329,192,70645,1,0,0:0:0:0:
256,192,70834,128,0,73493:0:0:0:0:
36,192,70834,128,0,71404:0:0:0:0:
402,192,71214,1,0,0:0:0:0:
475,192,71214,1,0,0:0:0:0:
109,192,71214,1,0,0:0:0:0:
329,192,71404,1,0,0:0:0:0:
402,192,71404,1,0,0:0:0:0:
182,192,71404,128,0,72353:0:0:0:0:
329,192,71784,1,0,0:0:0:0:
402,192,71784,1,0,0:0:0:0:
109,192,71974,1,0,0:0:0:0:
402,192,71974,1,0,0:0:0:0:
475,192,71974,1,0,0:0:0:0:
475,192,72353,128,0,72923:0:0:0:0:
36,192,72353,1,0,0:0:0:0:
36,192,72543,1,0,0:0:0:0:
109,192,72733,1,0,0:0:0:0:
182,192,72733,1,0,0:0:0:0:
402,192,72733,1,0,0:0:0:0:
329,192,72923,128,0,73872:0:0:0:0:
36,192,72923,1,0,0:0:0:0:
36,192,73303,1,0,0:0:0:0:
109,192,73493,1,0,0:0:0:0:
182,192,73493,1,0,0:0:0:0:
402,192,73493,1,0,0:0:0:0:
36,192,73683,1,0,0:0:0:0:
36,192,73872,128,0,74442:0:0:0:0:
109,192,73872,1,0,0:0:0:0:
182,192,73872,1,0,0:0:0:0:
402,192,74252,1,0,0:0:0:0:
256,192,74252,1,0,0:0:0:0:
475,192,74252,1,0,0:0:0:0:
109,192,74442,1,0,0:0:0:0:
329,192,74442,1,0,0:0:0:0:
182,192,74442,128,0,75391:0:0:0:0:
109,192,74822,1,0,0:0:0:0:
329,192,74822,1,0,0:0:0:0:
256,192,75012,1,0,0:0:0:0:
402,192,75012,1,0,0:0:0:0:
475,192,75012,1,0,0:0:0:0:
109,192,75391,128,0,75581:0:0:0:0:
329,192,75391,1,0,0:0:0:0:
36,192,75581,128,0,75771:0:0:0:0:
329,192,75581,1,0,0:0:0:0:
109,192,75771,128,0,75961:0:0:0:0:
402,192,75771,1,0,0:0:0:0:
475,192,75771,1,0,0:0:0:0:
256,192,75771,1,0,0:0:0:0:
256,192,75961,128,0,76151:0:0:0:0:
329,192,75961,1,0,0:0:0:0:
182,192,76151,128,0,76341:0:0:0:0:
109,192,76341,128,0,76531:0:0:0:0:
329,192,76341,1,0,0:0:0:0:
36,192,76531,128,0,76721:0:0:0:0:
402,192,76531,1,0,0:0:0:0:
256,192,76531,1,0,0:0:0:0:
475,192,76531,1,0,0:0:0:0:
329,192,76721,1,0,0:0:0:0:
109,192,76910,128,0,77480:0:0:0:0:
329,192,76910,1,0,0:0:0:0:
36,192,76910,1,0,0:0:0:0:
182,192,76910,1,0,0:0:0:0:
256,192,77290,1,0,0:0:0:0:
402,192,77290,1,0,0:0:0:0:
475,192,77290,1,0,0:0:0:0:
36,192,77480,1,0,0:0:0:0:
329,192,77480,1,0,0:0:0:0:
182,192,77480,128,0,78429:0:0:0:0:
36,192,77860,1,0,0:0:0:0:
329,192,77860,1,0,0:0:0:0:
256,192,78050,1,0,0:0:0:0:
402,192,78050,1,0,0:0:0:0:
475,192,78050,1,0,0:0:0:0:
402,192,78429,128,0,78999:0:0:0:0:
36,192,78429,1,0,0:0:0:0:
109,192,78429,1,0,0:0:0:0:
36,192,78619,1,0,0:0:0:0:
109,192,78619,1,0,0:0:0:0:
256,192,78809,1,0,0:0:0:0:
475,192,78809,1,0,0:0:0:0:
182,192,78809,1,0,0:0:0:0:
329,192,78999,128,0,79948:0:0:0:0:
109,192,78999,1,0,0:0:0:0:
36,192,78999,1,0,0:0:0:0:
182,192,79379,1,0,0:0:0:0:
36,192,79379,1,0,0:0:0:0:
256,192,79569,1,0,0:0:0:0:
402,192,79569,1,0,0:0:0:0:
475,192,79569,1,0,0:0:0:0:
182,192,79758,1,0,0:0:0:0:
36,192,79758,1,0,0:0:0:0:
402,192,79948,128,0,80518:0:0:0:0:
109,192,79948,1,0,0:0:0:0:
256,192,79948,1,0,0:0:0:0:
475,192,80328,1,0,0:0:0:0:
256,192,80328,1,0,0:0:0:0:
109,192,80328,1,0,0:0:0:0:
329,192,80518,128,0,81088:0:0:0:0:
36,192,80518,1,0,0:0:0:0:
182,192,80518,1,0,0:0:0:0:
109,192,80708,1,0,0:0:0:0:
36,192,80898,1,0,0:0:0:0:
182,192,80898,1,0,0:0:0:0:
402,192,81088,128,0,81657:0:0:0:0:
475,192,81088,1,0,0:0:0:0:
109,192,81088,1,0,0:0:0:0:
256,192,81088,1,0,0:0:0:0:
329,192,81657,128,0,81847:0:0:0:0:
109,192,81657,1,0,0:0:0:0:
402,192,81847,128,0,82037:0:0:0:0:
36,192,81847,1,0,0:0:0:0:
182,192,81847,1,0,0:0:0:0:
256,192,81847,1,0,0:0:0:0:
475,192,82037,128,0,82227:0:0:0:0:
109,192,82037,1,0,0:0:0:0:
402,192,82227,128,0,82417:0:0:0:0:
182,192,82227,1,0,0:0:0:0:
329,192,82417,128,0,82607:0:0:0:0:
109,192,82417,1,0,0:0:0:0:
256,192,82607,128,0,82796:0:0:0:0:
36,192,82607,1,0,0:0:0:0:
182,192,82607,1,0,0:0:0:0:
475,192,82607,1,0,0:0:0:0:
109,192,82796,1,0,0:0:0:0:
475,192,82796,1,0,0:0:0:0:
256,192,82986,128,0,83556:0:0:0:0:
36,192,82986,1,0,0:0:0:0:
329,192,82986,1,0,0:0:0:0:
109,192,83366,1,0,0:0:0:0:
402,192,83366,1,0,0:0:0:0:
475,192,83366,1,0,0:0:0:0:
36,192,83556,1,0,0:0:0:0:
182,192,83556,1,0,0:0:0:0:
329,192,83556,128,0,84315:0:0:0:0:
36,192,83936,1,0,0:0:0:0:
182,192,83936,1,0,0:0:0:0:
109,192,84126,1,0,0:0:0:0:
402,192,84126,1,0,0:0:0:0:
475,192,84126,1,0,0:0:0:0:
475,192,84505,128,0,85075:0:0:0:0:
36,192,84505,1,0,0:0:0:0:
182,192,84505,1,0,0:0:0:0:
36,192,84695,1,0,0:0:0:0:
182,192,84695,1,0,0:0:0:0:
109,192,84885,1,0,0:0:0:0:
256,192,84885,1,0,0:0:0:0:
329,192,84885,1,0,0:0:0:0:
402,192,85075,128,0,86024:0:0:0:0:
36,192,85075,1,0,0:0:0:0:
182,192,85075,1,0,0:0:0:0:
36,192,85455,1,0,0:0:0:0:
182,192,85455,1,0,0:0:0:0:
109,192,85645,1,0,0:0:0:0:
256,192,85645,1,0,0:0:0:0:
329,192,85645,1,0,0:0:0:0:
256,192,86024,128,0,86594:0:0:0:0:
36,192,86024,1,0,0:0:0:0:
182,192,86024,1,0,0:0:0:0:
329,192,86024,1,0,0:0:0:0:
109,192,86404,1,0,0:0:0:0:
402,192,86404,1,0,0:0:0:0:
475,192,86404,1,0,0:0:0:0:
36,192,86594,1,0,0:0:0:0:
182,192,86594,1,0,0:0:0:0:
329,192,86594,128,0,87543:0:0:0:0:
36,192,86974,1,0,0:0:0:0:
182,192,86974,1,0,0:0:0:0:
109,192,87164,1,0,0:0:0:0:
402,192,87164,1,0,0:0:0:0:
475,192,87164,1,0,0:0:0:0:
402,192,87543,128,0,87733:0:0:0:0:
109,192,87543,1,0,0:0:0:0:
329,192,87733,128,0,87923:0:0:0:0:
109,192,87733,1,0,0:0:0:0:
402,192,87923,128,0,88113:0:0:0:0:
182,192,87923,1,0,0:0:0:0:
36,192,87923,1,0,0:0:0:0:
256,192,87923,1,0,0:0:0:0:
475,192,88113,128,0,88303:0:0:0:0:
109,192,88113,1,0,0:0:0:0:
402,192,88303,128,0,88493:0:0:0:0:
329,192,88493,128,0,88683:0:0:0:0:
109,192,88493,1,0,0:0:0:0:
256,192,88683,128,0,88872:0:0:0:0:
36,192,88683,1,0,0:0:0:0:
182,192,88683,1,0,0:0:0:0:
475,192,88683,1,0,0:0:0:0:
109,192,88872,1,0,0:0:0:0:
109,192,89062,1,0,0:0:0:0:
36,192,89062,128,0,89632:0:0:0:0:
182,192,89062,1,0,0:0:0:0:
329,192,89062,1,0,0:0:0:0:
256,192,89442,1,0,0:0:0:0:
402,192,89442,1,0,0:0:0:0:
475,192,89442,1,0,0:0:0:0:
182,192,89632,1,0,0:0:0:0:
329,192,89632,1,0,0:0:0:0:
109,192,89632,128,0,90581:0:0:0:0:
182,192,90012,1,0,0:0:0:0:
329,192,90012,1,0,0:0:0:0:
256,192,90202,1,0,0:0:0:0:
402,192,90202,1,0,0:0:0:0:
475,192,90202,1,0,0:0:0:0:
256,192,90581,128,0,91151:0:0:0:0:
329,192,90581,1,0,0:0:0:0:
329,192,90771,1,0,0:0:0:0:
36,192,90961,1,0,0:0:0:0:
402,192,90961,1,0,0:0:0:0:
475,192,90961,1,0,0:0:0:0:
182,192,91151,128,0,92100:0:0:0:0:
329,192,91151,1,0,0:0:0:0:
329,192,91531,1,0,0:0:0:0:
475,192,91721,1,0,0:0:0:0:
402,192,91721,1,0,0:0:0:0:
256,192,91721,1,0,0:0:0:0:
329,192,91910,1,0,0:0:0:0:
36,192,91910,1,0,0:0:0:0:
36,192,92100,1,0,0:0:0:0:
402,192,92100,1,0,0:0:0:0:
475,192,92100,1,0,0:0:0:0:
256,192,92100,128,0,92670:0:0:0:0:
329,192,92290,1,0,0:0:0:0:
329,192,92480,1,0,0:0:0:0:
109,192,92670,128,0,93240:0:0:0:0:
402,192,92670,1,0,0:0:0:0:
475,192,92670,1,0,0:0:0:0:
36,192,92670,1,0,0:0:0:0:
329,192,92860,1,0,0:0:0:0:
329,192,93050,1,0,0:0:0:0:
182,192,93240,128,0,93809:0:0:0:0:
256,192,93240,1,0,0:0:0:0:
402,192,93240,1,0,0:0:0:0:
475,192,93240,1,0,0:0:0:0:
109,192,93809,128,0,93999:0:0:0:0:
329,192,93809,1,0,0:0:0:0:
182,192,93999,128,0,94189:0:0:0:0:
402,192,93999,1,0,0:0:0:0:
475,192,93999,1,0,0:0:0:0:
256,192,93999,1,0,0:0:0:0:
256,192,94189,128,0,94379:0:0:0:0:
329,192,94189,1,0,0:0:0:0:
182,192,94379,128,0,94569:0:0:0:0:
109,192,94569,128,0,94758:0:0:0:0:
329,192,94569,1,0,0:0:0:0:
36,192,94758,128,0,94948:0:0:0:0:
256,192,94758,1,0,0:0:0:0:
402,192,94758,1,0,0:0:0:0:
475,192,94758,1,0,0:0:0:0:
329,192,95138,1,0,0:0:0:0:
475,192,95138,1,0,0:0:0:0:
182,192,95138,1,0,0:0:0:0:
402,192,95328,1,0,0:0:0:0:
329,192,95518,1,0,0:0:0:0:
36,192,95518,1,0,0:0:0:0:
402,192,95708,1,0,0:0:0:0:
36,192,95708,1,0,0:0:0:0:
329,192,95898,1,0,0:0:0:0:
475,192,95898,1,0,0:0:0:0:
256,192,95898,1,0,0:0:0:0:
36,192,96088,128,0,96372:0:0:0:0:
36,192,96467,1,0,0:0:0:0:
402,192,96657,1,0,0:0:0:0:
475,192,96657,1,0,0:0:0:0:
256,192,96657,1,0,0:0:0:0:
36,192,96657,1,0,0:0:0:0:
329,192,96847,1,0,0:0:0:0:
109,192,96847,1,0,0:0:0:0:
256,192,97037,1,0,0:0:0:0:
182,192,97037,1,0,0:0:0:0:
256,192,97227,1,0,0:0:0:0:
402,192,97227,1,0,0:0:0:0:
475,192,97227,1,0,0:0:0:0:
329,192,97417,1,0,0:0:0:0:
182,192,97417,128,0,97796:0:0:0:0:
256,192,97607,1,0,0:0:0:0:
329,192,97796,1,0,0:0:0:0:
402,192,97891,1,0,0:0:0:0:
329,192,97986,1,0,0:0:0:0:
402,192,98081,1,0,0:0:0:0:
182,192,98176,1,0,0:0:0:0:
475,192,98176,1,0,0:0:0:0:
256,192,98176,1,0,0:0:0:0:
329,192,98176,1,0,0:0:0:0:
329,192,98366,1,0,0:0:0:0:
256,192,98556,1,0,0:0:0:0:
36,192,98556,1,0,0:0:0:0:
402,192,98556,1,0,0:0:0:0:
36,192,98746,1,0,0:0:0:0:
475,192,98936,1,0,0:0:0:0:
329,192,98936,1,0,0:0:0:0:
36,192,99126,1,0,0:0:0:0:
256,192,99315,1,0,0:0:0:0:
36,192,99315,1,0,0:0:0:0:
402,192,99315,1,0,0:0:0:0:
36,192,99505,1,0,0:0:0:0:
475,192,99695,1,0,0:0:0:0:
36,192,99695,1,0,0:0:0:0:
329,192,99695,1,0,0:0:0:0:
109,192,99885,1,0,0:0:0:0:
329,192,99885,1,0,0:0:0:0:
256,192,100075,1,0,0:0:0:0:
182,192,100075,1,0,0:0:0:0:
402,192,100075,1,0,0:0:0:0:
475,192,100455,1,0,0:0:0:0:
182,192,100455,128,0,100834:0:0:0:0:
329,192,100455,1,0,0:0:0:0:
256,192,100834,1,0,0:0:0:0:
475,192,100834,1,0,0:0:0:0:
402,192,100834,1,0,0:0:0:0:
329,192,101024,1,0,0:0:0:0:
256,192,101214,1,0,0:0:0:0:
109,192,101214,1,0,0:0:0:0:
36,192,101214,1,0,0:0:0:0:
109,192,101404,1,0,0:0:0:0:
256,192,101594,1,0,0:0:0:0:
475,192,101594,1,0,0:0:0:0:
182,192,101594,1,0,0:0:0:0:
475,192,101784,1,0,0:0:0:0:
109,192,101974,1,0,0:0:0:0:
36,192,101974,1,0,0:0:0:0:
329,192,102164,1,0,0:0:0:0:
109,192,102164,1,0,0:0:0:0:
256,192,102353,1,0,0:0:0:0:
329,192,102353,1,0,0:0:0:0:
182,192,102353,1,0,0:0:0:0:
402,192,102543,1,0,0:0:0:0:
402,192,102733,1,0,0:0:0:0:
109,192,102733,1,0,0:0:0:0:
36,192,102733,1,0,0:0:0:0:
475,192,102923,1,0,0:0:0:0:
36,192,102923,1,0,0:0:0:0:
256,192,103113,1,0,0:0:0:0:
475,192,103113,128,0,103493:0:0:0:0:
182,192,103113,1,0,0:0:0:0:
402,192,103493,1,0,0:0:0:0:
109,192,103493,1,0,0:0:0:0:
36,192,103493,1,0,0:0:0:0:
36,192,103683,1,0,0:0:0:0:
256,192,103872,1,0,0:0:0:0:
329,192,103872,128,0,104252:0:0:0:0:
182,192,103872,1,0,0:0:0:0:
402,192,104252,128,0,105012:0:0:0:0:
182,192,104252,1,0,0:0:0:0:
36,192,104252,1,0,0:0:0:0:
109,192,104442,1,0,0:0:0:0:
256,192,104632,1,0,0:0:0:0:
36,192,104632,1,0,0:0:0:0:
182,192,104632,1,0,0:0:0:0:
475,192,105012,128,0,105771:0:0:0:0:
36,192,105012,1,0,0:0:0:0:
182,192,105012,1,0,0:0:0:0:
109,192,105202,1,0,0:0:0:0:
256,192,105391,1,0,0:0:0:0:
36,192,105391,1,0,0:0:0:0:
182,192,105391,1,0,0:0:0:0:
402,192,105771,128,0,106531:0:0:0:0:
36,192,105771,1,0,0:0:0:0:
182,192,105771,1,0,0:0:0:0:
109,192,105961,1,0,0:0:0:0:
256,192,106151,1,0,0:0:0:0:
36,192,106151,1,0,0:0:0:0:
182,192,106151,1,0,0:0:0:0:
475,192,106531,1,0,0:0:0:0:
256,192,106531,128,0,106910:0:0:0:0:
36,192,106531,1,0,0:0:0:0:
402,192,106721,1,0,0:0:0:0:
109,192,106721,1,0,0:0:0:0:
36,192,106910,1,0,0:0:0:0:
182,192,106910,1,0,0:0:0:0:
329,192,106910,1,0,0:0:0:0:
475,192,106910,1,0,0:0:0:0:
109,192,107100,1,0,0:0:0:0:
402,192,107100,1,0,0:0:0:0:
109,192,107195,1,0,0:0:0:0:
402,192,107195,1,0,0:0:0:0:
36,192,107290,1,0,0:0:0:0:
182,192,107290,1,0,0:0:0:0:
329,192,107290,1,0,0:0:0:0:
475,192,107290,1,0,0:0:0:0:
109,192,107480,1,0,0:0:0:0:
402,192,107480,1,0,0:0:0:0:
256,192,107670,1,0,0:0:0:0:
475,192,107670,1,0,0:0:0:0:
36,192,107670,1,0,0:0:0:0:
182,192,108050,1,0,0:0:0:0:
329,192,108050,1,0,0:0:0:0:
256,192,108429,1,0,0:0:0:0:
402,192,108429,1,0,0:0:0:0:
109,192,108429,1,0,0:0:0:0:
329,192,108809,1,0,0:0:0:0:
475,192,108809,1,0,0:0:0:0:
182,192,108809,1,0,0:0:0:0:
402,192,108999,1,0,0:0:0:0:
256,192,109189,1,0,0:0:0:0:
475,192,109189,1,0,0:0:0:0:
329,192,109189,1,0,0:0:0:0:
109,192,109189,1,0,0:0:0:0:
36,192,109569,1,0,0:0:0:0:
182,192,109569,1,0,0:0:0:0:
329,192,109569,1,0,0:0:0:0:
109,192,109758,1,0,0:0:0:0:
36,192,109948,1,0,0:0:0:0:
182,192,109948,1,0,0:0:0:0:
256,192,109948,1,0,0:0:0:0:
402,192,109948,1,0,0:0:0:0:
475,192,110328,1,0,0:0:0:0:
402,192,110328,1,0,0:0:0:0:
109,192,110328,1,0,0:0:0:0:
182,192,110518,1,0,0:0:0:0:
329,192,110518,1,0,0:0:0:0:
256,192,110708,1,0,0:0:0:0:
109,192,110708,1,0,0:0:0:0:
402,192,110708,1,0,0:0:0:0:
109,192,111088,1,0,0:0:0:0:
402,192,111088,1,0,0:0:0:0:
36,192,111088,1,0,0:0:0:0:
182,192,111277,1,0,0:0:0:0:
329,192,111277,1,0,0:0:0:0:
256,192,111467,1,0,0:0:0:0:
109,192,111467,1,0,0:0:0:0:
402,192,111467,1,0,0:0:0:0:
36,192,111847,1,0,0:0:0:0:
182,192,111847,1,0,0:0:0:0:
329,192,111847,1,0,0:0:0:0:
109,192,112037,1,0,0:0:0:0:
402,192,112037,1,0,0:0:0:0:
256,192,112227,1,0,0:0:0:0:
36,192,112227,1,0,0:0:0:0:
182,192,112227,1,0,0:0:0:0:
329,192,112227,1,0,0:0:0:0:
475,192,112227,1,0,0:0:0:0:
182,192,112607,1,0,0:0:0:0:
329,192,112607,1,0,0:0:0:0:
475,192,112607,1,0,0:0:0:0:
109,192,112796,1,0,0:0:0:0:
402,192,112796,1,0,0:0:0:0:
36,192,112986,1,0,0:0:0:0:
182,192,112986,1,0,0:0:0:0:
256,192,112986,1,0,0:0:0:0:
329,192,112986,1,0,0:0:0:0:
475,192,112986,1,0,0:0:0:0:
329,192,113366,128,0,114126:0:0:0:0:
36,192,113366,1,0,0:0:0:0:
182,192,113366,1,0,0:0:0:0:
109,192,113556,1,0,0:0:0:0:
182,192,113746,1,0,0:0:0:0:
256,192,113746,1,0,0:0:0:0:
36,192,113746,1,0,0:0:0:0:
256,192,114126,128,0,114885:0:0:0:0:
36,192,114126,1,0,0:0:0:0:
182,192,114126,1,0,0:0:0:0:
109,192,114315,1,0,0:0:0:0:
182,192,114505,1,0,0:0:0:0:
402,192,114505,1,0,0:0:0:0:
329,192,114505,1,0,0:0:0:0:
182,192,114885,128,0,115075:0:0:0:0:
329,192,114885,1,0,0:0:0:0:
475,192,114885,1,0,0:0:0:0:
109,192,115075,128,0,115265:0:0:0:0:
402,192,115075,1,0,0:0:0:0:
36,192,115265,128,0,115455:0:0:0:0:
256,192,115265,1,0,0:0:0:0:
329,192,115265,1,0,0:0:0:0:
475,192,115265,1,0,0:0:0:0:
109,192,115455,128,0,115645:0:0:0:0:
36,192,115645,128,0,115834:0:0:0:0:
329,192,115645,1,0,0:0:0:0:
475,192,115645,1,0,0:0:0:0:
402,192,115834,1,0,0:0:0:0:
36,192,116024,128,0,116404:0:0:0:0:
329,192,116024,1,0,0:0:0:0:
109,192,116024,1,0,0:0:0:0:
256,192,116024,1,0,0:0:0:0:
475,192,116024,1,0,0:0:0:0:
329,192,116404,128,0,117164:0:0:0:0:
109,192,116404,1,0,0:0:0:0:
402,192,116404,1,0,0:0:0:0:
109,192,116594,1,0,0:0:0:0:
402,192,116594,1,0,0:0:0:0:
256,192,116784,1,0,0:0:0:0:
36,192,116784,1,0,0:0:0:0:
475,192,116784,1,0,0:0:0:0:
256,192,117164,128,0,119442:0:0:0:0:
36,192,117164,1,0,0:0:0:0:
475,192,117164,1,0,0:0:0:0:
109,192,117353,1,0,0:0:0:0:
402,192,117353,1,0,0:0:0:0:
182,192,117543,1,0,0:0:0:0:
36,192,117543,1,0,0:0:0:0:
329,192,117543,1,0,0:0:0:0:
475,192,117543,1,0,0:0:0:0:
475,192,117923,1,0,0:0:0:0:
36,192,117923,1,0,0:0:0:0:
329,192,118113,1,0,0:0:0:0:
182,192,118113,1,0,0:0:0:0:
109,192,118303,1,0,0:0:0:0:
36,192,118303,1,0,0:0:0:0:
402,192,118303,1,0,0:0:0:0:
475,192,118303,1,0,0:0:0:0:
36,192,118683,1,0,0:0:0:0:
109,192,118683,1,0,0:0:0:0:
402,192,118683,1,0,0:0:0:0:
475,192,118683,1,0,0:0:0:0:
36,192,119062,1,0,0:0:0:0:
109,192,119062,1,0,0:0:0:0:
402,192,119062,1,0,0:0:0:0:
475,192,119062,1,0,0:0:0:0:
36,192,119442,128,0,119822:0:0:0:0:
329,192,119442,1,0,0:0:0:0:
402,192,119442,1,0,0:0:0:0:
182,192,119442,1,0,0:0:0:0:
475,192,119822,1,0,0:0:0:0:
36,192,120012,1,0,0:0:0:0:
182,192,120202,128,0,121341:0:0:0:0:
475,192,120202,1,0,0:0:0:0:
329,192,120202,1,0,0:0:0:0:
402,192,120581,1,0,0:0:0:0:
329,192,120961,1,0,0:0:0:0:
475,192,120961,1,0,0:0:0:0:
109,192,121341,128,0,121910:0:0:0:0:
402,192,121341,1,0,0:0:0:0:
256,192,121721,1,0,0:0:0:0:
329,192,121721,1,0,0:0:0:0:
475,192,121721,1,0,0:0:0:0:
36,192,121910,128,0,122480:0:0:0:0:
182,192,121910,1,0,0:0:0:0:
402,192,121910,1,0,0:0:0:0:
109,192,122480,128,0,125518:0:0:0:0:
182,192,122480,1,0,0:0:0:0:
256,192,122480,1,0,0:0:0:0:
402,192,122480,1,0,0:0:0:0:
475,192,122480,1,0,0:0:0:0:
329,192,122860,1,0,0:0:0:0:
182,192,123240,128,0,125518:0:0:0:0:
402,192,123240,1,0,0:0:0:0:
475,192,123240,1,0,0:0:0:0:
329,192,123619,1,0,0:0:0:0:
402,192,123999,1,0,0:0:0:0:
475,192,123999,1,0,0:0:0:0:
329,192,124379,1,0,0:0:0:0:
329,192,124758,1,0,0:0:0:0:
475,192,124758,1,0,0:0:0:0:
256,192,124948,1,0,0:0:0:0:
402,192,124948,1,0,0:0:0:0:
36,192,125138,1,0,0:0:0:0:
475,192,125138,1,0,0:0:0:0:
329,192,125138,1,0,0:0:0:0:
256,192,125328,1,0,0:0:0:0:
402,192,125328,1,0,0:0:0:0:
329,192,125518,128,0,128556:0:0:0:0:
36,192,125518,1,0,0:0:0:0:
475,192,125518,1,0,0:0:0:0:
109,192,125898,1,0,0:0:0:0:
475,192,126277,128,0,128556:0:0:0:0:
36,192,126277,1,0,0:0:0:0:
182,192,126277,1,0,0:0:0:0:
109,192,126657,1,0,0:0:0:0:
36,192,127037,1,0,0:0:0:0:
182,192,127037,1,0,0:0:0:0:
402,192,127417,1,0,0:0:0:0:
109,192,127417,1,0,0:0:0:0:
36,192,127607,1,0,0:0:0:0:
182,192,127607,1,0,0:0:0:0:
256,192,127796,1,0,0:0:0:0:
36,192,127796,1,0,0:0:0:0:
182,192,127796,1,0,0:0:0:0:
402,192,127986,1,0,0:0:0:0:
109,192,128176,1,0,0:0:0:0:
36,192,128366,128,0,128556:0:0:0:0:
182,192,128556,128,0,129315:0:0:0:0:
329,192,128936,1,0,0:0:0:0:
402,192,128936,1,0,0:0:0:0:
475,192,128936,1,0,0:0:0:0:
109,192,129315,128,0,130075:0:0:0:0:
402,192,129315,1,0,0:0:0:0:
329,192,129695,1,0,0:0:0:0:
402,192,129695,1,0,0:0:0:0:
475,192,129695,1,0,0:0:0:0:
182,192,130075,128,0,130834:0:0:0:0:
256,192,130075,1,0,0:0:0:0:
402,192,130075,1,0,0:0:0:0:
36,192,130455,1,0,0:0:0:0:
109,192,130455,1,0,0:0:0:0:
402,192,130455,1,0,0:0:0:0:
36,192,130645,1,0,0:0:0:0:
109,192,130645,1,0,0:0:0:0:
256,192,130834,128,0,131594:0:0:0:0:
36,192,130834,1,0,0:0:0:0:
109,192,130834,1,0,0:0:0:0:
402,192,131024,1,0,0:0:0:0:
475,192,131024,1,0,0:0:0:0:
475,192,131214,1,0,0:0:0:0:
402,192,131214,1,0,0:0:0:0:
402,192,131404,1,0,0:0:0:0:
475,192,131404,1,0,0:0:0:0:
329,192,131594,128,0,136151:0:0:0:0:
402,192,133113,128,0,136151:0:0:0:0:
36,192,133113,128,0,133683:0:0:0:0:
182,192,133113,1,0,0:0:0:0:
475,192,133493,1,0,0:0:0:0:
109,192,133683,128,0,134632:0:0:0:0:
182,192,133683,1,0,0:0:0:0:
182,192,134062,1,0,0:0:0:0:
475,192,134252,1,0,0:0:0:0:
256,192,134632,128,0,135202:0:0:0:0:
36,192,134632,1,0,0:0:0:0:
36,192,134822,1,0,0:0:0:0:
109,192,135012,1,0,0:0:0:0:
182,192,135202,128,0,136151:0:0:0:0:
36,192,135202,1,0,0:0:0:0:
475,192,135391,1,0,0:0:0:0:
475,192,135581,1,0,0:0:0:0:
36,192,135581,1,0,0:0:0:0:
109,192,135771,1,0,0:0:0:0:
36,192,135961,1,0,0:0:0:0:
475,192,136151,1,0,0:0:0:0:
36,192,136151,1,0,0:0:0:0:
109,192,136151,128,0,136721:0:0:0:0:
475,192,136531,1,0,0:0:0:0:
256,192,136531,1,0,0:0:0:0:
402,192,136531,1,0,0:0:0:0:
182,192,136721,128,0,137670:0:0:0:0:
329,192,136721,1,0,0:0:0:0:
329,192,137100,1,0,0:0:0:0:
256,192,137290,1,0,0:0:0:0:
402,192,137290,1,0,0:0:0:0:
475,192,137290,1,0,0:0:0:0:
109,192,137670,128,0,137860:0:0:0:0:
402,192,137670,1,0,0:0:0:0:
36,192,137860,128,0,138050:0:0:0:0:
402,192,137860,1,0,0:0:0:0:
109,192,138050,128,0,138240:0:0:0:0:
256,192,138050,1,0,0:0:0:0:
475,192,138050,1,0,0:0:0:0:
329,192,138050,1,0,0:0:0:0:
256,192,138240,128,0,138429:0:0:0:0:
402,192,138240,1,0,0:0:0:0:
182,192,138429,128,0,138619:0:0:0:0:
109,192,138619,128,0,138809:0:0:0:0:
475,192,138619,1,0,0:0:0:0:
329,192,138619,1,0,0:0:0:0:
36,192,138809,128,0,138999:0:0:0:0:
256,192,138809,1,0,0:0:0:0:
475,192,138809,1,0,0:0:0:0:
402,192,138809,1,0,0:0:0:0:
475,192,139189,1,0,0:0:0:0:
36,192,139189,128,0,139758:0:0:0:0:
182,192,139189,1,0,0:0:0:0:
329,192,139189,1,0,0:0:0:0:
475,192,139569,1,0,0:0:0:0:
256,192,139569,1,0,0:0:0:0:
329,192,139569,1,0,0:0:0:0:
109,192,139758,128,0,140708:0:0:0:0:
182,192,139758,1,0,0:0:0:0:
402,192,139758,1,0,0:0:0:0:
402,192,140138,1,0,0:0:0:0:
182,192,140138,1,0,0:0:0:0:
256,192,140328,1,0,0:0:0:0:
475,192,140328,1,0,0:0:0:0:
329,192,140328,1,0,0:0:0:0:
475,192,140708,128,0,141277:0:0:0:0:
109,192,140898,1,0,0:0:0:0:
256,192,141088,1,0,0:0:0:0:
182,192,141088,1,0,0:0:0:0:
36,192,141088,1,0,0:0:0:0:
402,192,141277,128,0,142227:0:0:0:0:
109,192,141277,1,0,0:0:0:0:
109,192,141467,1,0,0:0:0:0:
109,192,141657,1,0,0:0:0:0:
475,192,141657,1,0,0:0:0:0:
36,192,141847,1,0,0:0:0:0:
182,192,141847,1,0,0:0:0:0:
256,192,141847,1,0,0:0:0:0:
475,192,141847,1,0,0:0:0:0:
475,192,142227,128,0,142796:0:0:0:0:
329,192,142227,128,0,142796:0:0:0:0:
109,192,142227,1,0,0:0:0:0:
182,192,142227,1,0,0:0:0:0:
36,192,142607,1,0,0:0:0:0:
256,192,142607,1,0,0:0:0:0:
402,192,142796,128,0,143366:0:0:0:0:
36,192,142796,128,0,143366:0:0:0:0:
182,192,142796,1,0,0:0:0:0:
109,192,142796,1,0,0:0:0:0:
182,192,143176,1,0,0:0:0:0:
182,192,143366,128,0,143936:0:0:0:0:
109,192,143366,1,0,0:0:0:0:
256,192,143366,1,0,0:0:0:0:
329,192,143366,128,0,144315:0:0:0:0:
402,192,143746,1,0,0:0:0:0:
109,192,143936,128,0,144126:0:0:0:0:
402,192,143936,1,0,0:0:0:0:
182,192,144126,128,0,144315:0:0:0:0:
256,192,144126,1,0,0:0:0:0:
475,192,144126,1,0,0:0:0:0:
256,192,144315,128,0,144505:0:0:0:0:
402,192,144315,1,0,0:0:0:0:
182,192,144505,128,0,144695:0:0:0:0:
402,192,144505,1,0,0:0:0:0:
329,192,144505,1,0,0:0:0:0:
109,192,144695,128,0,144885:0:0:0:0:
329,192,144695,1,0,0:0:0:0:
402,192,144695,1,0,0:0:0:0:
36,192,144885,128,0,145075:0:0:0:0:
256,192,144885,1,0,0:0:0:0:
475,192,144885,1,0,0:0:0:0:
182,192,144885,1,0,0:0:0:0:
329,192,145075,1,0,0:0:0:0:
402,192,145075,1,0,0:0:0:0:
36,192,145265,128,0,145834:0:0:0:0:
182,192,145265,1,0,0:0:0:0:
402,192,145265,1,0,0:0:0:0:
475,192,145645,1,0,0:0:0:0:
256,192,145645,1,0,0:0:0:0:
329,192,145645,1,0,0:0:0:0:
109,192,145834,128,0,146784:0:0:0:0:
182,192,145834,1,0,0:0:0:0:
402,192,145834,1,0,0:0:0:0:
182,192,146214,1,0,0:0:0:0:
402,192,146214,1,0,0:0:0:0:
256,192,146404,1,0,0:0:0:0:
329,192,146404,1,0,0:0:0:0:
475,192,146404,1,0,0:0:0:0:
182,192,146784,128,0,147353:0:0:0:0:
402,192,146784,1,0,0:0:0:0:
402,192,146974,1,0,0:0:0:0:
256,192,147164,1,0,0:0:0:0:
475,192,147164,1,0,0:0:0:0:
329,192,147164,1,0,0:0:0:0:
109,192,147353,128,0,148303:0:0:0:0:
402,192,147353,1,0,0:0:0:0:
329,192,147543,1,0,0:0:0:0:
475,192,147733,1,0,0:0:0:0:
329,192,147733,1,0,0:0:0:0:
256,192,147923,1,0,0:0:0:0:
475,192,147923,1,0,0:0:0:0:
329,192,147923,1,0,0:0:0:0:
182,192,147923,1,0,0:0:0:0:
475,192,148303,1,0,0:0:0:0:
36,192,148303,128,0,148872:0:0:0:0:
329,192,148303,1,0,0:0:0:0:
256,192,148683,1,0,0:0:0:0:
402,192,148683,1,0,0:0:0:0:
109,192,148872,128,0,149822:0:0:0:0:
329,192,148872,1,0,0:0:0:0:
475,192,148872,1,0,0:0:0:0:
182,192,148872,1,0,0:0:0:0:
182,192,149252,1,0,0:0:0:0:
329,192,149252,1,0,0:0:0:0:
475,192,149252,1,0,0:0:0:0:
256,192,149442,1,0,0:0:0:0:
402,192,149442,1,0,0:0:0:0:
182,192,149822,128,0,150012:0:0:0:0:
329,192,149822,1,0,0:0:0:0:
402,192,149822,1,0,0:0:0:0:
109,192,150012,128,0,150202:0:0:0:0:
329,192,150012,1,0,0:0:0:0:
402,192,150012,1,0,0:0:0:0:
182,192,150202,128,0,150391:0:0:0:0:
256,192,150202,1,0,0:0:0:0:
475,192,150202,1,0,0:0:0:0:
36,192,150202,1,0,0:0:0:0:
256,192,150391,128,0,150581:0:0:0:0:
329,192,150391,1,0,0:0:0:0:
402,192,150391,1,0,0:0:0:0:
182,192,150581,128,0,150771:0:0:0:0:
109,192,150771,128,0,150961:0:0:0:0:
329,192,150771,1,0,0:0:0:0:
475,192,150771,1,0,0:0:0:0:
402,192,150771,1,0,0:0:0:0:
36,192,150961,128,0,151151:0:0:0:0:
256,192,150961,1,0,0:0:0:0:
329,192,150961,1,0,0:0:0:0:
475,192,150961,1,0,0:0:0:0:
475,192,151341,1,0,0:0:0:0:
36,192,151341,128,0,151910:0:0:0:0:
182,192,151341,1,0,0:0:0:0:
329,192,151341,1,0,0:0:0:0:
256,192,151721,1,0,0:0:0:0:
402,192,151721,1,0,0:0:0:0:
475,192,151721,1,0,0:0:0:0:
109,192,151910,128,0,152860:0:0:0:0:
182,192,151910,1,0,0:0:0:0:
329,192,151910,1,0,0:0:0:0:
182,192,152290,1,0,0:0:0:0:
329,192,152290,1,0,0:0:0:0:
256,192,152480,1,0,0:0:0:0:
402,192,152480,1,0,0:0:0:0:
475,192,152480,1,0,0:0:0:0:
475,192,152860,128,0,153429:0:0:0:0:
182,192,152860,1,0,0:0:0:0:
329,192,152860,1,0,0:0:0:0:
36,192,153050,1,0,0:0:0:0:
182,192,153050,1,0,0:0:0:0:
256,192,153240,1,0,0:0:0:0:
109,192,153240,1,0,0:0:0:0:
329,192,153240,1,0,0:0:0:0:
402,192,153429,128,0,154379:0:0:0:0:
36,192,153429,1,0,0:0:0:0:
182,192,153429,1,0,0:0:0:0:
109,192,153619,1,0,0:0:0:0:
36,192,153809,1,0,0:0:0:0:
182,192,153809,1,0,0:0:0:0:
475,192,153809,1,0,0:0:0:0:
109,192,153999,1,0,0:0:0:0:
256,192,153999,1,0,0:0:0:0:
329,192,153999,1,0,0:0:0:0:
475,192,153999,1,0,0:0:0:0:
475,192,154379,128,0,154948:0:0:0:0:
182,192,154379,128,0,154948:0:0:0:0:
109,192,154379,1,0,0:0:0:0:
109,192,154569,1,0,0:0:0:0:
256,192,154758,1,0,0:0:0:0:
329,192,154758,1,0,0:0:0:0:
402,192,154948,128,0,155518:0:0:0:0:
36,192,154948,128,0,155518:0:0:0:0:
109,192,154948,1,0,0:0:0:0:
329,192,155518,128,0,156467:0:0:0:0:
182,192,155518,1,0,0:0:0:0:
256,192,155518,1,0,0:0:0:0:
109,192,155518,128,0,156088:0:0:0:0:
36,192,156088,128,0,156277:0:0:0:0:
109,192,156277,128,0,156467:0:0:0:0:
402,192,156277,1,0,0:0:0:0:
475,192,156277,1,0,0:0:0:0:
256,192,156467,128,0,156657:0:0:0:0:
182,192,156657,128,0,156847:0:0:0:0:
402,192,156657,1,0,0:0:0:0:
475,192,156657,1,0,0:0:0:0:
109,192,156847,128,0,157037:0:0:0:0:
402,192,156847,1,0,0:0:0:0:
475,192,156847,1,0,0:0:0:0:
36,192,157037,128,0,157227:0:0:0:0:
256,192,157037,1,0,0:0:0:0:
329,192,157037,128,0,157227:0:0:0:0:
402,192,157037,1,0,0:0:0:0:
475,192,157037,1,0,0:0:0:0:
256,192,157417,1,0,0:0:0:0:
475,192,157796,1,0,0:0:0:0:
36,192,157796,1,0,0:0:0:0:
256,192,157986,1,0,0:0:0:0:
329,192,157986,1,0,0:0:0:0:
182,192,158176,1,0,0:0:0:0:
256,192,158366,1,0,0:0:0:0:
36,192,158366,1,0,0:0:0:0:
475,192,158556,1,0,0:0:0:0:
36,192,158556,1,0,0:0:0:0:
329,192,158746,1,0,0:0:0:0:
182,192,158936,1,0,0:0:0:0:
256,192,159126,1,0,0:0:0:0:
36,192,159126,1,0,0:0:0:0:
475,192,159315,1,0,0:0:0:0:
36,192,159315,1,0,0:0:0:0:
36,192,159505,1,0,0:0:0:0:
256,192,159695,1,0,0:0:0:0:
402,192,159695,1,0,0:0:0:0:
256,192,159885,1,0,0:0:0:0:
475,192,160075,1,0,0:0:0:0:
329,192,160075,1,0,0:0:0:0:
256,192,160455,1,0,0:0:0:0:
36,192,160645,1,0,0:0:0:0:
475,192,160834,1,0,0:0:0:0:
109,192,160834,1,0,0:0:0:0:
256,192,161024,1,0,0:0:0:0:
329,192,161024,1,0,0:0:0:0:
182,192,161214,1,0,0:0:0:0:
256,192,161404,1,0,0:0:0:0:
109,192,161404,1,0,0:0:0:0:
475,192,161594,1,0,0:0:0:0:
182,192,161784,1,0,0:0:0:0:
402,192,161784,1,0,0:0:0:0:
182,192,161974,1,0,0:0:0:0:
36,192,162164,1,0,0:0:0:0:
475,192,162353,1,0,0:0:0:0:
36,192,162353,1,0,0:0:0:0:
36,192,162543,1,0,0:0:0:0:
256,192,162733,1,0,0:0:0:0:
402,192,162733,1,0,0:0:0:0:
475,192,163113,1,0,0:0:0:0:
329,192,163113,1,0,0:0:0:0:
182,192,163303,1,0,0:0:0:0:
256,192,163493,1,0,0:0:0:0:
109,192,163683,1,0,0:0:0:0:
475,192,163872,1,0,0:0:0:0:
109,192,163872,1,0,0:0:0:0:
256,192,164062,1,0,0:0:0:0:
402,192,164062,1,0,0:0:0:0:
182,192,164252,1,0,0:0:0:0:
256,192,164442,1,0,0:0:0:0:
329,192,164442,1,0,0:0:0:0:
475,192,164632,1,0,0:0:0:0:
182,192,164822,1,0,0:0:0:0:
109,192,164822,1,0,0:0:0:0:
182,192,165012,1,0,0:0:0:0:
256,192,165202,1,0,0:0:0:0:
36,192,165202,1,0,0:0:0:0:
475,192,165391,1,0,0:0:0:0:
36,192,165391,1,0,0:0:0:0:
109,192,165581,1,0,0:0:0:0:
256,192,165771,1,0,0:0:0:0:
402,192,165771,1,0,0:0:0:0:
256,192,165961,1,0,0:0:0:0:
329,192,165961,1,0,0:0:0:0:
475,192,166151,1,0,0:0:0:0:
402,192,166151,1,0,0:0:0:0:
329,192,166341,1,0,0:0:0:0:
256,192,166531,128,0,167100:0:0:0:0:
475,192,166910,1,0,0:0:0:0:
402,192,166910,1,0,0:0:0:0:
109,192,167100,128,0,167670:0:0:0:0:
182,192,167100,1,0,0:0:0:0:
329,192,167480,1,0,0:0:0:0:
475,192,167670,1,0,0:0:0:0:
182,192,167670,128,0,168240:0:0:0:0:
329,192,167670,1,0,0:0:0:0:
402,192,167860,1,0,0:0:0:0:
109,192,168240,128,0,168429:0:0:0:0:
329,192,168240,1,0,0:0:0:0:
475,192,168429,1,0,0:0:0:0:
182,192,168429,128,0,168619:0:0:0:0:
329,192,168429,1,0,0:0:0:0:
256,192,168619,128,0,168809:0:0:0:0:
329,192,168619,1,0,0:0:0:0:
182,192,168809,128,0,168999:0:0:0:0:
402,192,168809,1,0,0:0:0:0:
109,192,168999,128,0,169189:0:0:0:0:
402,192,168999,1,0,0:0:0:0:
475,192,169189,1,0,0:0:0:0:
36,192,169189,128,0,169379:0:0:0:0:
329,192,169189,1,0,0:0:0:0:
256,192,169569,1,0,0:0:0:0:
36,192,169758,1,0,0:0:0:0:
475,192,169948,1,0,0:0:0:0:
36,192,169948,1,0,0:0:0:0:
256,192,170138,1,0,0:0:0:0:
329,192,170138,1,0,0:0:0:0:
256,192,170518,1,0,0:0:0:0:
36,192,170518,1,0,0:0:0:0:
475,192,170708,1,0,0:0:0:0:
36,192,170708,1,0,0:0:0:0:
109,192,170898,1,0,0:0:0:0:
256,192,171277,1,0,0:0:0:0:
36,192,171277,1,0,0:0:0:0:
475,192,171467,1,0,0:0:0:0:
36,192,171467,1,0,0:0:0:0:
36,192,171657,1,0,0:0:0:0:
256,192,171847,1,0,0:0:0:0:
109,192,171847,1,0,0:0:0:0:
256,192,172037,1,0,0:0:0:0:
475,192,172227,1,0,0:0:0:0:
402,192,172227,1,0,0:0:0:0:
256,192,172607,1,0,0:0:0:0:
36,192,172796,1,0,0:0:0:0:
475,192,172986,1,0,0:0:0:0:
36,192,172986,1,0,0:0:0:0:
256,192,173176,1,0,0:0:0:0:
36,192,173176,1,0,0:0:0:0:
256,192,173556,1,0,0:0:0:0:
109,192,173556,1,0,0:0:0:0:
475,192,173746,1,0,0:0:0:0:
109,192,173746,1,0,0:0:0:0:
329,192,173936,1,0,0:0:0:0:
109,192,174315,1,0,0:0:0:0:
475,192,174505,1,0,0:0:0:0:
109,192,174505,1,0,0:0:0:0:
109,192,174695,1,0,0:0:0:0:
256,192,174885,1,0,0:0:0:0:
402,192,174885,1,0,0:0:0:0:
475,192,175265,1,0,0:0:0:0:
329,192,175265,1,0,0:0:0:0:
256,192,175645,1,0,0:0:0:0:
36,192,175834,1,0,0:0:0:0:
475,192,176024,1,0,0:0:0:0:
36,192,176024,1,0,0:0:0:0:
256,192,176214,1,0,0:0:0:0:
109,192,176214,1,0,0:0:0:0:
256,192,176594,1,0,0:0:0:0:
182,192,176594,1,0,0:0:0:0:
475,192,176784,1,0,0:0:0:0:
182,192,176784,1,0,0:0:0:0:
109,192,176974,1,0,0:0:0:0:
256,192,177353,1,0,0:0:0:0:
36,192,177353,1,0,0:0:0:0:
475,192,177543,1,0,0:0:0:0:
36,192,177543,1,0,0:0:0:0:
36,192,177733,1,0,0:0:0:0:
256,192,177923,1,0,0:0:0:0:
402,192,177923,1,0,0:0:0:0:
256,192,178113,1,0,0:0:0:0:
329,192,178113,1,0,0:0:0:0:
475,192,178303,1,0,0:0:0:0:
182,192,178303,1,0,0:0:0:0:
109,192,178493,1,0,0:0:0:0:
256,192,178683,128,0,179252:0:0:0:0:
475,192,179062,1,0,0:0:0:0:
402,192,179062,1,0,0:0:0:0:
109,192,179252,128,0,179822:0:0:0:0:
329,192,179252,1,0,0:0:0:0:
475,192,179822,1,0,0:0:0:0:
182,192,179822,128,0,180391:0:0:0:0:
402,192,179822,1,0,0:0:0:0:
329,192,180012,1,0,0:0:0:0:
256,192,180391,128,0,180581:0:0:0:0:
475,192,180581,1,0,0:0:0:0:
182,192,180581,128,0,180771:0:0:0:0:
402,192,180581,1,0,0:0:0:0:
329,192,180581,1,0,0:0:0:0:
109,192,180771,128,0,180961:0:0:0:0:
36,192,180961,1,0,0:0:0:0:
256,192,180961,1,0,0:0:0:0:
329,192,180961,1,0,0:0:0:0:
36,192,181151,1,0,0:0:0:0:
182,192,181151,1,0,0:0:0:0:
402,192,181151,1,0,0:0:0:0:
475,192,181341,1,0,0:0:0:0:
36,192,181341,1,0,0:0:0:0:
256,192,181341,1,0,0:0:0:0:
329,192,181341,1,0,0:0:0:0:
109,192,181531,1,0,0:0:0:0:
402,192,181531,1,0,0:0:0:0:
256,192,181721,128,0,182290:0:0:0:0:
36,192,181721,1,0,0:0:0:0:
329,192,181721,1,0,0:0:0:0:
182,192,182100,1,0,0:0:0:0:
402,192,182100,1,0,0:0:0:0:
329,192,182290,128,0,183240:0:0:0:0:
109,192,182290,1,0,0:0:0:0:
475,192,182290,1,0,0:0:0:0:
109,192,182670,1,0,0:0:0:0:
475,192,182670,1,0,0:0:0:0:
182,192,182860,1,0,0:0:0:0:
256,192,182860,1,0,0:0:0:0:
109,192,183240,1,0,0:0:0:0:
402,192,183240,128,0,183809:0:0:0:0:
36,192,183240,1,0,0:0:0:0:
109,192,183429,1,0,0:0:0:0:
36,192,183429,1,0,0:0:0:0:
256,192,183619,1,0,0:0:0:0:
182,192,183619,1,0,0:0:0:0:
329,192,183809,128,0,184758:0:0:0:0:
36,192,183809,1,0,0:0:0:0:
109,192,183809,1,0,0:0:0:0:
109,192,184189,1,0,0:0:0:0:
475,192,184189,1,0,0:0:0:0:
36,192,184189,1,0,0:0:0:0:
182,192,184379,1,0,0:0:0:0:
475,192,184379,1,0,0:0:0:0:
256,192,184379,1,0,0:0:0:0:
475,192,184758,128,0,186657:0:0:0:0:
256,192,184758,128,0,185328:0:0:0:0:
36,192,184758,1,0,0:0:0:0:
182,192,184758,1,0,0:0:0:0:
402,192,185138,1,0,0:0:0:0:
109,192,185138,1,0,0:0:0:0:
329,192,185328,128,0,186277:0:0:0:0:
36,192,185328,1,0,0:0:0:0:
182,192,185328,1,0,0:0:0:0:
36,192,185708,1,0,0:0:0:0:
182,192,185708,1,0,0:0:0:0:
109,192,185898,1,0,0:0:0:0:
402,192,185898,1,0,0:0:0:0:
402,192,186277,128,0,186467:0:0:0:0:
36,192,186277,1,0,0:0:0:0:
182,192,186277,1,0,0:0:0:0:
329,192,186467,128,0,186657:0:0:0:0:
36,192,186467,1,0,0:0:0:0:
182,192,186467,1,0,0:0:0:0:
402,192,186657,128,0,186847:0:0:0:0:
109,192,186657,1,0,0:0:0:0:
256,192,186657,1,0,0:0:0:0:
475,192,186847,128,0,187037:0:0:0:0:
36,192,186847,1,0,0:0:0:0:
182,192,186847,1,0,0:0:0:0:
402,192,187037,128,0,187227:0:0:0:0:
109,192,187037,1,0,0:0:0:0:
329,192,187227,128,0,187417:0:0:0:0:
475,192,187227,1,0,0:0:0:0:
36,192,187227,1,0,0:0:0:0:
256,192,187417,128,0,187607:0:0:0:0:
475,192,187417,1,0,0:0:0:0:
109,192,187417,1,0,0:0:0:0:
182,192,187417,1,0,0:0:0:0:
36,192,187796,128,0,188366:0:0:0:0:
475,192,187796,1,0,0:0:0:0:
329,192,187796,1,0,0:0:0:0:
182,192,187796,1,0,0:0:0:0:
256,192,188176,1,0,0:0:0:0:
402,192,188176,1,0,0:0:0:0:
109,192,188366,128,0,189315:0:0:0:0:
182,192,188366,1,0,0:0:0:0:
329,192,188366,1,0,0:0:0:0:
182,192,188746,1,0,0:0:0:0:
329,192,188746,1,0,0:0:0:0:
256,192,188936,1,0,0:0:0:0:
402,192,188936,1,0,0:0:0:0:
256,192,189315,128,0,189885:0:0:0:0:
36,192,189315,1,0,0:0:0:0:
329,192,189315,1,0,0:0:0:0:
36,192,189505,1,0,0:0:0:0:
329,192,189505,1,0,0:0:0:0:
109,192,189695,1,0,0:0:0:0:
402,192,189695,1,0,0:0:0:0:
182,192,189885,128,0,190834:0:0:0:0:
36,192,189885,1,0,0:0:0:0:
329,192,189885,1,0,0:0:0:0:
402,192,190075,1,0,0:0:0:0:
475,192,190265,1,0,0:0:0:0:
36,192,190265,1,0,0:0:0:0:
475,192,190455,1,0,0:0:0:0:
109,192,190455,1,0,0:0:0:0:
329,192,190455,1,0,0:0:0:0:
256,192,190455,1,0,0:0:0:0:
475,192,190834,128,0,191404:0:0:0:0:
109,192,190834,128,0,191404:0:0:0:0:
329,192,190834,1,0,0:0:0:0:
329,192,191024,1,0,0:0:0:0:
256,192,191214,1,0,0:0:0:0:
402,192,191404,128,0,191974:0:0:0:0:
36,192,191404,128,0,191974:0:0:0:0:
329,192,191404,1,0,0:0:0:0:
329,192,191974,128,0,192733:0:0:0:0:
109,192,191974,128,0,192543:0:0:0:0:
182,192,191974,1,0,0:0:0:0:
256,192,191974,1,0,0:0:0:0:
36,192,192543,128,0,192733:0:0:0:0:
182,192,192543,1,0,0:0:0:0:
256,192,192543,1,0,0:0:0:0:
109,192,192733,128,0,192923:0:0:0:0:
475,192,192733,1,0,0:0:0:0:
402,192,192733,1,0,0:0:0:0:
329,192,192923,1,0,0:0:0:0:
256,192,192923,128,0,193113:0:0:0:0:
475,192,193113,128,0,193303:0:0:0:0:
182,192,193113,128,0,193303:0:0:0:0:
402,192,193303,128,0,193493:0:0:0:0:
109,192,193303,128,0,193493:0:0:0:0:
329,192,193493,128,0,193683:0:0:0:0:
36,192,193493,128,0,193683:0:0:0:0:
256,192,193493,1,0,0:0:0:0:
402,192,193683,128,0,194062:0:0:0:0:
182,192,193683,1,0,0:0:0:0:
36,192,193872,128,0,194442:0:0:0:0:
109,192,193872,1,0,0:0:0:0:
475,192,194062,128,0,194252:0:0:0:0:
402,192,194252,128,0,196531:0:0:0:0:
256,192,194252,1,0,0:0:0:0:
329,192,194252,1,0,0:0:0:0:
109,192,194442,128,0,195391:0:0:0:0:
182,192,194442,1,0,0:0:0:0:
182,192,194822,1,0,0:0:0:0:
256,192,195012,1,0,0:0:0:0:
329,192,195012,1,0,0:0:0:0:
256,192,195391,128,0,195961:0:0:0:0:
36,192,195391,1,0,0:0:0:0:
329,192,195771,1,0,0:0:0:0:
109,192,195771,1,0,0:0:0:0:
182,192,195961,128,0,196910:0:0:0:0:
36,192,195961,1,0,0:0:0:0:
475,192,196341,1,0,0:0:0:0:
36,192,196341,1,0,0:0:0:0:
475,192,196531,1,0,0:0:0:0:
109,192,196531,1,0,0:0:0:0:
329,192,196531,1,0,0:0:0:0:
402,192,196721,1,0,0:0:0:0:
475,192,196910,1,0,0:0:0:0:
36,192,196910,128,0,197480:0:0:0:0:
402,192,196910,1,0,0:0:0:0:
256,192,197290,1,0,0:0:0:0:
329,192,197290,1,0,0:0:0:0:
475,192,197290,1,0,0:0:0:0:
109,192,197480,128,0,198429:0:0:0:0:
402,192,197480,1,0,0:0:0:0:
402,192,197860,1,0,0:0:0:0:
329,192,198050,1,0,0:0:0:0:
256,192,198050,1,0,0:0:0:0:
475,192,198050,1,0,0:0:0:0:
475,192,198240,128,0,198619:0:0:0:0:
182,192,198429,128,0,198619:0:0:0:0:
36,192,198429,1,0,0:0:0:0:
109,192,198619,128,0,198809:0:0:0:0:
402,192,198619,1,0,0:0:0:0:
36,192,198619,1,0,0:0:0:0:
182,192,198809,128,0,198999:0:0:0:0:
402,192,198809,1,0,0:0:0:0:
256,192,198809,1,0,0:0:0:0:
256,192,198999,128,0,199189:0:0:0:0:
329,192,198999,1,0,0:0:0:0:
182,192,199189,128,0,199379:0:0:0:0:
402,192,199189,1,0,0:0:0:0:
36,192,199189,1,0,0:0:0:0:
109,192,199379,128,0,199569:0:0:0:0:
36,192,199379,1,0,0:0:0:0:
36,192,199569,128,0,199758:0:0:0:0:
475,192,199569,1,0,0:0:0:0:
256,192,199569,1,0,0:0:0:0:
182,192,199758,1,0,0:0:0:0:
475,192,199948,128,0,200233:0:0:0:0:
36,192,199948,128,0,200518:0:0:0:0:
182,192,199948,1,0,0:0:0:0:
402,192,200233,128,0,200328:0:0:0:0:
329,192,200328,128,0,201847:0:0:0:0:
256,192,200328,1,0,0:0:0:0:
109,192,200518,128,0,201467:0:0:0:0:
182,192,200518,1,0,0:0:0:0:
402,192,200518,1,0,0:0:0:0:
182,192,200898,1,0,0:0:0:0:
402,192,200898,1,0,0:0:0:0:
256,192,201088,1,0,0:0:0:0:
475,192,201467,128,0,202037:0:0:0:0:
36,192,201467,1,0,0:0:0:0:
182,192,201467,1,0,0:0:0:0:
36,192,201657,1,0,0:0:0:0:
182,192,201657,1,0,0:0:0:0:
109,192,201847,1,0,0:0:0:0:
256,192,201847,1,0,0:0:0:0:
402,192,202037,128,0,202986:0:0:0:0:
36,192,202227,1,0,0:0:0:0:
182,192,202227,1,0,0:0:0:0:
475,192,202417,1,0,0:0:0:0:
475,192,202607,1,0,0:0:0:0:
109,192,202607,1,0,0:0:0:0:
256,192,202607,1,0,0:0:0:0:
475,192,202986,128,0,203556:0:0:0:0:
109,192,202986,128,0,203556:0:0:0:0:
329,192,202986,1,0,0:0:0:0:
256,192,202986,1,0,0:0:0:0:
182,192,203176,1,0,0:0:0:0:
182,192,203366,1,0,0:0:0:0:
402,192,203556,128,0,204126:0:0:0:0:
36,192,203556,128,0,204126:0:0:0:0:
256,192,203556,1,0,0:0:0:0:
182,192,203746,1,0,0:0:0:0:
182,192,203936,1,0,0:0:0:0:
329,192,204126,128,0,205075:0:0:0:0:
109,192,204126,128,0,204695:0:0:0:0:
256,192,204126,1,0,0:0:0:0:
475,192,204126,1,0,0:0:0:0:
402,192,204505,1,0,0:0:0:0:
36,192,204695,128,0,204885:0:0:0:0:
109,192,204885,128,0,205075:0:0:0:0:
402,192,204885,1,0,0:0:0:0:
256,192,205075,128,0,205265:0:0:0:0:
182,192,205265,128,0,205455:0:0:0:0:
475,192,205265,1,0,0:0:0:0:
109,192,205455,128,0,205645:0:0:0:0:
36,192,205645,128,0,205834:0:0:0:0:
256,192,205645,1,0,0:0:0:0:
329,192,205645,1,0,0:0:0:0:
475,192,205645,1,0,0:0:0:0:
475,192,206024,128,0,206594:0:0:0:0:
36,192,206024,1,0,0:0:0:0:
329,192,206024,1,0,0:0:0:0:
182,192,206024,1,0,0:0:0:0:
109,192,206214,1,0,0:0:0:0:
256,192,206214,1,0,0:0:0:0:
182,192,206404,1,0,0:0:0:0:
329,192,206594,128,0,207164:0:0:0:0:
109,192,206594,1,0,0:0:0:0:
256,192,206594,1,0,0:0:0:0:
36,192,206594,1,0,0:0:0:0:
182,192,206784,1,0,0:0:0:0:
182,192,206974,1,0,0:0:0:0:
402,192,207164,128,0,207733:0:0:0:0:
36,192,207164,1,0,0:0:0:0:
109,192,207164,1,0,0:0:0:0:
256,192,207164,1,0,0:0:0:0:
182,192,207353,1,0,0:0:0:0:
329,192,207733,128,0,207923:0:0:0:0:
256,192,207733,1,0,0:0:0:0:
36,192,207733,1,0,0:0:0:0:
182,192,207733,1,0,0:0:0:0:
402,192,207923,128,0,208113:0:0:0:0:
109,192,207923,1,0,0:0:0:0:
475,192,208113,128,0,208303:0:0:0:0:
402,192,208303,128,0,208493:0:0:0:0:
36,192,208303,1,0,0:0:0:0:
109,192,208303,1,0,0:0:0:0:
329,192,208493,128,0,208683:0:0:0:0:
36,192,208493,1,0,0:0:0:0:
109,192,208493,1,0,0:0:0:0:
256,192,208683,128,0,208872:0:0:0:0:
36,192,208683,1,0,0:0:0:0:
109,192,208683,1,0,0:0:0:0:
402,192,208683,1,0,0:0:0:0:
475,192,208683,1,0,0:0:0:0:
475,192,209062,128,0,209442:0:0:0:0:
36,192,209062,1,0,0:0:0:0:
182,192,209062,1,0,0:0:0:0:
329,192,209062,1,0,0:0:0:0:
182,192,209442,1,0,0:0:0:0:
402,192,209442,1,0,0:0:0:0:
36,192,209632,1,0,0:0:0:0:
109,192,209632,1,0,0:0:0:0:
329,192,209632,1,0,0:0:0:0:
36,192,210012,1,0,0:0:0:0:
109,192,210012,1,0,0:0:0:0:
329,192,210012,1,0,0:0:0:0:
109,192,210202,1,0,0:0:0:0:
329,192,210202,1,0,0:0:0:0:
182,192,210391,1,0,0:0:0:0:
402,192,210391,1,0,0:0:0:0:
36,192,210771,1,0,0:0:0:0:
256,192,210771,1,0,0:0:0:0:
182,192,210961,1,0,0:0:0:0:
329,192,210961,1,0,0:0:0:0:
109,192,211151,1,0,0:0:0:0:
402,192,211151,1,0,0:0:0:0:
256,192,211341,1,0,0:0:0:0:
36,192,211341,1,0,0:0:0:0:
182,192,211341,1,0,0:0:0:0:
329,192,211341,1,0,0:0:0:0:
475,192,211341,1,0,0:0:0:0:
256,192,211531,1,0,0:0:0:0:
36,192,211531,1,0,0:0:0:0:
182,192,211531,1,0,0:0:0:0:
329,192,211531,1,0,0:0:0:0:
475,192,211531,1,0,0:0:0:0:
256,192,211721,128,0,212100:0:0:0:0:
36,192,211721,1,0,0:0:0:0:
475,192,211721,1,0,0:0:0:0:
109,192,211721,128,0,212100:0:0:0:0:
402,192,211721,128,0,212100:0:0:0:0:
