osu file format v14

[General]
AudioFilename: audio.mp3
AudioLeadIn: 0
PreviewTime: 39745
Countdown: 0
SampleSet: Soft
StackLeniency: 0.7
Mode: 3
LetterboxInBreaks: 0
SpecialStyle: 0
WidescreenStoryboard: 0

[Editor]
DistanceSpacing: 0.6
BeatDivisor: 4
GridSize: 4
TimelineZoom: 2.399998

[Metadata]
Title:Mama Minta Pulsa (Speed Up Ver.)
TitleUnicode:Mama Minta Pulsa (Speed Up Ver.)
Artist:Siti Badriah
ArtistUnicode:Siti Badriah
Creator:Draftnell
Version:Hard
Source:
Tags:Dangdut di publikasikan dari NAGASWARA Endang Raes nightcore mix pop bahasa indonesia cut short version top 2016 dugem alsty-
BeatmapID:1129050
BeatmapSetID:532917

[Difficulty]
HPDrainRate:7.5
CircleSize:4
OverallDifficulty:8
ApproachRate:5
SliderMultiplier:1.4
SliderTickRate:1

[Events]
//Background and Video events
0,0,"BG.png",0,0
//Break Periods
//Storyboard Layer 0 (Background)
//Storyboard Layer 1 (Fail)
//Storyboard Layer 2 (Pass)
//Storyboard Layer 3 (Foreground)
//Storyboard Sound Samples

[TimingPoints]
5334,352.941176470588,4,2,1,50,1,0
40628,-100,4,2,1,50,0,1
63216,-100,4,2,1,50,0,0

[HitObjects]
448,192,4451,5,0,0:0:0:0:
320,192,4539,1,0,0:0:0:0:
192,192,4628,1,0,0:0:0:0:
320,192,4804,1,0,0:0:0:0:
64,192,4981,1,0,0:0:0:0:
448,192,5157,1,0,0:0:0:0:
192,192,5334,1,2,0:0:0:0:
64,192,5334,1,0,0:0:0:0:
320,192,5598,1,0,0:0:0:0:
64,192,5863,1,2,0:0:0:0:
192,192,5951,1,0,0:0:0:0:
320,192,6039,1,0,0:0:0:0:
64,192,6216,1,2,0:0:0:0:
192,192,6392,1,8,0:0:0:0:
448,192,6392,1,0,0:0:0:0:
320,192,6569,1,2,0:0:0:0:
64,192,6745,1,2,0:0:0:0:
448,192,7010,1,0,0:0:0:0:
320,192,7275,1,2,0:0:0:0:
192,192,7363,1,0,0:0:0:0:
320,192,7451,1,0,0:0:0:0:
64,192,7628,1,2,0:0:0:0:
448,192,7804,1,8,0:0:0:0:
320,192,7804,1,0,0:0:0:0:
192,192,7981,1,2,0:0:0:0:
64,192,8157,1,2,0:0:0:0:
320,192,8422,1,0,0:0:0:0:
448,192,8686,1,2,0:0:0:0:
320,192,8775,1,0,0:0:0:0:
192,192,8863,1,0,0:0:0:0:
448,192,9039,1,2,0:0:0:0:
192,192,9216,1,0,0:0:0:0:
64,192,9216,1,8,0:0:0:0:
320,192,9392,1,2,0:0:0:0:
192,192,9569,1,2,0:0:0:0:
448,192,9833,1,0,0:0:0:0:
192,192,10098,1,2,0:0:0:0:
320,192,10186,1,0,0:0:0:0:
192,192,10275,1,0,0:0:0:0:
448,192,10451,1,2,0:0:0:0:
320,192,10628,1,8,0:0:0:0:
64,192,10628,1,0,0:0:0:0:
192,192,10804,1,2,0:0:0:0:
320,192,10981,1,2,0:0:0:0:
192,192,11245,1,0,0:0:0:0:
64,192,11510,1,2,0:0:0:0:
192,192,11598,1,0,0:0:0:0:
320,192,11686,1,0,0:0:0:0:
448,192,11863,1,2,0:0:0:0:
192,192,12039,1,8,0:0:0:0:
320,192,12039,1,0,0:0:0:0:
64,192,12216,1,2,0:0:0:0:
320,192,12392,1,2,0:0:0:0:
448,192,12392,1,0,0:0:0:0:
64,192,12569,1,2,0:0:0:0:
192,192,12569,1,0,0:0:0:0:
448,192,12745,1,2,0:0:0:0:
320,192,12745,1,8,0:0:0:0:
64,192,12922,1,2,0:0:0:0:
192,192,12922,1,0,0:0:0:0:
320,192,13098,1,2,0:0:0:0:
448,192,13098,1,0,0:0:0:0:
192,192,13275,1,2,0:0:0:0:
64,192,13275,1,0,0:0:0:0:
320,192,13451,1,8,0:0:0:0:
448,192,13451,1,2,0:0:0:0:
192,192,13628,1,2,0:0:0:0:
64,192,13628,1,0,0:0:0:0:
320,192,13804,1,2,0:0:0:0:
448,192,13804,1,0,0:0:0:0:
64,192,13892,1,2,0:0:0:0:
192,192,13981,1,2,0:0:0:0:
320,192,14069,1,2,0:0:0:0:
448,192,14157,1,8,0:0:0:0:
64,192,14157,1,2,0:0:0:0:
192,192,14245,1,2,0:0:0:0:
448,192,14333,1,2,0:0:0:0:
320,192,14422,1,2,0:0:0:0:
192,192,14510,1,0,0:0:0:0:
64,192,14510,1,2,0:0:0:0:
448,192,14598,1,2,0:0:0:0:
320,192,14686,1,2,0:0:0:0:
192,192,14686,1,0,0:0:0:0:
64,192,14775,1,2,0:0:0:0:
448,192,14863,1,8,0:0:0:0:
192,192,14863,1,2,0:0:0:0:
320,192,14951,1,2,0:0:0:0:
64,192,15039,1,2,0:0:0:0:
192,192,15128,1,2,0:0:0:0:
448,192,15216,1,4,0:0:0:0:
320,192,15216,1,0,0:0:0:0:
192,192,15569,1,0,0:0:0:0:
192,192,15922,1,0,0:0:0:0:
64,192,16628,1,2,0:0:0:0:
448,192,16628,1,4,0:0:0:0:
320,192,16628,1,0,0:0:0:0:
192,192,16804,1,0,0:0:0:0:
320,192,16981,1,8,0:0:0:0:
64,192,16981,1,0,0:0:0:0:
448,192,17157,1,2,0:0:0:0:
64,192,17333,1,0,0:0:0:0:
192,192,17422,1,2,0:0:0:0:
320,192,17510,1,2,0:0:0:0:
192,192,17686,1,8,0:0:0:0:
64,192,17686,1,0,0:0:0:0:
64,192,17863,1,2,0:0:0:0:
448,192,17863,1,0,0:0:0:0:
192,192,18039,1,2,0:0:0:0:
320,192,18039,1,0,0:0:0:0:
64,192,18216,1,0,0:0:0:0:
320,192,18392,1,8,0:0:0:0:
448,192,18392,1,0,0:0:0:0:
192,192,18569,1,2,0:0:0:0:
448,192,18745,1,0,0:0:0:0:
320,192,18833,1,2,0:0:0:0:
192,192,18922,1,2,0:0:0:0:
448,192,19098,1,8,0:0:0:0:
64,192,19098,1,0,0:0:0:0:
448,192,19275,1,2,0:0:0:0:
192,192,19275,1,0,0:0:0:0:
64,192,19451,1,2,0:0:0:0:
320,192,19451,1,0,0:0:0:0:
192,192,19628,1,0,0:0:0:0:
448,192,19804,1,0,0:0:0:0:
64,192,19804,1,8,0:0:0:0:
320,192,19981,1,2,0:0:0:0:
64,192,20157,1,0,0:0:0:0:
448,192,20245,1,2,0:0:0:0:
192,192,20333,1,2,0:0:0:0:
320,192,20510,1,8,0:0:0:0:
448,192,20510,1,0,0:0:0:0:
320,192,20686,1,2,0:0:0:0:
192,192,20686,1,0,0:0:0:0:
64,192,20863,1,2,0:0:0:0:
448,192,20863,1,0,0:0:0:0:
192,192,21039,1,0,0:0:0:0:
320,192,21216,1,8,0:0:0:0:
64,192,21216,1,0,0:0:0:0:
448,192,21392,1,2,0:0:0:0:
192,192,21569,1,0,0:0:0:0:
320,192,21657,1,2,0:0:0:0:
192,192,21745,1,2,0:0:0:0:
64,192,21922,1,8,0:0:0:0:
448,192,21922,1,0,0:0:0:0:
192,192,22098,1,2,0:0:0:0:
320,192,22098,1,0,0:0:0:0:
64,192,22275,1,2,0:0:0:0:
448,192,22275,1,0,0:0:0:0:
192,192,22451,1,0,0:0:0:0:
320,192,22628,1,8,0:0:0:0:
448,192,22628,1,0,0:0:0:0:
64,192,22804,1,2,0:0:0:0:
448,192,22981,1,0,0:0:0:0:
320,192,23069,1,2,0:0:0:0:
192,192,23157,1,2,0:0:0:0:
64,192,23333,1,8,0:0:0:0:
320,192,23333,1,0,0:0:0:0:
448,192,23510,1,2,0:0:0:0:
64,192,23510,1,0,0:0:0:0:
192,192,23686,1,2,0:0:0:0:
448,192,23686,1,0,0:0:0:0:
320,192,23863,1,0,0:0:0:0:
64,192,24039,1,8,0:0:0:0:
448,192,24039,1,0,0:0:0:0:
192,192,24216,1,2,0:0:0:0:
320,192,24392,1,0,0:0:0:0:
64,192,24481,1,2,0:0:0:0:
448,192,24569,1,2,0:0:0:0:
192,192,24745,1,8,0:0:0:0:
320,192,24745,1,0,0:0:0:0:
64,192,24922,1,2,0:0:0:0:
192,192,24922,1,0,0:0:0:0:
320,192,25098,1,2,0:0:0:0:
448,192,25098,1,0,0:0:0:0:
192,192,25275,1,0,0:0:0:0:
64,192,25451,1,8,0:0:0:0:
448,192,25451,1,0,0:0:0:0:
320,192,25628,1,2,0:0:0:0:
64,192,25804,1,0,0:0:0:0:
192,192,25892,1,2,0:0:0:0:
320,192,25981,1,2,0:0:0:0:
192,192,26157,1,8,0:0:0:0:
448,192,26157,1,0,0:0:0:0:
64,192,26333,1,2,0:0:0:0:
192,192,26422,1,8,0:0:0:0:
320,192,26422,1,0,0:0:0:0:
64,192,26686,1,4,0:0:0:0:
320,192,26686,1,2,0:0:0:0:
448,192,26686,1,0,0:0:0:0:
192,192,27039,1,2,0:0:0:0:
64,192,27039,1,4,0:0:0:0:
448,192,27039,1,0,0:0:0:0:
320,192,27216,1,2,0:0:0:0:
64,192,27216,1,4,0:0:0:0:
448,192,27216,1,0,0:0:0:0:
192,192,27392,1,8,0:0:0:0:
320,192,27481,1,8,0:0:0:0:
448,192,27569,1,8,0:0:0:0:
320,192,27745,1,8,0:0:0:0:
192,192,27833,1,8,0:0:0:0:
64,192,27922,1,2,0:0:0:0:
448,192,27922,1,4,0:0:0:0:
192,192,28098,1,0,0:0:0:0:
448,192,28275,1,8,0:0:0:0:
64,192,28275,1,0,0:0:0:0:
320,192,28451,1,2,0:0:0:0:
64,192,28628,1,0,0:0:0:0:
192,192,28716,1,2,0:0:0:0:
320,192,28804,1,2,0:0:0:0:
64,192,28981,1,8,0:0:0:0:
448,192,28981,1,0,0:0:0:0:
320,192,29157,1,0,0:0:0:0:
64,192,29157,1,2,0:0:0:0:
192,192,29333,1,2,0:0:0:0:
320,192,29333,1,0,0:0:0:0:
448,192,29510,1,0,0:0:0:0:
320,192,29686,1,8,0:0:0:0:
64,192,29686,1,0,0:0:0:0:
192,192,29863,1,2,0:0:0:0:
448,192,30039,1,0,0:0:0:0:
320,192,30128,1,2,0:0:0:0:
192,192,30216,1,2,0:0:0:0:
64,192,30392,1,8,0:0:0:0:
448,192,30392,1,0,0:0:0:0:
448,192,30569,1,0,0:0:0:0:
320,192,30569,1,2,0:0:0:0:
64,192,30745,1,2,0:0:0:0:
320,192,30745,1,0,0:0:0:0:
192,192,30922,1,0,0:0:0:0:
320,192,31098,1,0,0:0:0:0:
448,192,31098,1,8,0:0:0:0:
64,192,31275,1,2,0:0:0:0:
320,192,31451,1,0,0:0:0:0:
192,192,31539,1,2,0:0:0:0:
320,192,31628,1,2,0:0:0:0:
192,192,31804,1,8,0:0:0:0:
64,192,31804,1,0,0:0:0:0:
64,192,31981,1,2,0:0:0:0:
448,192,31981,1,0,0:0:0:0:
448,192,32157,1,2,0:0:0:0:
192,192,32157,1,0,0:0:0:0:
320,192,32333,1,0,0:0:0:0:
192,192,32510,1,8,0:0:0:0:
64,192,32510,1,0,0:0:0:0:
448,192,32686,1,2,0:0:0:0:
192,192,32863,1,0,0:0:0:0:
320,192,32951,1,2,0:0:0:0:
192,192,33039,1,2,0:0:0:0:
320,192,33216,1,8,0:0:0:0:
448,192,33216,1,0,0:0:0:0:
64,192,33392,1,2,0:0:0:0:
448,192,33392,1,0,0:0:0:0:
320,192,33569,1,2,0:0:0:0:
192,192,33569,1,0,0:0:0:0:
64,192,33745,1,0,0:0:0:0:
192,192,33922,1,8,0:0:0:0:
448,192,33922,1,0,0:0:0:0:
320,192,34098,1,2,0:0:0:0:
192,192,34275,1,0,0:0:0:0:
448,192,34363,1,2,0:0:0:0:
64,192,34451,1,2,0:0:0:0:
320,192,34628,1,8,0:0:0:0:
192,192,34628,1,0,0:0:0:0:
448,192,34804,1,2,0:0:0:0:
320,192,34804,1,0,0:0:0:0:
192,192,34981,1,2,0:0:0:0:
64,192,34981,1,0,0:0:0:0:
448,192,35157,1,0,0:0:0:0:
320,192,35333,1,8,0:0:0:0:
64,192,35333,1,0,0:0:0:0:
192,192,35510,1,2,0:0:0:0:
448,192,35686,1,0,0:0:0:0:
64,192,35775,1,2,0:0:0:0:
320,192,35863,1,2,0:0:0:0:
64,192,36039,1,8,0:0:0:0:
192,192,36039,1,0,0:0:0:0:
320,192,36216,1,0,0:0:0:0:
192,192,36216,1,2,0:0:0:0:
64,192,36392,1,2,0:0:0:0:
448,192,36392,1,0,0:0:0:0:
192,192,36569,1,8,0:0:0:0:
320,192,36569,1,0,0:0:0:0:
64,192,36745,1,8,0:0:0:0:
448,192,36745,1,0,0:0:0:0:
192,192,36922,1,8,0:0:0:0:
320,192,36922,1,2,0:0:0:0:
64,192,37098,1,8,0:0:0:0:
448,192,37098,1,0,0:0:0:0:
192,192,37275,1,8,0:0:0:0:
320,192,37275,1,2,0:0:0:0:
64,192,37451,1,8,0:0:0:0:
448,192,37451,1,0,0:0:0:0:
192,192,37628,1,2,0:0:0:0:
320,192,37628,1,0,0:0:0:0:
64,192,37804,1,8,0:0:0:0:
448,192,37804,1,2,0:0:0:0:
320,192,37892,1,8,0:0:0:0:
192,192,37981,1,8,0:0:0:0:
64,192,38069,1,8,0:0:0:0:
448,192,38157,1,2,0:0:0:0:
320,192,38157,1,8,0:0:0:0:
192,192,38245,1,8,0:0:0:0:
64,192,38333,1,8,0:0:0:0:
448,192,38422,1,8,0:0:0:0:
320,192,38510,1,2,0:0:0:0:
192,192,38510,1,8,0:0:0:0:
64,192,38686,1,8,0:0:0:0:
192,192,38686,1,2,0:0:0:0:
448,192,38863,1,8,0:0:0:0:
320,192,38863,1,2,0:0:0:0:
320,192,39039,1,2,0:0:0:0:
192,192,39039,1,8,0:0:0:0:
64,192,39216,1,4,0:0:0:0:
448,192,39216,1,0,0:0:0:0:
320,192,39745,1,0,0:0:0:0:
320,192,39922,1,0,0:0:0:0:
64,192,40098,1,0,0:0:0:0:
448,192,40275,1,0,0:0:0:0:
320,192,40451,1,0,0:0:0:0:
64,192,40628,1,4,0:0:0:0:
448,192,40628,1,2,0:0:0:0:
192,192,40628,1,0,0:0:0:0:
192,192,40804,1,0,0:0:0:0:
320,192,40981,1,0,0:0:0:40:LR_Clap Med .wav
64,192,40981,1,0,0:0:0:0:
448,192,40981,1,0,0:0:0:0:
448,192,41157,1,2,0:0:0:0:
64,192,41333,1,0,0:0:0:0:
192,192,41422,1,2,0:0:0:0:
320,192,41510,1,2,0:0:0:0:
192,192,41686,1,0,0:0:0:40:LR_Clap Med .wav
64,192,41686,1,0,0:0:0:0:
448,192,41686,1,0,0:0:0:0:
320,192,41863,1,2,0:0:0:0:
192,192,41863,1,0,0:0:0:0:
64,192,42039,1,2,0:0:0:0:
448,192,42039,1,0,0:0:0:0:
320,192,42216,1,0,0:0:0:0:
192,192,42392,1,0,0:0:0:40:LR_Clap Med .wav
64,192,42392,1,0,0:0:0:0:
320,192,42392,1,0,0:0:0:0:
448,192,42569,1,2,0:0:0:0:
192,192,42745,1,0,0:0:0:0:
320,192,42833,1,2,0:0:0:0:
192,192,42922,1,2,0:0:0:0:
64,192,43098,1,0,0:0:0:40:LR_Clap Med .wav
320,192,43098,1,0,0:0:0:0:
448,192,43098,1,0,0:0:0:0:
64,192,43275,1,0,0:0:0:0:
192,192,43275,1,2,0:0:0:0:
320,192,43451,1,2,0:0:0:0:
448,192,43451,1,0,0:0:0:0:
64,192,43628,1,0,0:0:0:0:
192,192,43804,1,0,0:0:0:40:LR_Clap Med .wav
320,192,43804,1,0,0:0:0:0:
448,192,43804,1,0,0:0:0:0:
192,192,43981,1,2,0:0:0:0:
448,192,44157,1,0,0:0:0:0:
64,192,44245,1,2,0:0:0:0:
320,192,44333,1,2,0:0:0:0:
64,192,44510,1,0,0:0:0:40:LR_Clap Med .wav
448,192,44510,1,0,0:0:0:0:
192,192,44510,1,0,0:0:0:0:
64,192,44686,1,2,0:0:0:0:
320,192,44686,1,0,0:0:0:0:
192,192,44863,1,2,0:0:0:0:
448,192,44863,1,2,0:0:0:0:
320,192,45039,1,0,0:0:0:0:
192,192,45128,1,0,0:0:0:0:
64,192,45216,1,0,0:0:0:40:LR_Clap Med .wav
448,192,45216,1,0,0:0:0:0:
320,192,45304,1,0,0:0:0:0:
192,192,45392,1,2,0:0:0:0:
448,192,45569,128,0,45745:0:0:0:0:
64,192,45745,1,2,0:0:0:0:
192,192,45922,1,0,0:0:0:40:LR_Clap Med .wav
320,192,45922,1,0,0:0:0:0:
64,192,46098,1,0,0:0:0:40:LR_Clap Med .wav
448,192,46098,1,2,0:0:0:0:
192,192,46186,1,0,0:0:0:40:LR_Clap Med .wav
320,192,46186,1,0,0:0:0:0:
64,192,46275,1,2,0:0:0:0:
448,192,46275,1,4,0:0:0:0:
320,192,46451,1,0,0:0:0:0:
192,192,46628,1,0,0:0:0:40:LR_Clap Med .wav
64,192,46628,1,0,0:0:0:0:
448,192,46628,1,0,0:0:0:0:
448,192,46804,1,2,0:0:0:0:
64,192,46981,1,0,0:0:0:0:
192,192,47069,1,2,0:0:0:0:
320,192,47157,1,2,0:0:0:0:
64,192,47333,1,0,0:0:0:40:LR_Clap Med .wav
192,192,47333,1,0,0:0:0:0:
448,192,47333,1,0,0:0:0:0:
320,192,47510,1,2,0:0:0:0:
192,192,47510,1,0,0:0:0:0:
64,192,47686,1,2,0:0:0:0:
448,192,47686,1,0,0:0:0:0:
320,192,47863,1,0,0:0:0:0:
320,192,48039,1,0,0:0:0:40:LR_Clap Med .wav
64,192,48039,1,0,0:0:0:0:
192,192,48039,1,0,0:0:0:0:
448,192,48216,1,2,0:0:0:0:
192,192,48392,1,0,0:0:0:0:
320,192,48481,1,2,0:0:0:0:
192,192,48569,1,2,0:0:0:0:
448,192,48745,1,0,0:0:0:40:LR_Clap Med .wav
320,192,48745,1,0,0:0:0:0:
64,192,48745,1,0,0:0:0:0:
64,192,48922,1,2,0:0:0:0:
192,192,48922,1,0,0:0:0:0:
320,192,49098,1,2,0:0:0:0:
448,192,49098,1,0,0:0:0:0:
64,192,49275,1,0,0:0:0:0:
192,192,49451,1,0,0:0:0:40:LR_Clap Med .wav
320,192,49451,1,0,0:0:0:0:
448,192,49451,1,0,0:0:0:0:
192,192,49628,1,2,0:0:0:0:
448,192,49804,1,0,0:0:0:0:
64,192,49892,1,2,0:0:0:0:
320,192,49981,1,2,0:0:0:0:
64,192,50157,1,0,0:0:0:40:LR_Clap Med .wav
192,192,50157,1,0,0:0:0:0:
448,192,50157,1,0,0:0:0:0:
320,192,50333,1,2,0:0:0:0:
64,192,50333,1,0,0:0:0:0:
448,192,50510,1,2,0:0:0:0:
192,192,50510,1,0,0:0:0:0:
320,192,50686,1,0,0:0:0:0:
192,192,50775,1,0,0:0:0:0:
448,192,50863,1,0,0:0:0:40:LR_Clap Med .wav
64,192,50863,1,0,0:0:0:0:
320,192,50951,1,0,0:0:0:0:
192,192,51039,1,2,0:0:0:0:
64,192,51216,128,0,51392:0:0:0:50:LR_Clap Med .wav
448,192,51392,1,0,0:0:0:40:LR_Clap Med .wav
320,192,51392,1,0,0:0:0:0:
192,192,51481,1,0,0:0:0:40:LR_Clap Med .wav
64,192,51481,1,0,0:0:0:0:
320,192,51569,1,0,0:0:0:40:LR_Clap Med .wav
448,192,51569,1,0,0:0:0:0:
64,192,51745,1,0,0:0:0:40:LR_Clap Med .wav
192,192,51745,1,0,0:0:0:0:
320,192,51833,1,0,0:0:0:40:LR_Clap Med .wav
448,192,51833,1,0,0:0:0:0:
192,192,51922,1,4,0:0:0:0:
64,192,51922,1,0,0:0:0:0:
320,192,52098,1,0,0:0:0:0:
64,192,52275,1,0,0:0:0:40:LR_Clap Med .wav
448,192,52275,1,0,0:0:0:0:
320,192,52451,1,0,0:0:0:0:
192,192,52628,1,0,0:0:0:0:
448,192,52804,1,0,0:0:0:0:
320,192,52981,1,0,0:0:0:40:LR_Clap Med .wav
192,192,52981,1,0,0:0:0:0:
64,192,53157,1,0,0:0:0:0:
192,192,53333,1,0,0:0:0:0:
320,192,53510,1,0,0:0:0:0:
64,192,53686,1,0,0:0:0:40:LR_Clap Med .wav
448,192,53686,1,0,0:0:0:0:
192,192,53863,1,0,0:0:0:0:
320,192,54039,1,0,0:0:0:0:
192,192,54216,1,0,0:0:0:0:
64,192,54392,1,0,0:0:0:40:LR_Clap Med .wav
448,192,54392,1,0,0:0:0:0:
320,192,54569,1,0,0:0:0:0:
192,192,54745,1,0,0:0:0:0:
448,192,54922,1,0,0:0:0:0:
192,192,55098,1,0,0:0:0:40:LR_Clap Med .wav
64,192,55098,1,0,0:0:0:0:
320,192,55275,1,0,0:0:0:0:
64,192,55451,1,0,0:0:0:0:
448,192,55628,1,0,0:0:0:0:
320,192,55804,1,0,0:0:0:40:LR_Clap Med .wav
192,192,55804,1,0,0:0:0:0:
64,192,55981,1,0,0:0:0:0:
448,192,56157,1,0,0:0:0:0:
192,192,56333,1,0,0:0:0:0:
320,192,56422,1,0,0:0:0:0:
448,192,56510,1,0,0:0:0:40:LR_Clap Med .wav
64,192,56510,1,0,0:0:0:0:
192,192,56598,1,0,0:0:0:0:
320,192,56686,1,0,0:0:0:0:
64,192,56863,128,0,57039:0:0:0:0:
192,192,56863,1,0,0:0:0:0:
320,192,57216,1,0,0:0:0:40:LR_Clap Med .wav
448,192,57216,1,0,0:0:0:0:
64,192,57392,1,0,0:0:0:40:LR_Clap Med .wav
192,192,57392,1,0,0:0:0:0:
320,192,57481,1,0,0:0:0:40:LR_Clap Med .wav
448,192,57481,1,0,0:0:0:0:
192,192,57569,1,4,0:0:0:0:
64,192,57569,1,2,0:0:0:0:
64,192,57745,1,0,0:0:0:0:
448,192,57745,1,2,0:0:0:0:
192,192,57922,1,2,0:0:0:40:LR_Clap Med .wav
448,192,57922,1,2,0:0:0:0:
320,192,58098,1,2,0:0:0:0:
192,192,58098,1,0,0:0:0:0:
64,192,58275,1,2,0:0:0:0:
320,192,58275,1,0,0:0:0:0:
64,192,58451,1,0,0:0:0:0:
448,192,58451,1,2,0:0:0:0:
192,192,58628,1,2,0:0:0:40:LR_Clap Med .wav
448,192,58628,1,2,0:0:0:0:
320,192,58804,1,2,0:0:0:0:
192,192,58804,1,0,0:0:0:0:
64,192,58981,1,2,0:0:0:0:
448,192,58981,1,0,0:0:0:0:
192,192,59069,1,2,0:0:0:0:
320,192,59157,1,2,0:0:0:0:
448,192,59245,1,2,0:0:0:0:
64,192,59333,1,2,0:0:0:0:
320,192,59333,1,0,0:0:0:40:LR_Clap Med .wav
192,192,59422,1,2,0:0:0:0:
448,192,59510,1,2,0:0:0:0:
320,192,59598,1,2,0:0:0:0:
64,192,59686,1,2,0:0:0:0:
192,192,59775,1,2,0:0:0:0:
320,192,59863,1,2,0:0:0:0:
192,192,59951,1,2,0:0:0:0:
64,192,60039,1,2,0:0:0:0:
448,192,60039,1,0,0:0:0:40:LR_Clap Med .wav
320,192,60128,1,2,0:0:0:0:
192,192,60216,1,2,0:0:0:0:
320,192,60304,1,2,0:0:0:0:
448,192,60392,1,2,0:0:0:0:
64,192,60392,1,0,0:0:0:0:
192,192,60481,1,2,0:0:0:0:
448,192,60569,1,2,0:0:0:0:
320,192,60569,1,0,0:0:0:0:
64,192,60657,1,2,0:0:0:0:
192,192,60745,1,2,0:0:0:0:
320,192,60745,1,0,0:0:0:40:LR_Clap Med .wav
448,192,60833,1,2,0:0:0:0:
64,192,60922,1,2,0:0:0:0:
192,192,60922,1,0,0:0:0:0:
320,192,61010,1,2,0:0:0:0:
64,192,61098,1,2,0:0:0:0:
448,192,61098,1,0,0:0:0:0:
320,192,61186,1,2,0:0:0:0:
192,192,61275,1,2,0:0:0:0:
64,192,61275,1,0,0:0:0:0:
448,192,61363,1,2,0:0:0:0:
192,192,61451,1,2,0:0:0:0:
320,192,61451,1,0,0:0:0:40:LR_Clap Med .wav
64,192,61539,1,2,0:0:0:0:
320,192,61628,1,0,0:0:0:40:LR_Clap Med .wav
448,192,61628,1,0,0:0:0:0:
192,192,61716,1,0,0:0:0:40:LR_Clap Med .wav
64,192,61804,1,4,0:0:0:0:
448,192,61804,1,0,0:0:0:0:
64,192,62333,5,0,0:0:0:0:
448,192,62422,1,0,0:0:0:0:
192,192,62510,1,0,0:0:0:0:
320,192,62686,1,0,0:0:0:0:
64,192,62863,1,0,0:0:0:0:
448,192,63039,1,0,0:0:0:0:
320,192,63216,1,2,0:0:0:0:
64,192,63216,1,4,0:0:0:0:
192,192,63216,1,0,0:0:0:0:
192,192,63481,1,0,0:0:0:0:
64,192,63745,1,2,0:0:0:0:
192,192,63833,1,0,0:0:0:0:
320,192,63922,1,0,0:0:0:0:
64,192,64098,1,2,0:0:0:0:
448,192,64275,1,8,0:0:0:0:
192,192,64275,1,0,0:0:0:0:
320,192,64451,1,2,0:0:0:0:
64,192,64628,1,2,0:0:0:0:
448,192,64892,1,0,0:0:0:0:
320,192,65157,1,2,0:0:0:0:
192,192,65245,1,0,0:0:0:0:
320,192,65333,1,0,0:0:0:0:
64,192,65510,1,2,0:0:0:0:
320,192,65686,1,8,0:0:0:0:
448,192,65686,1,0,0:0:0:0:
192,192,65863,1,2,0:0:0:0:
64,192,66039,1,2,0:0:0:0:
320,192,66304,1,0,0:0:0:0:
448,192,66569,1,2,0:0:0:0:
320,192,66657,1,0,0:0:0:0:
192,192,66745,1,0,0:0:0:0:
448,192,66922,1,2,0:0:0:0:
192,192,67098,1,0,0:0:0:0:
64,192,67098,1,8,0:0:0:0:
320,192,67275,1,2,0:0:0:0:
192,192,67451,1,2,0:0:0:0:
448,192,67716,1,0,0:0:0:0:
64,192,67981,1,2,0:0:0:0:
320,192,68069,1,0,0:0:0:0:
192,192,68157,1,0,0:0:0:0:
448,192,68333,1,2,0:0:0:0:
320,192,68510,1,8,0:0:0:0:
64,192,68510,1,0,0:0:0:0:
192,192,68686,1,2,0:0:0:0:
320,192,68863,1,2,0:0:0:0:
192,192,69128,1,0,0:0:0:0:
448,192,69392,1,2,0:0:0:0:
64,192,69481,1,0,0:0:0:0:
320,192,69569,1,0,0:0:0:0:
192,192,69745,1,2,0:0:0:0:
64,192,69922,1,8,0:0:0:0:
448,192,69922,1,0,0:0:0:0:
320,192,70098,1,2,0:0:0:0:
192,192,70275,1,2,0:0:0:0:
448,192,70539,1,0,0:0:0:0:
320,192,70804,1,2,0:0:0:0:
64,192,70892,1,0,0:0:0:0:
192,192,70981,1,0,0:0:0:0:
448,192,71157,1,2,0:0:0:0:
64,192,71333,1,8,0:0:0:0:
320,192,71333,1,0,0:0:0:0:
192,192,71510,1,2,0:0:0:0:
448,192,71686,1,2,0:0:0:0:
64,192,71951,1,0,0:0:0:0:
320,192,72216,1,2,0:0:0:0:
192,192,72304,1,0,0:0:0:0:
320,192,72392,1,0,0:0:0:0:
64,192,72569,1,2,0:0:0:0:
192,192,72745,1,8,0:0:0:0:
448,192,72745,1,0,0:0:0:0:
320,192,72922,1,2,0:0:0:0:
64,192,73098,1,2,0:0:0:0:
448,192,73363,1,0,0:0:0:0:
64,192,73628,1,2,0:0:0:0:
192,192,73716,1,0,0:0:0:0:
320,192,73804,1,8,0:0:0:0:
64,192,73981,1,2,0:0:0:0:
448,192,74157,1,8,0:0:0:0:
320,192,74333,1,10,0:0:0:0:
192,192,74422,1,8,0:0:0:0:
64,192,74510,1,0,0:0:0:0:
448,192,74510,1,4,0:0:0:0:
192,192,74686,1,0,0:0:0:0:
320,192,74863,1,8,0:0:0:0:
448,192,74863,1,0,0:0:0:0:
64,192,75039,1,0,0:0:0:0:
320,192,75128,1,0,0:0:0:0:
192,192,75216,1,0,0:0:0:0:
448,192,75392,1,0,0:0:0:0:
64,192,75569,1,8,0:0:0:0:
320,192,75569,1,0,0:0:0:0:
192,192,75745,1,0,0:0:0:0:
448,192,75922,1,0,0:0:0:0:
64,192,76098,1,0,0:0:0:0:
192,192,76275,1,8,0:0:0:0:
320,192,76275,1,0,0:0:0:0:
448,192,76451,1,0,0:0:0:0:
64,192,76539,1,0,0:0:0:0:
320,192,76628,1,0,0:0:0:0:
192,192,76804,1,0,0:0:0:0:
448,192,76981,1,8,0:0:0:0:
64,192,76981,1,0,0:0:0:0:
320,192,77157,1,0,0:0:0:0:
192,192,77333,1,0,0:0:0:0:
448,192,77510,1,0,0:0:0:0:
320,192,77686,1,8,0:0:0:0:
192,192,77686,1,0,0:0:0:0:
64,192,77863,1,0,0:0:0:0:
192,192,77951,1,0,0:0:0:0:
320,192,78039,1,0,0:0:0:0:
448,192,78216,1,0,0:0:0:0:
64,192,78392,1,8,0:0:0:0:
320,192,78392,1,0,0:0:0:0:
192,192,78569,1,0,0:0:0:0:
448,192,78745,1,0,0:0:0:0:
64,192,78922,1,0,0:0:0:0:
192,192,79098,1,8,0:0:0:0:
320,192,79098,1,0,0:0:0:0:
448,192,79275,1,0,0:0:0:0:
320,192,79363,1,0,0:0:0:0:
192,192,79451,1,0,0:0:0:0:
448,192,79628,1,0,0:0:0:0:
320,192,79804,1,0,0:0:0:0:
64,192,79804,1,8,0:0:0:0:
192,192,79981,1,0,0:0:0:0:
448,192,80157,1,0,0:0:0:0:
64,192,80157,1,2,0:0:0:0:
192,192,80333,1,2,0:0:0:0:
320,192,80333,1,0,0:0:0:0:
64,192,80510,1,8,0:0:0:0:
448,192,80510,1,2,0:0:0:0:
192,192,80686,1,2,0:0:0:0:
320,192,80686,1,0,0:0:0:0:
64,192,80863,1,2,0:0:0:0:
448,192,80863,1,0,0:0:0:0:
192,192,81039,1,2,0:0:0:0:
320,192,81039,1,0,0:0:0:0:
64,192,81216,1,8,0:0:0:0:
448,192,81216,1,2,0:0:0:0:
192,192,81392,1,0,0:0:0:0:
320,192,81392,1,2,0:0:0:0:
64,192,81569,1,2,0:0:0:0:
448,192,81569,1,0,0:0:0:0:
192,192,81657,1,2,0:0:0:0:
320,192,81745,1,2,0:0:0:0:
448,192,81833,1,2,0:0:0:0:
64,192,81922,1,2,0:0:0:0:
192,192,81922,1,8,0:0:0:0:
320,192,82010,1,2,0:0:0:0:
448,192,82098,1,2,0:0:0:0:
64,192,82186,1,2,0:0:0:0:
192,192,82275,1,2,0:0:0:0:
448,192,82363,1,2,0:0:0:0:
320,192,82451,1,2,0:0:0:0:
192,192,82539,1,2,0:0:0:0:
448,192,82628,1,2,0:0:0:0:
64,192,82628,1,8,0:0:0:0:
320,192,82716,1,2,0:0:0:0:
192,192,82804,1,2,0:0:0:0:
320,192,82892,1,2,0:0:0:0:
448,192,82981,1,2,0:0:0:0:
192,192,83069,1,2,0:0:0:0:
320,192,83157,1,2,0:0:0:0:
64,192,83245,1,2,0:0:0:0:
192,192,83333,1,2,0:0:0:0:
448,192,83333,1,8,0:0:0:0:
320,192,83422,1,2,0:0:0:0:
64,192,83510,1,2,0:0:0:0:
448,192,83598,1,2,0:0:0:0:
192,192,83686,1,2,0:0:0:0:
320,192,83775,1,2,0:0:0:0:
64,192,83863,1,2,0:0:0:0:
448,192,83951,1,2,0:0:0:0:
320,192,84039,1,2,0:0:0:0:
64,192,84128,1,2,0:0:0:0:
192,192,84216,1,8,0:0:0:0:
320,192,84304,1,8,0:0:0:0:
64,192,84392,1,0,0:0:0:0:
448,192,84392,1,4,0:0:0:0:
