osu file format v14

[General]
AudioFilename: audio.mp3
AudioLeadIn: 0
PreviewTime: 39569
Countdown: 0
SampleSet: Normal
StackLeniency: 0.7
Mode: 1
LetterboxInBreaks: 0
WidescreenStoryboard: 1

[Editor]
Bookmarks: 16628,27922,40628,61804
DistanceSpacing: 0.6
BeatDivisor: 2
GridSize: 4
TimelineZoom: 0.5999997

[Metadata]
Title:Mama Minta Pulsa (Sped Up & Cut Ver.)
TitleUnicode:Mama Minta Pulsa (Sped Up & Cut Ver.)
Artist:Siti Badriah
ArtistUnicode:Siti Badriah
Creator:Volta
Version:Mudah
Source:
Tags:[R] Ron Roger ][ -GH- ][ bahasa indonesia indonesian dangdut folk dance dancedhut pop electronic dugem nagaswara endang raes version
BeatmapID:2724723
BeatmapSetID:1311607

[Difficulty]
HPDrainRate:8.5
CircleSize:7
OverallDifficulty:2.5
ApproachRate:10
SliderMultiplier:1.4
SliderTickRate:1

[Events]
//Background and Video events
0,0,"pulsa.jpg",0,0
//Break Periods
//Storyboard Layer 0 (Background)
//Storyboard Layer 1 (Fail)
//Storyboard Layer 2 (Pass)
//Storyboard Layer 3 (Foreground)
//Storyboard Layer 4 (Overlay)
//Storyboard Sound Samples

[TimingPoints]
5334,352.941176470588,4,1,0,86,1,0
40628,352.941176470588,4,1,0,86,1,0
40628,-100,4,1,0,86,0,1
61804,-100,4,1,0,86,0,0

[HitObjects]
349,219,5334,5,4,0:0:0:0:
317,139,6039,1,8,0:0:0:0:
317,139,6745,1,0,0:0:0:0:
217,150,7451,1,8,0:0:0:0:
282,132,7804,1,8,0:0:0:0:
279,128,8157,1,0,0:0:0:0:
279,128,8863,1,0,0:0:0:0:
279,128,9569,1,8,0:0:0:0:
298,123,10981,1,0,0:0:0:0:
134,100,11686,1,8,0:0:0:0:
134,100,12392,1,0,0:0:0:0:
141,148,12745,1,0,0:0:0:0:
145,100,13098,1,0,0:0:0:0:
225,118,13804,1,8,0:0:0:0:
225,118,14510,1,0,0:0:0:0:
225,118,14863,1,0,0:0:0:0:
225,118,15216,1,8,0:0:0:0:
224,128,16628,1,4,0:0:0:0:
61,117,17333,1,0,0:0:0:0:
61,117,18039,1,0,0:0:0:0:
72,154,19098,1,0,0:0:0:0:
101,117,19451,1,8,0:0:0:0:
101,117,20157,1,0,0:0:0:0:
101,117,20863,1,8,0:0:0:0:
146,111,21922,1,8,0:0:0:0:
80,114,22275,1,0,0:0:0:0:
80,114,22981,1,8,0:0:0:0:
80,114,23686,1,8,0:0:0:0:
198,161,24745,1,8,0:0:0:0:
82,113,25098,1,0,0:0:0:0:
82,113,25804,1,0,0:0:0:0:
74,177,26686,1,12,0:0:0:0:
74,177,27216,1,12,0:0:0:0:
153,96,27922,1,4,0:0:0:0:
160,95,28628,1,8,0:0:0:0:
160,95,29333,1,8,0:0:0:0:
102,148,30392,1,0,0:0:0:0:
159,100,30745,1,8,0:0:0:0:
159,100,31451,1,0,0:0:0:0:
159,100,32157,1,8,0:0:0:0:
274,122,33216,1,8,0:0:0:0:
161,99,33569,1,0,0:0:0:0:
161,99,34275,1,8,0:0:0:0:
161,99,34981,1,0,0:0:0:0:
323,91,36039,1,8,0:0:0:0:
161,99,36392,1,8,0:0:0:0:
161,99,37098,1,0,0:0:0:0:
176,139,37804,2,0,L|255:118,8,70
163,99,40628,1,4,0:0:0:0:
163,99,41333,1,8,0:0:0:0:
152,131,42039,1,0,0:0:0:0:
152,131,42745,1,8,0:0:0:0:
152,131,43098,1,0,0:0:0:0:
138,162,43451,1,8,0:0:0:0:
138,162,44157,1,8,0:0:0:0:
176,152,44510,1,8,0:0:0:0:
138,162,44863,1,0,0:0:0:0:
157,129,46275,1,0,0:0:0:0:
157,129,46981,1,0,0:0:0:0:
157,129,47686,1,8,0:0:0:0:
157,129,48392,1,0,0:0:0:0:
157,129,48745,1,8,0:0:0:0:
157,129,49098,1,0,0:0:0:0:
157,129,49804,1,0,0:0:0:0:
216,140,50157,5,0,0:0:0:0:
157,129,50510,1,8,0:0:0:0:
157,129,51922,1,0,0:0:0:0:
157,129,52628,1,8,0:0:0:0:
157,129,53333,1,8,0:0:0:0:
157,129,54039,1,0,0:0:0:0:
157,129,54745,1,8,0:0:0:0:
84,136,55451,1,0,0:0:0:0:
157,129,56157,1,8,0:0:0:0:
157,129,57569,1,0,0:0:0:0:
157,129,58275,1,8,0:0:0:0:
157,129,58981,1,0,0:0:0:0:
108,172,59333,1,0,0:0:0:0:
157,129,59686,1,0,0:0:0:0:
161,129,60392,1,8,0:0:0:0:
161,129,60745,1,8,0:0:0:0:
161,129,61098,1,0,0:0:0:0:
161,129,61451,1,0,0:0:0:0:
161,129,61804,1,8,0:0:0:0:
349,219,63216,1,4,0:0:0:0:
317,139,63921,1,8,0:0:0:0:
317,139,64627,1,0,0:0:0:0:
282,132,65333,1,8,0:0:0:0:
193,32,65686,1,8,0:0:0:0:
279,128,66039,1,0,0:0:0:0:
279,128,66745,1,0,0:0:0:0:
279,128,67451,1,8,0:0:0:0:
110,133,68863,1,0,0:0:0:0:
119,130,69569,1,8,0:0:0:0:
191,105,70275,1,0,0:0:0:0:
191,105,70981,1,8,0:0:0:0:
107,122,71333,1,8,0:0:0:0:
191,105,71686,1,0,0:0:0:0:
191,105,72392,1,0,0:0:0:0:
191,105,73098,1,8,0:0:0:0:
191,105,74510,1,0,0:0:0:0:
191,105,75216,1,0,0:0:0:0:
191,105,75922,1,8,0:0:0:0:
168,200,76981,1,0,0:0:0:0:
191,105,77333,1,8,0:0:0:0:
191,105,78039,1,8,0:0:0:0:
191,105,78745,1,0,0:0:0:0:
189,106,80157,1,0,0:0:0:0:
189,106,80863,1,0,0:0:0:0:
189,106,81569,1,8,0:0:0:0:
189,106,81922,1,8,0:0:0:0:
189,106,82275,1,8,0:0:0:0:
189,106,82981,1,0,0:0:0:0:
189,106,83686,1,8,0:0:0:0:
189,106,84039,1,0,0:0:0:0:
189,106,84392,1,8,0:0:0:0:
