osu file format v14

[General]
AudioFilename: audio.mp3
AudioLeadIn: 0
PreviewTime: 71111
Countdown: 0
SampleSet: Normal
StackLeniency: 0.7
Mode: 1
LetterboxInBreaks: 0
WidescreenStoryboard: 1

[Editor]
Bookmarks: 15003,15652,60733,70138,76625,77273,77922,78571,79219,80517,87003,87652,88300,88949
DistanceSpacing: 1
BeatDivisor: 4
GridSize: 32
TimelineZoom: 1.8

[Metadata]
Title:Inverse World
TitleUnicode:Inverse World
Artist:Sisterz
ArtistUnicode:Sisterz
Creator:Marm
Version:HiroK's Inner Oni
Source:
Tags:trance itsuha. ta2max HiroK xfraczynho
BeatmapID:1399348
BeatmapSetID:660352

[Difficulty]
HPDrainRate:5
CircleSize:2
OverallDifficulty:6
ApproachRate:0
SliderMultiplier:1.4
SliderTickRate:1

[Events]
//Background and Video events
0,0,"inverse world.jpg",0,0
//Break Periods
//Storyboard Layer 0 (Background)
//Storyboard Layer 1 (Fail)
//Storyboard Layer 2 (Pass)
//Storyboard Layer 3 (Foreground)
//Storyboard Sound Samples

[TimingPoints]
1382,324.324324324324,4,1,0,100,1,0
58138,-100,4,1,0,75,0,0
58463,-100,4,1,0,100,0,0
71436,-100,4,1,0,100,0,1
92192,-100,4,1,0,100,0,0
102895,-100,4,1,0,100,0,1
112949,-100,4,1,0,100,0,0

[HitObjects]
256,192,1057,5,4,0:0:0:0:
256,192,1382,5,12,0:0:0:0:
256,192,1625,1,12,0:0:0:0:
256,192,1868,1,12,0:0:0:0:
256,192,2192,1,0,0:0:0:0:
256,192,2273,1,0,0:0:0:0:
256,192,2354,1,8,0:0:0:0:
256,192,2517,1,0,0:0:0:0:
128,192,2679,1,12,0:0:0:0:
128,192,2922,1,12,0:0:0:0:
128,192,3165,1,12,0:0:0:0:
256,192,3490,1,0,0:0:0:0:
128,192,3652,1,8,0:0:0:0:
256,192,3814,1,0,0:0:0:0:
256,192,3976,1,12,0:0:0:0:
256,192,4219,1,12,0:0:0:0:
224,192,4463,1,0,0:0:0:0:
256,192,4625,1,12,0:0:0:0:
256,192,4949,1,12,0:0:0:0:
160,192,5111,1,0,0:0:0:0:
256,192,5273,1,12,0:0:0:0:
256,192,5517,1,12,0:0:0:0:
256,192,5760,1,12,0:0:0:0:
256,192,5922,1,0,0:0:0:0:
256,192,6084,1,0,0:0:0:0:
256,192,6165,1,0,0:0:0:0:
256,192,6246,1,8,0:0:0:0:
256,192,6571,1,0,0:0:0:0:
256,192,6733,1,0,0:0:0:0:
256,192,6895,1,0,0:0:0:0:
256,192,7057,1,0,0:0:0:0:
256,192,7138,1,0,0:0:0:0:
160,192,7219,1,8,0:0:0:0:
256,192,7300,1,8,0:0:0:0:
160,192,7381,1,0,0:0:0:0:
256,192,7544,1,8,0:0:0:0:
256,192,7706,1,0,0:0:0:0:
224,192,7787,1,0,0:0:0:0:
224,192,7868,1,8,0:0:0:0:
256,192,8030,1,0,0:0:0:0:
256,192,8192,1,0,0:0:0:0:
256,192,8354,1,0,0:0:0:0:
224,192,8517,1,8,0:0:0:0:
128,160,8598,1,0,0:0:0:0:
256,224,8679,1,8,0:0:0:0:
128,160,8760,1,0,0:0:0:0:
256,192,8841,1,0,0:0:0:0:
256,192,9003,1,0,0:0:0:0:
256,192,9084,1,0,0:0:0:0:
256,192,9165,1,8,0:0:0:0:
256,192,9246,1,0,0:0:0:0:
256,192,9327,1,8,0:0:0:0:
256,192,9409,1,8,0:0:0:0:
256,192,9490,1,0,0:0:0:0:
256,192,9652,1,0,0:0:0:0:
256,192,9814,1,8,0:0:0:0:
256,192,9895,1,0,0:0:0:0:
256,192,9976,1,8,0:0:0:0:
256,192,10057,1,8,0:0:0:0:
256,192,10138,1,0,0:0:0:0:
256,192,10300,1,0,0:0:0:0:
256,192,10463,1,8,0:0:0:0:
256,192,10544,1,8,0:0:0:0:
256,192,10625,1,0,0:0:0:0:
256,192,10706,1,0,0:0:0:0:
256,192,10787,1,8,0:0:0:0:
256,192,10949,1,8,0:0:0:0:
256,192,11030,1,8,0:0:0:0:
256,192,11111,1,8,0:0:0:0:
256,192,11192,1,0,0:0:0:0:
252,181,11273,1,0,0:0:0:0:
256,160,11354,1,0,0:0:0:0:
256,160,11436,1,8,0:0:0:0:
256,192,11598,1,0,0:0:0:0:
256,192,11679,1,8,0:0:0:0:
256,160,11760,1,0,0:0:0:0:
288,192,11922,1,8,0:0:0:0:
256,160,12084,1,0,0:0:0:0:
256,160,12246,1,8,0:0:0:0:
256,160,12409,1,0,0:0:0:0:
256,160,12571,1,8,0:0:0:0:
256,160,12733,1,0,0:0:0:0:
256,160,12895,1,8,0:0:0:0:
224,192,13057,1,0,0:0:0:0:
256,160,13219,1,8,0:0:0:0:
224,192,13381,1,0,0:0:0:0:
256,160,13544,1,8,0:0:0:0:
224,160,13706,1,0,0:0:0:0:
256,160,13868,1,8,0:0:0:0:
224,160,14030,1,0,0:0:0:0:
267,189,14192,1,0,0:0:0:0:
224,160,14354,1,8,0:0:0:0:
256,192,14517,1,8,0:0:0:0:
256,192,14679,1,0,0:0:0:0:
256,192,14841,1,0,0:0:0:0:
256,192,15003,1,0,0:0:0:0:
256,192,15084,1,0,0:0:0:0:
256,192,15165,1,8,0:0:0:0:
256,192,15246,1,0,0:0:0:0:
256,192,15327,1,8,0:0:0:0:
256,192,15409,1,0,0:0:0:0:
256,192,15490,1,8,0:0:0:0:
256,192,15571,1,8,0:0:0:0:
256,192,15652,1,0,0:0:0:0:
256,192,15814,1,8,0:0:0:0:
256,192,15895,1,0,0:0:0:0:
256,192,15976,1,0,0:0:0:0:
256,192,16138,1,8,0:0:0:0:
256,192,16219,1,8,0:0:0:0:
256,192,16300,1,0,0:0:0:0:
256,192,16463,1,0,0:0:0:0:
256,192,16544,1,0,0:0:0:0:
256,192,16625,1,0,0:0:0:0:
256,192,16787,1,0,0:0:0:0:
256,192,16949,1,12,0:0:0:0:
224,192,17273,1,0,0:0:0:0:
253,204,17436,1,0,0:0:0:0:
256,192,17517,1,0,0:0:0:0:
224,192,17598,1,8,0:0:0:0:
256,192,17760,1,0,0:0:0:0:
256,192,17922,1,0,0:0:0:0:
256,192,18084,1,8,0:0:0:0:
256,192,18246,1,0,0:0:0:0:
288,192,18571,1,0,0:0:0:0:
256,192,18733,1,8,0:0:0:0:
288,192,18895,1,0,0:0:0:0:
288,192,19057,1,0,0:0:0:0:
288,192,19219,1,8,0:0:0:0:
288,192,19300,1,8,0:0:0:0:
288,192,19381,1,0,0:0:0:0:
288,192,19544,1,0,0:0:0:0:
288,192,19868,1,0,0:0:0:0:
288,192,20030,1,0,0:0:0:0:
288,192,20111,1,0,0:0:0:0:
288,192,20192,1,0,0:0:0:0:
288,192,20354,1,0,0:0:0:0:
288,192,20517,1,0,0:0:0:0:
288,192,20679,1,8,0:0:0:0:
288,192,20841,1,0,0:0:0:0:
288,192,21003,1,8,0:0:0:0:
288,192,21084,1,0,0:0:0:0:
288,192,21165,1,0,0:0:0:0:
288,192,21327,1,0,0:0:0:0:
288,192,21490,1,8,0:0:0:0:
288,192,21571,1,8,0:0:0:0:
288,192,21733,1,0,0:0:0:0:
288,192,21814,1,8,0:0:0:0:
288,192,21976,1,8,0:0:0:0:
288,192,22138,1,0,0:0:0:0:
256,192,22463,1,0,0:0:0:0:
256,192,22625,1,0,0:0:0:0:
256,192,22787,1,8,0:0:0:0:
288,192,22868,1,0,0:0:0:0:
288,192,22949,1,8,0:0:0:0:
288,192,23030,1,8,0:0:0:0:
288,192,23111,1,0,0:0:0:0:
288,192,23273,1,8,0:0:0:0:
288,192,23354,1,8,0:0:0:0:
288,192,23436,1,0,0:0:0:0:
288,192,23760,1,0,0:0:0:0:
256,192,23922,1,0,0:0:0:0:
256,192,24003,1,0,0:0:0:0:
256,192,24084,1,8,0:0:0:0:
256,192,24165,1,0,0:0:0:0:
256,192,24246,1,0,0:0:0:0:
256,192,24327,1,8,0:0:0:0:
288,192,24409,1,0,0:0:0:0:
256,192,24571,1,8,0:0:0:0:
256,192,24733,1,0,0:0:0:0:
256,224,25057,1,0,0:0:0:0:
256,192,25219,1,8,0:0:0:0:
256,192,25300,1,0,0:0:0:0:
256,192,25381,1,8,0:0:0:0:
256,192,25463,1,8,0:0:0:0:
256,192,25544,1,0,0:0:0:0:
256,192,25625,1,8,0:0:0:0:
256,192,25706,1,0,0:0:0:0:
256,192,25868,1,0,0:0:0:0:
256,192,26030,1,8,0:0:0:0:
256,192,26138,1,0,0:0:0:0:
256,192,26246,1,0,0:0:0:0:
256,192,26354,1,8,0:0:0:0:
256,192,26463,1,8,0:0:0:0:
256,160,26571,1,0,0:0:0:0:
256,160,26679,1,8,0:0:0:0:
256,192,26760,1,8,0:0:0:0:
256,160,26841,1,0,0:0:0:0:
224,192,27003,1,12,0:0:0:0:
256,192,27327,1,0,0:0:0:0:
256,192,27409,1,8,0:0:0:0:
249,175,27490,1,8,0:0:0:0:
256,160,27571,1,0,0:0:0:0:
256,192,27652,1,8,0:0:0:0:
252,170,27733,1,0,0:0:0:0:
256,160,27814,1,0,0:0:0:0:
274,179,27895,1,8,0:0:0:0:
256,192,27976,1,8,0:0:0:0:
256,192,28057,1,0,0:0:0:0:
256,192,28138,1,8,0:0:0:0:
256,192,28219,1,8,0:0:0:0:
256,192,28300,1,0,0:0:0:0:
288,192,28463,1,8,0:0:0:0:
256,192,28625,1,0,0:0:0:0:
256,192,28706,1,8,0:0:0:0:
256,192,28787,1,8,0:0:0:0:
256,192,28868,1,0,0:0:0:0:
256,192,28949,1,8,0:0:0:0:
256,192,29111,1,8,0:0:0:0:
256,192,29192,1,8,0:0:0:0:
256,192,29273,1,0,0:0:0:0:
256,192,29354,1,8,0:0:0:0:
256,192,29517,1,0,0:0:0:0:
256,192,29598,1,8,0:0:0:0:
256,192,29760,1,0,0:0:0:0:
256,192,29922,1,8,0:0:0:0:
256,192,30003,1,0,0:0:0:0:
256,192,30084,1,8,0:0:0:0:
256,192,30165,1,8,0:0:0:0:
256,192,30246,1,8,0:0:0:0:
256,192,30327,1,0,0:0:0:0:
256,192,30409,1,8,0:0:0:0:
256,192,30490,1,0,0:0:0:0:
256,192,30571,1,8,0:0:0:0:
256,192,30679,1,0,0:0:0:0:
256,192,30787,1,0,0:0:0:0:
256,192,30895,1,8,0:0:0:0:
256,192,31003,1,0,0:0:0:0:
256,192,31111,1,0,0:0:0:0:
256,192,31219,1,8,0:0:0:0:
256,192,31327,1,8,0:0:0:0:
256,192,31436,1,0,0:0:0:0:
256,160,31544,1,8,0:0:0:0:
256,192,31652,1,8,0:0:0:0:
256,192,31760,1,0,0:0:0:0:
256,192,31868,1,8,0:0:0:0:
256,192,31949,1,8,0:0:0:0:
256,192,32030,1,0,0:0:0:0:
256,192,32111,1,0,0:0:0:0:
256,192,32192,1,0,0:0:0:0:
224,192,32354,1,8,0:0:0:0:
256,192,32517,1,0,0:0:0:0:
256,192,32598,1,8,0:0:0:0:
256,192,32679,1,8,0:0:0:0:
256,192,32760,1,0,0:0:0:0:
256,192,32841,1,8,0:0:0:0:
256,192,33003,1,0,0:0:0:0:
256,192,33084,1,0,0:0:0:0:
256,192,33165,1,8,0:0:0:0:
256,192,33246,1,8,0:0:0:0:
256,192,33327,1,0,0:0:0:0:
256,192,33409,1,8,0:0:0:0:
256,192,33490,1,0,0:0:0:0:
256,192,33652,1,8,0:0:0:0:
256,192,33814,1,0,0:0:0:0:
256,192,33895,1,0,0:0:0:0:
256,192,33976,1,8,0:0:0:0:
256,192,34057,1,0,0:0:0:0:
256,192,34138,1,8,0:0:0:0:
256,192,34219,1,8,0:0:0:0:
256,192,34300,1,8,0:0:0:0:
256,192,34381,1,0,0:0:0:0:
256,192,34463,1,8,0:0:0:0:
256,192,34544,1,0,0:0:0:0:
256,192,34625,1,0,0:0:0:0:
256,192,34706,1,8,0:0:0:0:
256,192,34787,1,0,0:0:0:0:
256,192,34949,1,8,0:0:0:0:
256,192,35111,1,0,0:0:0:0:
256,192,35192,1,0,0:0:0:0:
256,192,35273,1,0,0:0:0:0:
256,160,35354,1,8,0:0:0:0:
256,160,35436,1,0,0:0:0:0:
256,192,35598,1,8,0:0:0:0:
256,192,35679,1,0,0:0:0:0:
256,192,35760,1,8,0:0:0:0:
256,192,35841,1,8,0:0:0:0:
256,192,36003,1,0,0:0:0:0:
256,192,36084,1,8,0:0:0:0:
256,192,36246,1,0,0:0:0:0:
256,192,36409,1,0,0:0:0:0:
256,192,36517,1,8,0:0:0:0:
256,192,36625,1,0,0:0:0:0:
256,192,36733,1,8,0:0:0:0:
256,192,36841,1,8,0:0:0:0:
256,192,36949,1,0,0:0:0:0:
256,192,37057,1,8,0:0:0:0:
256,192,37138,1,8,0:0:0:0:
256,192,37219,1,0,0:0:0:0:
256,192,37381,1,12,0:0:0:0:
256,192,37706,1,4,0:0:0:0:
256,192,38030,1,0,0:0:0:0:
256,192,38192,1,8,0:0:0:0:
256,192,38354,1,8,0:0:0:0:
256,192,38517,1,0,0:0:0:0:
256,192,38679,1,8,0:0:0:0:
256,192,38841,1,0,0:0:0:0:
256,192,38922,1,0,0:0:0:0:
256,192,39003,1,8,0:0:0:0:
256,192,39327,1,8,0:0:0:0:
256,192,39490,1,8,0:0:0:0:
256,192,39652,1,8,0:0:0:0:
246,186,39814,1,0,0:0:0:0:
256,192,39976,1,8,0:0:0:0:
250,170,40057,1,8,0:0:0:0:
256,192,40138,1,0,0:0:0:0:
250,170,40219,1,0,0:0:0:0:
256,192,40300,1,8,0:0:0:0:
256,192,40625,1,0,0:0:0:0:
256,192,40787,1,8,0:0:0:0:
256,192,40949,1,0,0:0:0:0:
256,192,41111,1,0,0:0:0:0:
256,192,41273,1,8,0:0:0:0:
256,160,41436,1,8,0:0:0:0:
262,182,41517,1,8,0:0:0:0:
256,160,41598,1,0,0:0:0:0:
256,192,41922,1,8,0:0:0:0:
256,192,42084,1,0,0:0:0:0:
256,192,42246,1,8,0:0:0:0:
256,192,42327,1,0,0:0:0:0:
256,192,42490,1,0,0:0:0:0:
256,192,42571,1,8,0:0:0:0:
256,192,42733,1,8,0:0:0:0:
288,192,42895,1,0,0:0:0:0:
224,192,43219,1,8,0:0:0:0:
256,192,43381,1,8,0:0:0:0:
256,192,43463,1,8,0:0:0:0:
256,192,43544,1,0,0:0:0:0:
256,192,43706,1,8,0:0:0:0:
256,192,43868,1,0,0:0:0:0:
256,192,44030,1,8,0:0:0:0:
256,192,44111,1,0,0:0:0:0:
256,192,44192,1,8,0:0:0:0:
256,192,44517,1,0,0:0:0:0:
256,192,44679,1,8,0:0:0:0:
256,192,44841,1,0,0:0:0:0:
256,192,44922,1,8,0:0:0:0:
256,192,45084,1,0,0:0:0:0:
256,192,45165,1,8,0:0:0:0:
256,192,45327,1,8,0:0:0:0:
256,192,45409,1,8,0:0:0:0:
256,192,45490,1,0,0:0:0:0:
256,192,45814,1,0,0:0:0:0:
256,192,45976,1,0,0:0:0:0:
256,192,46138,1,8,0:0:0:0:
256,192,46219,1,8,0:0:0:0:
256,192,46300,1,0,0:0:0:0:
256,192,46463,1,8,0:0:0:0:
256,192,46544,1,0,0:0:0:0:
256,192,46625,1,0,0:0:0:0:
256,192,46706,1,0,0:0:0:0:
256,192,46787,1,8,0:0:0:0:
256,160,46949,1,0,0:0:0:0:
256,160,47111,1,8,0:0:0:0:
256,160,47273,1,0,0:0:0:0:
256,160,47436,1,8,0:0:0:0:
256,160,47517,1,0,0:0:0:0:
256,160,47598,1,0,0:0:0:0:
256,160,47760,1,12,0:0:0:0:
256,160,48084,1,0,0:0:0:0:
256,160,48246,1,0,0:0:0:0:
256,160,48409,1,0,0:0:0:0:
256,160,48571,1,8,0:0:0:0:
256,160,48733,1,0,0:0:0:0:
259,166,48895,1,0,0:0:0:0:
256,160,49057,1,0,0:0:0:0:
256,160,49138,1,0,0:0:0:0:
256,160,49219,1,8,0:0:0:0:
256,160,49381,1,0,0:0:0:0:
256,160,49706,1,8,0:0:0:0:
256,160,49868,1,8,0:0:0:0:
256,160,50030,1,8,0:0:0:0:
256,160,50192,1,0,0:0:0:0:
256,160,50354,1,8,0:0:0:0:
256,160,50436,1,8,0:0:0:0:
256,160,50517,1,0,0:0:0:0:
256,160,50679,1,8,0:0:0:0:
256,160,51003,1,0,0:0:0:0:
256,192,51165,1,0,0:0:0:0:
256,192,51246,1,0,0:0:0:0:
256,192,51327,1,8,0:0:0:0:
256,192,51490,1,0,0:0:0:0:
256,192,51652,1,8,0:0:0:0:
256,192,51814,1,8,0:0:0:0:
256,192,51976,1,0,0:0:0:0:
260,163,52138,1,8,0:0:0:0:
256,192,52219,1,8,0:0:0:0:
256,192,52300,1,0,0:0:0:0:
256,192,52463,1,8,0:0:0:0:
256,192,52625,1,0,0:0:0:0:
256,192,52706,1,8,0:0:0:0:
256,192,52787,1,8,0:0:0:0:
256,192,52868,1,0,0:0:0:0:
256,192,52949,1,8,0:0:0:0:
256,192,53030,1,0,0:0:0:0:
256,192,53111,1,0,0:0:0:0:
256,192,53273,1,4,0:0:0:0:
256,192,53436,1,0,0:0:0:0:
256,192,53598,1,8,0:0:0:0:
256,192,53760,1,8,0:0:0:0:
256,192,53922,1,0,0:0:0:0:
256,192,54084,1,0,0:0:0:0:
224,192,54246,1,8,0:0:0:0:
256,192,54327,1,8,0:0:0:0:
256,192,54409,1,8,0:0:0:0:
256,192,54571,1,4,0:0:0:0:
256,192,54733,1,0,0:0:0:0:
256,192,54895,1,8,0:0:0:0:
256,192,55057,1,8,0:0:0:0:
256,192,55219,1,0,0:0:0:0:
256,192,55381,1,0,0:0:0:0:
256,192,55544,1,8,0:0:0:0:
256,192,55625,1,8,0:0:0:0:
256,192,55706,1,8,0:0:0:0:
256,192,55868,1,4,0:0:0:0:
256,192,56030,1,0,0:0:0:0:
256,192,56192,1,8,0:0:0:0:
256,192,56273,1,0,0:0:0:0:
256,192,56354,1,8,0:0:0:0:
256,192,56517,1,4,0:0:0:0:
256,192,56679,1,0,0:0:0:0:
256,192,56841,1,8,0:0:0:0:
256,192,56922,1,8,0:0:0:0:
256,192,57003,1,8,0:0:0:0:
256,192,57165,1,0,0:0:0:0:
256,192,57246,1,0,0:0:0:0:
256,192,57327,1,8,0:0:0:0:
256,192,57409,1,8,0:0:0:0:
256,192,57490,1,0,0:0:0:0:
256,192,57571,1,0,0:0:0:0:
256,192,57652,1,8,0:0:0:0:
256,192,57733,1,8,0:0:0:0:
256,192,57814,1,0,0:0:0:0:
256,192,57976,1,0,0:0:0:0:
256,192,58138,1,8,0:0:0:0:
288,160,58219,1,8,0:0:0:0:
288,160,58300,1,8,0:0:0:0:
256,160,58381,1,8,0:0:0:0:
256,160,58463,1,0,0:0:0:0:
256,160,58949,1,8,0:0:0:0:
256,160,59111,1,0,0:0:0:0:
256,160,59273,1,8,0:0:0:0:
256,160,59436,1,0,0:0:0:0:
256,160,59598,1,8,0:0:0:0:
256,160,59760,1,8,0:0:0:0:
256,160,60246,1,0,0:0:0:0:
256,160,60409,1,8,0:0:0:0:
256,160,60490,1,0,0:0:0:0:
256,160,60652,1,0,0:0:0:0:
256,160,60733,1,8,0:0:0:0:
256,160,60814,1,8,0:0:0:0:
256,160,60895,1,0,0:0:0:0:
256,192,61057,1,8,0:0:0:0:
256,192,61544,1,0,0:0:0:0:
256,192,61868,1,8,0:0:0:0:
256,192,62030,1,8,0:0:0:0:
256,192,62192,1,0,0:0:0:0:
256,192,62273,1,0,0:0:0:0:
256,192,62354,1,8,0:0:0:0:
256,192,62679,1,0,0:0:0:0:
256,192,63003,1,8,0:0:0:0:
256,192,63246,1,0,0:0:0:0:
256,192,63490,1,0,0:0:0:0:
256,192,63652,1,12,0:0:0:0:
256,192,63976,1,0,0:0:0:0:
256,192,64300,1,12,0:0:0:0:
256,192,64625,1,0,0:0:0:0:
256,192,64949,1,12,0:0:0:0:
256,192,65273,1,0,0:0:0:0:
224,192,65598,1,12,0:0:0:0:
256,192,65922,1,0,0:0:0:0:
256,192,66246,1,8,0:0:0:0:
256,192,66409,1,0,0:0:0:0:
256,192,66571,1,8,0:0:0:0:
256,192,66733,1,0,0:0:0:0:
256,192,66895,1,8,0:0:0:0:
256,192,67057,1,0,0:0:0:0:
256,192,67219,1,8,0:0:0:0:
256,192,67381,1,0,0:0:0:0:
256,192,67544,1,8,0:0:0:0:
256,192,67706,1,8,0:0:0:0:
256,192,67868,1,8,0:0:0:0:
256,192,68030,1,0,0:0:0:0:
256,192,68192,1,8,0:0:0:0:
256,192,68354,1,0,0:0:0:0:
256,192,68517,1,8,0:0:0:0:
256,192,68598,1,8,0:0:0:0:
224,192,68679,1,8,0:0:0:0:
224,192,68760,1,8,0:0:0:0:
256,192,68841,12,0,69976,0:0:0:0:
256,192,70138,5,8,0:0:0:0:
256,192,70219,1,8,0:0:0:0:
256,192,70300,1,0,0:0:0:0:
256,192,70381,1,0,0:0:0:0:
256,192,70463,1,8,0:0:0:0:
256,192,70544,1,0,0:0:0:0:
224,192,70625,1,8,0:0:0:0:
224,192,70706,1,0,0:0:0:0:
224,192,70787,1,8,0:0:0:0:
224,192,70868,1,8,0:0:0:0:
224,192,70949,1,8,0:0:0:0:
256,192,71030,1,0,0:0:0:0:
256,192,71111,1,8,0:0:0:0:
224,192,71192,1,8,0:0:0:0:
224,160,71273,1,0,0:0:0:0:
256,192,71436,1,12,0:0:0:0:
256,192,71679,1,8,0:0:0:0:
256,192,71760,1,0,0:0:0:0:
256,192,71922,1,8,0:0:0:0:
256,192,72084,1,0,0:0:0:0:
256,192,72165,1,8,0:0:0:0:
256,192,72327,1,8,0:0:0:0:
256,192,72409,1,0,0:0:0:0:
256,192,72490,1,0,0:0:0:0:
256,192,72571,1,8,0:0:0:0:
256,192,72733,1,0,0:0:0:0:
256,192,72976,1,8,0:0:0:0:
256,192,73057,1,0,0:0:0:0:
256,192,73219,1,8,0:0:0:0:
256,192,73381,1,0,0:0:0:0:
256,192,73463,1,8,0:0:0:0:
256,192,73544,1,8,0:0:0:0:
256,192,73625,1,0,0:0:0:0:
256,192,73706,1,8,0:0:0:0:
256,192,73787,1,8,0:0:0:0:
256,192,73868,1,0,0:0:0:0:
242,195,73949,1,0,0:0:0:0:
256,192,74030,1,8,0:0:0:0:
256,192,74273,1,8,0:0:0:0:
256,192,74354,1,0,0:0:0:0:
256,192,74517,1,8,0:0:0:0:
256,192,74598,1,0,0:0:0:0:
256,192,74679,1,8,0:0:0:0:
256,192,74841,1,0,0:0:0:0:
256,192,74922,1,8,0:0:0:0:
256,192,75084,1,0,0:0:0:0:
256,192,75165,1,8,0:0:0:0:
256,192,75327,1,8,0:0:0:0:
274,208,75490,1,0,0:0:0:0:
256,192,75571,1,8,0:0:0:0:
256,192,75814,1,8,0:0:0:0:
256,192,75895,1,0,0:0:0:0:
256,192,75976,1,8,0:0:0:0:
256,192,76057,1,8,0:0:0:0:
256,192,76138,1,8,0:0:0:0:
256,192,76219,1,8,0:0:0:0:
256,192,76300,1,0,0:0:0:0:
256,192,76381,1,8,0:0:0:0:
256,192,76463,1,0,0:0:0:0:
256,192,76625,1,8,0:0:0:0:
256,192,76733,1,0,0:0:0:0:
256,192,76841,1,0,0:0:0:0:
256,192,76949,1,8,0:0:0:0:
256,192,77057,1,0,0:0:0:0:
256,192,77165,1,0,0:0:0:0:
256,192,77273,1,8,0:0:0:0:
256,192,77354,1,8,0:0:0:0:
256,192,77436,1,0,0:0:0:0:
256,192,77517,1,8,0:0:0:0:
256,192,77598,1,0,0:0:0:0:
256,192,77922,1,8,0:0:0:0:
256,160,78030,1,0,0:0:0:0:
256,192,78138,1,0,0:0:0:0:
256,192,78246,1,8,0:0:0:0:
256,192,78354,1,0,0:0:0:0:
256,192,78463,1,0,0:0:0:0:
256,192,78571,1,8,0:0:0:0:
256,192,78652,1,8,0:0:0:0:
256,192,78733,1,0,0:0:0:0:
256,192,78814,1,0,0:0:0:0:
256,192,78895,1,8,0:0:0:0:
256,192,79219,1,8,0:0:0:0:
256,192,79381,1,0,0:0:0:0:
256,192,79463,1,8,0:0:0:0:
256,192,79625,1,0,0:0:0:0:
256,192,79706,1,8,0:0:0:0:
256,192,79868,1,8,0:0:0:0:
256,192,80030,1,0,0:0:0:0:
256,192,80111,1,8,0:0:0:0:
256,192,80273,1,8,0:0:0:0:
256,192,80354,1,0,0:0:0:0:
256,192,80517,1,8,0:0:0:0:
256,192,80679,1,0,0:0:0:0:
256,192,80760,1,0,0:0:0:0:
256,192,80841,1,8,0:0:0:0:
256,192,81003,1,0,0:0:0:0:
256,192,81165,1,8,0:0:0:0:
256,192,81246,1,0,0:0:0:0:
256,192,81409,1,0,0:0:0:0:
256,192,81490,1,8,0:0:0:0:
256,192,81652,1,0,0:0:0:0:
256,192,81814,1,12,0:0:0:0:
256,192,82057,1,8,0:0:0:0:
256,192,82138,1,0,0:0:0:0:
256,192,82300,1,8,0:0:0:0:
256,192,82381,1,0,0:0:0:0:
256,192,82463,1,0,0:0:0:0:
256,192,82544,1,8,0:0:0:0:
256,192,82706,1,0,0:0:0:0:
256,192,82787,1,8,0:0:0:0:
256,192,82949,1,0,0:0:0:0:
256,192,83111,1,0,0:0:0:0:
256,192,83354,1,8,0:0:0:0:
256,192,83436,1,8,0:0:0:0:
256,192,83598,1,0,0:0:0:0:
256,192,83760,1,8,0:0:0:0:
256,192,83841,1,0,0:0:0:0:
256,192,83922,1,0,0:0:0:0:
256,192,84003,1,8,0:0:0:0:
256,192,84084,1,0,0:0:0:0:
256,192,84165,1,0,0:0:0:0:
256,192,84246,1,8,0:0:0:0:
256,192,84409,1,8,0:0:0:0:
256,192,84652,1,0,0:0:0:0:
256,192,84733,1,8,0:0:0:0:
256,192,84895,1,8,0:0:0:0:
256,192,84976,1,0,0:0:0:0:
256,192,85057,1,8,0:0:0:0:
256,192,85219,1,0,0:0:0:0:
256,192,85300,1,8,0:0:0:0:
256,192,85463,1,0,0:0:0:0:
256,192,85544,1,8,0:0:0:0:
256,192,85706,1,8,0:0:0:0:
256,192,85949,1,0,0:0:0:0:
256,192,86192,1,8,0:0:0:0:
256,192,86273,1,0,0:0:0:0:
256,192,86354,1,8,0:0:0:0:
256,192,86436,1,8,0:0:0:0:
256,192,86517,5,0,0:0:0:0:
256,192,86598,1,0,0:0:0:0:
256,192,86679,1,8,0:0:0:0:
288,192,86760,1,0,0:0:0:0:
288,192,86841,1,8,0:0:0:0:
256,192,87003,1,0,0:0:0:0:
288,192,87111,1,8,0:0:0:0:
256,192,87219,1,0,0:0:0:0:
256,192,87327,1,8,0:0:0:0:
256,192,87436,1,0,0:0:0:0:
288,192,87544,1,0,0:0:0:0:
256,192,87652,1,8,0:0:0:0:
256,192,87733,1,0,0:0:0:0:
256,192,87814,1,0,0:0:0:0:
256,192,87895,1,0,0:0:0:0:
256,192,87976,1,8,0:0:0:0:
256,192,88138,1,0,0:0:0:0:
256,192,88300,1,8,0:0:0:0:
256,192,88409,1,0,0:0:0:0:
256,192,88517,1,8,0:0:0:0:
224,192,88625,1,8,0:0:0:0:
224,192,88733,1,0,0:0:0:0:
224,192,88841,1,0,0:0:0:0:
224,224,88949,1,8,0:0:0:0:
256,192,89030,1,8,0:0:0:0:
224,192,89111,1,0,0:0:0:0:
224,192,89192,1,0,0:0:0:0:
256,192,89273,1,0,0:0:0:0:
192,192,89436,1,0,0:0:0:0:
256,192,89598,1,8,0:0:0:0:
256,192,89760,1,0,0:0:0:0:
256,192,89841,1,8,0:0:0:0:
224,192,90003,1,0,0:0:0:0:
224,192,90084,1,8,0:0:0:0:
224,192,90246,1,8,0:0:0:0:
256,192,90409,1,0,0:0:0:0:
256,192,90490,1,8,0:0:0:0:
256,192,90652,1,8,0:0:0:0:
256,192,90733,1,8,0:0:0:0:
224,192,90895,1,0,0:0:0:0:
256,192,90976,1,0,0:0:0:0:
256,192,91057,1,8,0:0:0:0:
256,192,91138,1,0,0:0:0:0:
256,192,91219,1,0,0:0:0:0:
256,192,91300,1,0,0:0:0:0:
288,192,91381,1,8,0:0:0:0:
288,192,91463,1,8,0:0:0:0:
288,192,91544,1,0,0:0:0:0:
288,192,91625,1,0,0:0:0:0:
256,128,91706,1,8,0:0:0:0:
256,128,91787,1,0,0:0:0:0:
288,192,91868,1,8,0:0:0:0:
288,192,91949,1,8,0:0:0:0:
288,192,92030,1,0,0:0:0:0:
288,192,92192,1,12,0:0:0:0:
288,192,92679,1,0,0:0:0:0:
288,192,93165,1,8,0:0:0:0:
288,192,93490,1,0,0:0:0:0:
288,192,93976,1,0,0:0:0:0:
256,192,94463,1,0,0:0:0:0:
256,192,94787,1,8,0:0:0:0:
278,191,95273,1,0,0:0:0:0:
256,192,95436,1,0,0:0:0:0:
256,160,95760,1,8,0:0:0:0:
256,192,96084,1,0,0:0:0:0:
256,192,96246,1,8,0:0:0:0:
256,192,96571,1,0,0:0:0:0:
256,192,96733,1,8,0:0:0:0:
256,192,97057,1,0,0:0:0:0:
272,197,97381,1,12,0:0:0:0:
268,192,97706,1,0,0:0:0:0:
284,200,98030,1,0,0:0:0:0:
285,193,98354,1,0,0:0:0:0:
277,191,98679,1,12,0:0:0:0:
277,191,99003,1,0,0:0:0:0:
264,195,99327,1,0,0:0:0:0:
265,195,99490,1,0,0:0:0:0:
265,195,99571,1,0,0:0:0:0:
265,195,99652,1,0,0:0:0:0:
265,195,99814,1,0,0:0:0:0:
265,195,99895,1,0,0:0:0:0:
264,195,99976,1,8,0:0:0:0:
264,195,100138,1,8,0:0:0:0:
261,184,100219,1,8,0:0:0:0:
265,186,100300,1,0,0:0:0:0:
265,186,100463,1,0,0:0:0:0:
263,175,100544,1,0,0:0:0:0:
263,175,100625,1,8,0:0:0:0:
260,179,100787,1,0,0:0:0:0:
260,179,100868,1,0,0:0:0:0:
260,179,100949,1,0,0:0:0:0:
260,179,101030,1,0,0:0:0:0:
260,179,101111,1,0,0:0:0:0:
261,184,101192,1,0,0:0:0:0:
260,179,101273,1,8,0:0:0:0:
265,186,101436,1,0,0:0:0:0:
261,187,101517,1,0,0:0:0:0:
254,197,101598,1,8,0:0:0:0:
255,197,101760,1,0,0:0:0:0:
255,197,101841,1,0,0:0:0:0:
255,197,101922,1,8,0:0:0:0:
240,195,102084,1,8,0:0:0:0:
240,195,102165,1,0,0:0:0:0:
240,195,102246,1,8,0:0:0:0:
240,195,102327,1,0,0:0:0:0:
259,213,102409,1,0,0:0:0:0:
256,192,102490,1,0,0:0:0:0:
243,189,102895,1,4,0:0:0:0:
252,190,103057,1,8,0:0:0:0:
252,190,103138,1,8,0:0:0:0:
252,190,103219,1,0,0:0:0:0:
257,180,103381,1,8,0:0:0:0:
257,180,103544,1,0,0:0:0:0:
243,180,103706,1,8,0:0:0:0:
256,192,103787,1,8,0:0:0:0:
251,192,103868,1,0,0:0:0:0:
252,190,103949,1,0,0:0:0:0:
252,190,104030,1,0,0:0:0:0:
252,190,104111,1,0,0:0:0:0:
252,190,104192,1,8,0:0:0:0:
257,180,104273,1,0,0:0:0:0:
257,180,104354,1,8,0:0:0:0:
243,195,104436,1,8,0:0:0:0:
269,195,104517,1,8,0:0:0:0:
269,195,104598,1,0,0:0:0:0:
269,195,104679,1,8,0:0:0:0:
269,196,104760,1,8,0:0:0:0:
269,196,104841,1,0,0:0:0:0:
265,191,104922,1,8,0:0:0:0:
265,191,105003,1,0,0:0:0:0:
262,191,105084,1,0,0:0:0:0:
263,196,105165,1,8,0:0:0:0:
263,196,105327,1,0,0:0:0:0:
254,189,105409,1,0,0:0:0:0:
254,189,105490,1,8,0:0:0:0:
259,186,105571,1,8,0:0:0:0:
259,186,105652,1,8,0:0:0:0:
251,198,105733,1,0,0:0:0:0:
251,198,105814,1,8,0:0:0:0:
253,189,105895,1,0,0:0:0:0:
253,189,105976,1,8,0:0:0:0:
253,189,106057,1,8,0:0:0:0:
287,202,106219,1,0,0:0:0:0:
247,184,106300,1,8,0:0:0:0:
247,184,106381,1,8,0:0:0:0:
247,184,106463,1,0,0:0:0:0:
247,184,106544,1,0,0:0:0:0:
259,186,106625,1,8,0:0:0:0:
257,183,106706,1,0,0:0:0:0:
257,183,106787,1,8,0:0:0:0:
257,204,106868,1,8,0:0:0:0:
257,204,106949,1,8,0:0:0:0:
255,202,107030,1,0,0:0:0:0:
256,202,107111,1,8,0:0:0:0:
255,202,107192,1,8,0:0:0:0:
255,202,107273,1,8,0:0:0:0:
255,202,107354,1,8,0:0:0:0:
255,202,107436,1,0,0:0:0:0:
255,202,107598,1,0,0:0:0:0:
262,210,107760,1,8,0:0:0:0:
257,204,107868,1,8,0:0:0:0:
257,204,107976,1,0,0:0:0:0:
256,202,108084,1,8,0:0:0:0:
244,170,108192,1,8,0:0:0:0:
244,170,108300,1,0,0:0:0:0:
246,188,108409,1,8,0:0:0:0:
245,184,108490,1,8,0:0:0:0:
245,184,108571,1,0,0:0:0:0:
245,184,108652,1,8,0:0:0:0:
245,184,108733,1,0,0:0:0:0:
245,184,108814,1,0,0:0:0:0:
245,184,108895,1,8,0:0:0:0:
245,184,108976,1,0,0:0:0:0:
246,188,109057,1,8,0:0:0:0:
246,188,109165,1,0,0:0:0:0:
246,188,109273,1,0,0:0:0:0:
246,188,109381,1,8,0:0:0:0:
246,188,109490,1,0,0:0:0:0:
246,188,109598,1,0,0:0:0:0:
246,188,109706,1,8,0:0:0:0:
245,184,109787,1,8,0:0:0:0:
245,184,109868,1,0,0:0:0:0:
245,184,109949,1,0,0:0:0:0:
246,188,110030,1,0,0:0:0:0:
240,181,110192,1,0,0:0:0:0:
246,188,110354,1,8,0:0:0:0:
246,188,110436,1,0,0:0:0:0:
246,188,110517,1,0,0:0:0:0:
221,172,110598,1,8,0:0:0:0:
221,172,110760,1,0,0:0:0:0:
221,172,110841,1,8,0:0:0:0:
221,172,111003,1,8,0:0:0:0:
221,172,111084,1,0,0:0:0:0:
221,172,111165,1,0,0:0:0:0:
221,172,111246,1,8,0:0:0:0:
229,177,111409,1,8,0:0:0:0:
229,177,111490,1,8,0:0:0:0:
237,176,111652,1,8,0:0:0:0:
237,176,111733,1,8,0:0:0:0:
237,176,111814,1,0,0:0:0:0:
237,176,111895,1,0,0:0:0:0:
237,176,111976,1,8,0:0:0:0:
237,176,112057,1,8,0:0:0:0:
237,176,112138,1,0,0:0:0:0:
235,189,112219,1,0,0:0:0:0:
234,189,112300,1,8,0:0:0:0:
234,189,112381,1,0,0:0:0:0:
234,189,112463,1,8,0:0:0:0:
234,189,112544,1,0,0:0:0:0:
234,189,112625,1,8,0:0:0:0:
234,189,112706,1,8,0:0:0:0:
234,189,112787,1,0,0:0:0:0:
256,192,112949,12,8,114246,0:0:0:0:
