osu file format v14

[General]
AudioFilename: audio.mp3
AudioLeadIn: 0
PreviewTime: 71111
Countdown: 0
SampleSet: Normal
StackLeniency: 0.7
Mode: 1
LetterboxInBreaks: 0
WidescreenStoryboard: 0

[Editor]
Bookmarks: 16949,27327,37706,48084,58463
DistanceSpacing: 0.8
BeatDivisor: 4
GridSize: 32
TimelineZoom: 1.100001

[Metadata]
Title:Inverse World
TitleUnicode:Inverse World
Artist:Sisterz
ArtistUnicode:Sisterz
Creator:Marm
Version:Futsuu
Source:
Tags:trance itsuha. ta2max HiroK xfraczynho
BeatmapID:1400126
BeatmapSetID:660352

[Difficulty]
HPDrainRate:7
CircleSize:2
OverallDifficulty:4.5
ApproachRate:0
SliderMultiplier:1.4
SliderTickRate:1

[Events]
//Background and Video events
0,0,"inverse world.jpg",0,0
//Break Periods
//Storyboard Layer 0 (Background)
//Storyboard Layer 1 (Fail)
//Storyboard Layer 2 (Pass)
//Storyboard Layer 3 (Foreground)
//Storyboard Sound Samples

[TimingPoints]
1382,324.324324324324,4,1,0,100,1,0
71436,-100,4,1,0,100,0,1
92192,-100,4,1,0,100,0,0
102895,-100,4,1,0,100,0,1
112949,-100,4,1,0,100,0,0

[HitObjects]
256,192,1057,5,8,0:0:0:0:
256,192,1382,1,4,0:0:0:0:
256,192,1868,1,4,0:0:0:0:
256,192,2679,1,4,0:0:0:0:
256,192,3165,1,4,0:0:0:0:
256,192,3652,1,8,0:0:0:0:
256,192,3976,1,4,0:0:0:0:
256,192,4625,1,4,0:0:0:0:
256,192,5273,1,4,0:0:0:0:
256,192,5760,1,4,0:0:0:0:
256,192,6246,1,12,0:0:0:0:
256,192,6571,1,0,0:0:0:0:
256,192,7219,1,0,0:0:0:0:
256,192,7544,1,0,0:0:0:0:
256,192,7868,1,8,0:0:0:0:
256,192,8517,1,8,0:0:0:0:
256,192,8841,1,0,0:0:0:0:
256,192,9165,1,8,0:0:0:0:
256,192,9814,1,8,0:0:0:0:
256,192,10463,1,12,0:0:0:0:
256,192,10787,1,12,0:0:0:0:
256,192,11111,1,12,0:0:0:0:
256,192,11436,1,0,0:0:0:0:
256,192,11598,1,0,0:0:0:0:
256,192,11760,1,12,0:0:0:0:
256,192,12409,1,0,0:0:0:0:
256,192,13057,1,8,0:0:0:0:
256,192,13706,1,0,0:0:0:0:
256,192,14030,1,0,0:0:0:0:
256,192,14354,1,8,0:0:0:0:
256,192,15003,1,0,0:0:0:0:
256,192,15652,1,8,0:0:0:0:
256,192,15814,1,8,0:0:0:0:
256,192,15976,1,8,0:0:0:0:
256,192,16300,1,0,0:0:0:0:
256,192,16463,1,0,0:0:0:0:
256,192,16625,1,0,0:0:0:0:
256,192,16949,1,12,0:0:0:0:
256,192,17598,1,0,0:0:0:0:
256,192,17922,1,8,0:0:0:0:
256,192,18246,1,0,0:0:0:0:
256,192,18895,1,0,0:0:0:0:
256,192,19219,1,0,0:0:0:0:
256,192,19544,1,8,0:0:0:0:
256,192,20192,1,8,0:0:0:0:
256,192,20517,1,0,0:0:0:0:
256,192,20841,1,8,0:0:0:0:
256,192,21165,1,0,0:0:0:0:
256,192,21327,1,0,0:0:0:0:
256,192,21490,1,0,0:0:0:0:
256,192,21814,1,8,0:0:0:0:
256,192,22138,1,0,0:0:0:0:
256,192,22787,1,8,0:0:0:0:
256,192,23111,1,8,0:0:0:0:
256,192,23436,1,8,0:0:0:0:
256,192,24084,1,8,0:0:0:0:
256,192,24409,1,8,0:0:0:0:
256,192,24733,1,0,0:0:0:0:
256,192,25381,1,0,0:0:0:0:
256,192,25706,1,0,0:0:0:0:
256,192,26030,1,8,0:0:0:0:
256,192,26354,1,0,0:0:0:0:
256,192,26679,1,8,0:0:0:0:
256,192,26841,1,0,0:0:0:0:
256,192,27003,1,12,0:0:0:0:
256,192,27327,1,0,0:0:0:0:
256,192,27814,1,8,0:0:0:0:
256,192,28300,1,0,0:0:0:0:
256,192,28625,1,8,0:0:0:0:
256,192,29111,1,0,0:0:0:0:
256,192,29598,1,8,0:0:0:0:
256,192,29922,1,0,0:0:0:0:
256,192,30571,1,0,0:0:0:0:
256,192,30895,1,8,0:0:0:0:
256,192,31219,1,0,0:0:0:0:
256,192,31868,1,8,0:0:0:0:
256,192,32517,1,8,0:0:0:0:
256,192,32679,1,8,0:0:0:0:
256,192,32841,1,0,0:0:0:0:
256,192,33165,1,0,0:0:0:0:
256,192,33814,1,8,0:0:0:0:
256,192,33976,1,8,0:0:0:0:
256,192,34138,1,0,0:0:0:0:
256,192,34463,1,8,0:0:0:0:
256,192,35111,1,0,0:0:0:0:
256,192,35273,1,0,0:0:0:0:
256,192,35436,1,8,0:0:0:0:
256,192,35760,1,0,0:0:0:0:
256,192,36084,1,8,0:0:0:0:
256,192,36409,1,8,0:0:0:0:
256,192,36733,1,0,0:0:0:0:
256,192,37057,1,8,0:0:0:0:
256,192,37219,1,8,0:0:0:0:
256,192,37381,1,8,0:0:0:0:
256,192,37706,1,12,0:0:0:0:
256,192,38354,1,8,0:0:0:0:
256,192,38679,1,0,0:0:0:0:
256,192,38841,1,0,0:0:0:0:
256,192,39003,1,8,0:0:0:0:
256,192,39327,1,0,0:0:0:0:
256,192,39652,1,0,0:0:0:0:
256,192,39976,1,8,0:0:0:0:
256,192,40138,1,8,0:0:0:0:
256,192,40300,1,8,0:0:0:0:
256,192,40787,1,0,0:0:0:0:
256,192,41273,1,8,0:0:0:0:
256,192,41436,1,8,0:0:0:0:
256,192,41598,1,0,0:0:0:0:
256,192,41922,1,0,0:0:0:0:
256,192,42246,1,8,0:0:0:0:
256,192,42571,1,0,0:0:0:0:
256,192,42895,1,8,0:0:0:0:
256,192,43544,1,8,0:0:0:0:
256,192,43868,1,0,0:0:0:0:
256,192,44030,1,0,0:0:0:0:
256,192,44192,1,8,0:0:0:0:
256,192,44517,1,8,0:0:0:0:
256,192,44841,1,0,0:0:0:0:
256,192,45165,1,0,0:0:0:0:
256,192,45327,1,8,0:0:0:0:
256,192,45490,1,0,0:0:0:0:
256,192,46138,1,0,0:0:0:0:
256,192,46463,1,0,0:0:0:0:
256,192,46787,1,8,0:0:0:0:
256,192,47111,1,0,0:0:0:0:
256,192,47273,1,0,0:0:0:0:
256,192,47436,1,0,0:0:0:0:
256,192,47760,1,12,0:0:0:0:
256,192,48084,1,0,0:0:0:0:
256,192,48732,1,8,0:0:0:0:
256,192,49057,1,0,0:0:0:0:
256,192,49219,1,0,0:0:0:0:
256,192,49381,1,8,0:0:0:0:
256,192,49706,1,0,0:0:0:0:
256,192,50030,1,0,0:0:0:0:
256,192,50354,1,8,0:0:0:0:
256,192,50516,1,8,0:0:0:0:
256,192,50678,1,8,0:0:0:0:
256,192,51165,1,0,0:0:0:0:
256,192,51651,1,8,0:0:0:0:
256,192,51814,1,8,0:0:0:0:
256,192,51976,1,0,0:0:0:0:
256,192,52300,1,0,0:0:0:0:
256,192,52625,1,8,0:0:0:0:
256,192,52949,1,0,0:0:0:0:
256,192,53273,1,8,0:0:0:0:
256,192,53922,1,8,0:0:0:0:
256,192,54246,1,0,0:0:0:0:
256,192,54409,1,8,0:0:0:0:
256,192,54571,1,0,0:0:0:0:
256,192,55219,1,0,0:0:0:0:
256,192,55544,1,8,0:0:0:0:
256,192,55706,1,8,0:0:0:0:
256,192,55868,1,0,0:0:0:0:
256,192,56192,1,8,0:0:0:0:
256,192,56517,1,0,0:0:0:0:
256,192,56841,1,8,0:0:0:0:
256,192,57003,1,8,0:0:0:0:
256,192,57165,1,8,0:0:0:0:
256,192,57490,1,8,0:0:0:0:
256,192,57814,1,0,0:0:0:0:
256,192,57976,1,0,0:0:0:0:
256,192,58138,1,8,0:0:0:0:
256,192,58463,1,12,0:0:0:0:
256,192,59436,1,0,0:0:0:0:
256,192,59760,1,4,0:0:0:0:
256,192,60733,1,0,0:0:0:0:
256,192,61057,1,4,0:0:0:0:
256,192,62030,1,0,0:0:0:0:
256,192,62354,1,4,0:0:0:0:
256,192,63003,1,0,0:0:0:0:
256,192,63246,1,0,0:0:0:0:
256,192,63490,1,0,0:0:0:0:
256,192,63652,1,4,0:0:0:0:
256,192,64300,1,4,0:0:0:0:
256,192,64949,1,4,0:0:0:0:
256,192,65598,1,4,0:0:0:0:
256,192,66246,1,4,0:0:0:0:
256,192,66571,1,4,0:0:0:0:
256,192,66895,1,4,0:0:0:0:
256,192,67219,1,4,0:0:0:0:
256,192,67544,1,0,0:0:0:0:
256,192,67706,1,0,0:0:0:0:
256,192,67868,1,0,0:0:0:0:
256,192,68192,1,0,0:0:0:0:
256,192,68354,1,0,0:0:0:0:
256,192,68517,1,0,0:0:0:0:
256,192,68679,1,0,0:0:0:0:
256,192,68841,12,0,69814,0:0:0:0:
256,192,70138,5,8,0:0:0:0:
256,192,70300,1,0,0:0:0:0:
256,192,70463,1,8,0:0:0:0:
256,192,70787,1,0,0:0:0:0:
256,192,71111,1,8,0:0:0:0:
256,192,71436,1,0,0:0:0:0:
256,192,71760,1,0,0:0:0:0:
256,192,71922,1,8,0:0:0:0:
256,192,72246,1,8,0:0:0:0:
256,192,72409,1,0,0:0:0:0:
256,192,72733,1,0,0:0:0:0:
256,192,73057,1,0,0:0:0:0:
256,192,73219,1,8,0:0:0:0:
256,192,73544,1,8,0:0:0:0:
256,192,73706,1,0,0:0:0:0:
256,192,74030,1,0,0:0:0:0:
256,192,74679,1,8,0:0:0:0:
256,192,75327,1,0,0:0:0:0:
256,192,75652,1,0,0:0:0:0:
256,192,75976,1,8,0:0:0:0:
256,192,76300,1,8,0:0:0:0:
256,192,76463,1,8,0:0:0:0:
256,192,76625,1,0,0:0:0:0:
256,192,76949,1,0,0:0:0:0:
256,192,77273,1,0,0:0:0:0:
256,192,77598,1,12,0:0:0:0:
256,192,77922,1,0,0:0:0:0:
256,192,78246,1,0,0:0:0:0:
256,192,78571,1,0,0:0:0:0:
256,192,78895,1,12,0:0:0:0:
256,192,79219,1,4,0:0:0:0:
256,192,79868,1,4,0:0:0:0:
256,192,80517,1,12,0:0:0:0:
256,192,80841,1,0,0:0:0:0:
256,192,81165,1,8,0:0:0:0:
256,192,81327,1,0,0:0:0:0:
256,192,81490,1,8,0:0:0:0:
256,192,81814,1,0,0:0:0:0:
256,192,82138,1,0,0:0:0:0:
256,192,82300,1,8,0:0:0:0:
256,192,82625,1,8,0:0:0:0:
256,192,82787,1,0,0:0:0:0:
256,192,83111,1,0,0:0:0:0:
256,192,83436,1,0,0:0:0:0:
256,192,83598,1,8,0:0:0:0:
256,192,83922,1,8,0:0:0:0:
256,192,84084,1,0,0:0:0:0:
256,192,84409,1,0,0:0:0:0:
256,192,85057,1,8,0:0:0:0:
256,192,85706,1,0,0:0:0:0:
256,192,86030,1,0,0:0:0:0:
256,192,86354,1,8,0:0:0:0:
256,192,86679,1,8,0:0:0:0:
256,192,86841,1,8,0:0:0:0:
256,192,87003,1,0,0:0:0:0:
256,192,87327,1,0,0:0:0:0:
256,192,87652,1,0,0:0:0:0:
256,192,87976,1,0,0:0:0:0:
256,192,88138,1,0,0:0:0:0:
256,192,88300,1,8,0:0:0:0:
256,192,88625,1,0,0:0:0:0:
256,192,88949,1,0,0:0:0:0:
256,192,89273,1,8,0:0:0:0:
256,192,89436,1,0,0:0:0:0:
256,192,89598,1,8,0:0:0:0:
256,192,90246,1,8,0:0:0:0:
256,192,90571,1,0,0:0:0:0:
256,192,90895,1,8,0:0:0:0:
256,192,91057,1,8,0:0:0:0:
256,192,91219,1,0,0:0:0:0:
256,192,91544,1,8,0:0:0:0:
256,192,91868,1,8,0:0:0:0:
256,192,92030,1,8,0:0:0:0:
256,192,92192,12,8,92841,0:0:0:0:
256,192,94787,5,8,0:0:0:0:
256,192,95436,1,0,0:0:0:0:
256,192,95760,1,8,0:0:0:0:
256,192,96084,1,0,0:0:0:0:
256,192,96246,1,8,0:0:0:0:
256,192,96733,1,8,0:0:0:0:
256,192,97057,1,8,0:0:0:0:
256,192,97381,1,4,0:0:0:0:
256,192,98679,1,12,0:0:0:0:
256,192,99976,1,4,0:0:0:0:
256,192,100625,1,4,0:0:0:0:
256,192,101273,1,12,0:0:0:0:
256,192,101598,1,12,0:0:0:0:
256,192,101922,1,12,0:0:0:0:
256,192,102246,1,12,0:0:0:0:
256,192,102409,1,12,0:0:0:0:
256,192,102895,1,12,0:0:0:0:
256,192,103219,1,8,0:0:0:0:
256,192,103381,1,0,0:0:0:0:
256,192,103544,1,8,0:0:0:0:
256,192,103868,1,0,0:0:0:0:
256,192,104192,1,0,0:0:0:0:
256,192,104517,1,8,0:0:0:0:
256,192,104841,1,0,0:0:0:0:
256,192,105003,1,0,0:0:0:0:
256,192,105165,1,8,0:0:0:0:
256,192,105814,1,8,0:0:0:0:
256,192,106138,1,8,0:0:0:0:
256,192,106300,1,8,0:0:0:0:
256,192,106463,1,0,0:0:0:0:
256,192,106787,1,0,0:0:0:0:
256,192,107111,1,8,0:0:0:0:
256,192,107436,1,0,0:0:0:0:
256,192,107760,1,8,0:0:0:0:
256,192,108084,1,8,0:0:0:0:
256,192,108246,1,0,0:0:0:0:
256,192,108409,1,8,0:0:0:0:
256,192,108733,1,0,0:0:0:0:
256,192,109057,1,8,0:0:0:0:
256,192,109381,1,8,0:0:0:0:
256,192,109544,1,0,0:0:0:0:
256,192,109706,1,8,0:0:0:0:
256,192,110030,1,0,0:0:0:0:
256,192,110354,1,8,0:0:0:0:
256,192,111003,1,8,0:0:0:0:
256,192,111327,1,8,0:0:0:0:
256,192,111652,1,8,0:0:0:0:
256,192,111814,1,8,0:0:0:0:
256,192,111976,1,0,0:0:0:0:
256,192,112300,1,8,0:0:0:0:
256,192,112625,1,8,0:0:0:0:
256,192,112787,1,8,0:0:0:0:
256,192,112949,12,8,114246,0:0:0:0:
