osu file format v14

[General]
AudioFilename: audio.mp3
AudioLeadIn: 0
PreviewTime: 71111
Countdown: 0
SampleSet: Normal
StackLeniency: 0.7
Mode: 1
LetterboxInBreaks: 0
WidescreenStoryboard: 0

[Editor]
Bookmarks: 16949,27327,37706,48084,58463
DistanceSpacing: 0.8
BeatDivisor: 2
GridSize: 32
TimelineZoom: 0.8000011

[Metadata]
Title:Inverse World
TitleUnicode:Inverse World
Artist:Sisterz
ArtistUnicode:Sisterz
Creator:Marm
Version:Kantan
Source:
Tags:trance itsuha. ta2max HiroK xfraczynho
BeatmapID:1400149
BeatmapSetID:660352

[Difficulty]
HPDrainRate:7.5
CircleSize:2
OverallDifficulty:4
ApproachRate:0
SliderMultiplier:1.4
SliderTickRate:1

[Events]
//Background and Video events
0,0,"inverse world.jpg",0,0
//Break Periods
//Storyboard Layer 0 (Background)
//Storyboard Layer 1 (Fail)
//Storyboard Layer 2 (Pass)
//Storyboard Layer 3 (Foreground)
//Storyboard Sound Samples

[TimingPoints]
1382,324.324324324324,4,1,0,100,1,0
71436,-100,4,1,0,100,0,1
92192,-100,4,1,0,100,0,0
102895,-100,4,1,0,100,0,1
112949,-100,4,1,0,100,0,0

[HitObjects]
256,192,1382,5,0,0:0:0:0:
256,192,2679,1,0,0:0:0:0:
256,192,3976,1,0,0:0:0:0:
256,192,4625,1,0,0:0:0:0:
256,192,5273,1,0,0:0:0:0:
256,192,5760,1,0,0:0:0:0:
256,192,6246,1,12,0:0:0:0:
256,192,6571,1,0,0:0:0:0:
256,192,7868,1,0,0:0:0:0:
256,192,9165,1,0,0:0:0:0:
256,192,9814,1,0,0:0:0:0:
256,192,10463,1,8,0:0:0:0:
256,192,10787,1,8,0:0:0:0:
256,192,11111,1,8,0:0:0:0:
256,192,11760,1,4,0:0:0:0:
256,192,12733,1,0,0:0:0:0:
256,192,13057,1,0,0:0:0:0:
256,192,14030,1,0,0:0:0:0:
256,192,14354,1,8,0:0:0:0:
256,192,15003,1,8,0:0:0:0:
256,192,15652,1,8,0:0:0:0:
256,192,15976,1,0,0:0:0:0:
256,192,16300,1,8,0:0:0:0:
256,192,16949,1,12,0:0:0:0:
256,192,18246,1,0,0:0:0:0:
256,192,19544,1,8,0:0:0:0:
256,192,20192,1,0,0:0:0:0:
256,192,20841,1,0,0:0:0:0:
256,192,21814,1,0,0:0:0:0:
256,192,22138,1,8,0:0:0:0:
256,192,23436,1,8,0:0:0:0:
256,192,24733,1,8,0:0:0:0:
256,192,25381,1,8,0:0:0:0:
256,192,26030,1,0,0:0:0:0:
256,192,27003,1,12,0:0:0:0:
256,192,27327,1,0,0:0:0:0:
256,192,28625,1,8,0:0:0:0:
256,192,29922,1,8,0:0:0:0:
256,192,30571,1,8,0:0:0:0:
256,192,31219,1,0,0:0:0:0:
256,192,32192,1,0,0:0:0:0:
256,192,32517,1,8,0:0:0:0:
256,192,33165,1,0,0:0:0:0:
256,192,33814,1,8,0:0:0:0:
256,192,34463,1,0,0:0:0:0:
256,192,35111,1,8,0:0:0:0:
256,192,35760,1,8,0:0:0:0:
256,192,36409,1,0,0:0:0:0:
256,192,37057,1,8,0:0:0:0:
256,192,37381,1,0,0:0:0:0:
256,192,37706,1,8,0:0:0:0:
256,192,38679,1,0,0:0:0:0:
256,192,39003,1,8,0:0:0:0:
256,192,40300,1,8,0:0:0:0:
256,192,40787,1,0,0:0:0:0:
256,192,41273,1,8,0:0:0:0:
256,192,41598,1,0,0:0:0:0:
256,192,42895,1,8,0:0:0:0:
256,192,43868,1,8,0:0:0:0:
256,192,44192,1,0,0:0:0:0:
256,192,45490,1,8,0:0:0:0:
256,192,46138,1,8,0:0:0:0:
256,192,46463,1,0,0:0:0:0:
256,192,46787,1,8,0:0:0:0:
256,192,47760,1,12,0:0:0:0:
256,192,48084,1,0,0:0:0:0:
256,192,49057,1,0,0:0:0:0:
256,192,49381,1,8,0:0:0:0:
256,192,50679,1,8,0:0:0:0:
256,192,51165,1,0,0:0:0:0:
256,192,51652,1,8,0:0:0:0:
256,192,51976,1,0,0:0:0:0:
256,192,53273,1,12,0:0:0:0:
256,192,54246,1,0,0:0:0:0:
256,192,54571,1,8,0:0:0:0:
256,192,55544,1,0,0:0:0:0:
256,192,55868,1,8,0:0:0:0:
256,192,56517,1,0,0:0:0:0:
256,192,57165,1,8,0:0:0:0:
256,192,57490,1,8,0:0:0:0:
256,192,57814,1,8,0:0:0:0:
256,192,58463,1,8,0:0:0:0:
256,192,59760,1,4,0:0:0:0:
256,192,61057,1,4,0:0:0:0:
256,192,62354,1,4,0:0:0:0:
256,192,63652,1,4,0:0:0:0:
256,192,64300,1,4,0:0:0:0:
256,192,64949,1,4,0:0:0:0:
256,192,66246,1,0,0:0:0:0:
256,192,66895,1,0,0:0:0:0:
256,192,67544,1,0,0:0:0:0:
256,192,67868,1,0,0:0:0:0:
256,192,68192,1,0,0:0:0:0:
256,192,68517,1,8,0:0:0:0:
256,192,68679,1,8,0:0:0:0:
256,192,68841,1,8,0:0:0:0:
160,192,70138,6,0,L|160:32,3,140
256,192,71436,1,8,0:0:0:0:
256,192,71922,1,8,0:0:0:0:
256,192,72733,1,0,0:0:0:0:
256,192,73219,1,0,0:0:0:0:
256,192,74030,1,8,0:0:0:0:
256,192,74679,1,0,0:0:0:0:
256,192,75327,1,8,0:0:0:0:
256,192,76625,1,0,0:0:0:0:
256,192,77598,1,12,0:0:0:0:
256,192,77922,1,0,0:0:0:0:
256,192,78895,1,12,0:0:0:0:
256,192,79219,1,4,0:0:0:0:
256,192,79868,1,8,0:0:0:0:
256,192,80517,1,0,0:0:0:0:
256,192,80841,1,0,0:0:0:0:
256,192,81165,1,8,0:0:0:0:
256,192,81814,1,8,0:0:0:0:
256,192,82300,1,8,0:0:0:0:
256,192,83111,1,0,0:0:0:0:
256,192,83598,1,0,0:0:0:0:
256,192,84409,1,8,0:0:0:0:
256,192,85057,1,0,0:0:0:0:
256,192,85706,1,8,0:0:0:0:
256,192,87003,1,0,0:0:0:0:
256,192,88300,1,0,0:0:0:0:
256,192,89598,1,0,0:0:0:0:
256,192,90246,1,0,0:0:0:0:
256,192,90895,1,0,0:0:0:0:
256,192,91219,1,0,0:0:0:0:
256,192,91544,1,0,0:0:0:0:
256,192,91868,1,12,0:0:0:0:
256,192,92192,12,0,92841,0:0:0:0:
256,192,94787,5,8,0:0:0:0:
256,192,97381,5,4,0:0:0:0:
256,192,98679,1,12,0:0:0:0:
256,192,99976,1,4,0:0:0:0:
256,192,100625,1,4,0:0:0:0:
256,192,101273,1,8,0:0:0:0:
256,192,101598,1,8,0:0:0:0:
256,192,101922,1,8,0:0:0:0:
256,192,102246,1,8,0:0:0:0:
256,192,102895,1,12,0:0:0:0:
256,192,103868,1,0,0:0:0:0:
256,192,104841,1,8,0:0:0:0:
256,192,105165,1,0,0:0:0:0:
256,192,105814,1,8,0:0:0:0:
256,192,106463,1,0,0:0:0:0:
256,192,107760,1,4,0:0:0:0:
256,192,108733,1,8,0:0:0:0:
256,192,109057,1,4,0:0:0:0:
256,192,110030,1,8,0:0:0:0:
256,192,110354,1,4,0:0:0:0:
256,192,111003,1,4,0:0:0:0:
256,192,111652,1,0,0:0:0:0:
256,192,111976,1,0,0:0:0:0:
256,192,112300,1,0,0:0:0:0:
256,192,112625,1,8,0:0:0:0:
256,192,112949,12,0,114246,0:0:0:0:
