osu file format v14

[General]
AudioFilename: audio.mp3
AudioLeadIn: 0
PreviewTime: 71111
Countdown: 0
SampleSet: Normal
StackLeniency: 0.7
Mode: 1
LetterboxInBreaks: 0
WidescreenStoryboard: 0

[Editor]
Bookmarks: 27327,37706,48084,58463
DistanceSpacing: 0.8
BeatDivisor: 6
GridSize: 32
TimelineZoom: 2.5

[Metadata]
Title:Inverse World
TitleUnicode:Inverse World
Artist:Sisterz
ArtistUnicode:Sisterz
Creator:Marm
Version:Antithesis
Source:
Tags:trance itsuha. ta2max HiroK xfraczynho
BeatmapID:1398311
BeatmapSetID:660352

[Difficulty]
HPDrainRate:4
CircleSize:2
OverallDifficulty:6.5
ApproachRate:0
SliderMultiplier:1.4
SliderTickRate:1

[Events]
//Background and Video events
0,0,"inverse world.jpg",0,0
//Break Periods
//Storyboard Layer 0 (Background)
//Storyboard Layer 1 (Fail)
//Storyboard Layer 2 (Pass)
//Storyboard Layer 3 (Foreground)
//Storyboard Sound Samples

[TimingPoints]
1382,324.324324324324,4,1,0,100,1,0
58544,-125,4,1,0,100,0,0
66409,-121.951219512195,4,1,0,100,0,0
66733,-119.047619047619,4,1,0,100,0,0
67057,-116.279069767442,4,1,0,100,0,0
67381,-113.636363636364,4,1,0,100,0,0
67625,-112.359550561798,4,1,0,100,0,0
67787,-111.111111111111,4,1,0,100,0,0
67949,-109.89010989011,4,1,0,100,0,0
68111,-108.695652173913,4,1,0,100,0,0
68273,-107.52688172043,4,1,0,100,0,0
68490,-106.382978723404,4,1,0,100,0,0
68544,-105.263157894737,4,1,0,100,0,0
68598,-104.166666666667,4,1,0,100,0,0
68652,-103.092783505155,4,1,0,100,0,0
68706,-102.040816326531,4,1,0,100,0,0
68760,-101.010101010101,4,1,0,100,0,0
68814,-100,4,1,0,100,0,0
71436,-100,4,1,0,100,0,1
92192,-100,4,1,0,100,0,0
92638,-102.040816326531,4,1,0,100,0,0
93125,-104.166666666667,4,1,0,100,0,0
93449,-105.263157894737,4,1,0,100,0,0
93936,-107.52688172043,4,1,0,100,0,0
94260,-109.89010989011,4,1,0,100,0,0
94422,-111.111111111111,4,1,0,100,0,0
94706,-113.636363636364,4,1,0,100,0,0
95192,-116.279069767442,4,1,0,100,0,0
95354,-117.647058823529,4,1,0,100,0,0
95679,-120.481927710843,4,1,0,100,0,0
95841,-121.951219512195,4,1,0,100,0,0
96003,-123.456790123457,4,1,0,100,0,0
96165,-125,4,1,0,100,0,0
99854,-123.456790123457,4,1,0,100,0,0
99936,-121.951219512195,4,1,0,100,0,0
100017,-120.481927710843,4,1,0,100,0,0
100098,-119.047619047619,4,1,0,100,0,0
100179,-117.647058823529,4,1,0,100,0,0
100260,-116.279069767442,4,1,0,100,0,0
100341,-114.942528735632,4,1,0,100,0,0
100422,-113.636363636364,4,1,0,100,0,0
100503,-112.359550561798,4,1,0,100,0,0
100584,-111.111111111111,4,1,0,100,0,0
100665,-109.89010989011,4,1,0,100,0,0
100746,-108.695652173913,4,1,0,100,0,0
100827,-107.52688172043,4,1,0,100,0,0
100909,-106.382978723404,4,1,0,100,0,0
100990,-105.263157894737,4,1,0,100,0,0
101071,-104.166666666667,4,1,0,100,0,0
101152,-103.092783505155,4,1,0,100,0,0
101233,-102.040816326531,4,1,0,100,0,0
102692,-101.010101010101,4,1,0,100,0,0
102895,-100,4,1,0,100,0,1
112949,-100,4,1,0,100,0,0

[HitObjects]
256,192,1057,5,8,0:0:0:0:
256,192,1111,1,8,0:0:0:0:
256,192,1165,1,8,0:0:0:0:
256,192,1219,1,0,0:0:0:0:
256,192,1382,1,12,0:0:0:0:
256,192,1625,1,4,0:0:0:0:
256,192,1868,1,12,0:0:0:0:
256,192,2111,1,0,0:0:0:0:
256,192,2192,1,8,0:0:0:0:
256,192,2354,1,0,0:0:0:0:
256,192,2436,1,8,0:0:0:0:
256,192,2517,1,8,0:0:0:0:
256,192,2679,1,12,0:0:0:0:
256,192,2922,1,4,0:0:0:0:
256,192,3165,1,12,0:0:0:0:
256,192,3409,1,0,0:0:0:0:
256,192,3490,1,8,0:0:0:0:
256,192,3652,1,12,0:0:0:0:
256,192,3814,1,0,0:0:0:0:
256,192,3976,1,12,0:0:0:0:
256,192,4219,1,12,0:0:0:0:
256,192,4463,1,0,0:0:0:0:
256,192,4544,1,0,0:0:0:0:
256,192,4625,1,12,0:0:0:0:
256,192,4787,1,0,0:0:0:0:
256,192,4949,1,12,0:0:0:0:
256,192,5273,1,12,0:0:0:0:
256,192,5517,1,4,0:0:0:0:
256,192,5760,1,12,0:0:0:0:
256,192,5922,1,4,0:0:0:0:
256,192,6084,1,0,0:0:0:0:
256,192,6165,1,0,0:0:0:0:
256,192,6246,1,12,0:0:0:0:
256,192,6571,1,8,0:0:0:0:
256,192,6733,1,0,0:0:0:0:
256,192,6895,1,0,0:0:0:0:
256,192,7057,1,0,0:0:0:0:
256,192,7219,1,8,0:0:0:0:
256,192,7381,1,0,0:0:0:0:
256,192,7544,1,0,0:0:0:0:
256,192,7706,1,0,0:0:0:0:
256,192,7787,1,0,0:0:0:0:
256,192,7868,1,8,0:0:0:0:
256,192,8030,1,0,0:0:0:0:
256,192,8192,1,0,0:0:0:0:
256,192,8354,1,0,0:0:0:0:
256,192,8517,1,8,0:0:0:0:
256,192,8679,1,0,0:0:0:0:
256,192,8841,1,8,0:0:0:0:
256,192,9003,1,0,0:0:0:0:
256,192,9084,1,0,0:0:0:0:
256,192,9165,1,8,0:0:0:0:
256,192,9246,1,0,0:0:0:0:
256,192,9327,1,0,0:0:0:0:
256,192,9409,1,0,0:0:0:0:
256,192,9490,1,8,0:0:0:0:
256,192,9571,1,8,0:0:0:0:
256,192,9652,1,8,0:0:0:0:
256,192,9733,1,0,0:0:0:0:
256,192,9814,1,8,0:0:0:0:
256,192,9895,1,0,0:0:0:0:
256,192,9976,1,8,0:0:0:0:
256,192,10057,1,0,0:0:0:0:
256,192,10138,1,8,0:0:0:0:
256,192,10219,1,8,0:0:0:0:
256,192,10300,1,0,0:0:0:0:
256,192,10381,1,0,0:0:0:0:
256,192,10463,1,8,0:0:0:0:
256,192,10625,1,0,0:0:0:0:
256,192,10679,1,0,0:0:0:0:
256,192,10733,1,0,0:0:0:0:
256,192,10787,1,8,0:0:0:0:
256,192,10949,1,8,0:0:0:0:
256,192,11003,1,0,0:0:0:0:
256,192,11057,1,0,0:0:0:0:
256,192,11111,1,8,0:0:0:0:
256,192,11273,1,8,0:0:0:0:
256,192,11327,1,0,0:0:0:0:
256,192,11381,1,0,0:0:0:0:
256,192,11436,1,8,0:0:0:0:
256,192,11517,1,8,0:0:0:0:
256,192,11598,1,0,0:0:0:0:
256,192,11652,1,0,0:0:0:0:
256,192,11706,1,0,0:0:0:0:
256,192,11760,1,8,0:0:0:0:
256,192,12084,1,0,0:0:0:0:
256,192,12246,1,8,0:0:0:0:
256,192,12327,1,0,0:0:0:0:
256,192,12409,1,0,0:0:0:0:
256,192,12571,1,8,0:0:0:0:
256,192,12733,1,0,0:0:0:0:
256,192,12895,1,8,0:0:0:0:
256,192,12976,1,8,0:0:0:0:
256,192,13057,1,0,0:0:0:0:
256,192,13219,1,8,0:0:0:0:
256,192,13381,1,0,0:0:0:0:
256,192,13463,1,0,0:0:0:0:
256,192,13544,1,8,0:0:0:0:
256,192,13625,1,8,0:0:0:0:
256,192,13706,1,0,0:0:0:0:
256,192,13868,1,8,0:0:0:0:
256,192,14030,1,0,0:0:0:0:
256,192,14192,1,8,0:0:0:0:
256,192,14273,1,8,0:0:0:0:
256,192,14354,1,8,0:0:0:0:
256,192,14436,1,0,0:0:0:0:
256,192,14517,1,8,0:0:0:0:
256,192,14679,1,8,0:0:0:0:
256,192,14760,1,0,0:0:0:0:
256,192,14841,1,8,0:0:0:0:
256,192,15003,1,8,0:0:0:0:
256,192,15084,1,8,0:0:0:0:
256,192,15165,1,0,0:0:0:0:
256,192,15246,1,0,0:0:0:0:
256,192,15327,1,8,0:0:0:0:
256,192,15409,1,0,0:0:0:0:
256,192,15490,1,8,0:0:0:0:
256,192,15571,1,0,0:0:0:0:
256,192,15652,1,8,0:0:0:0:
256,192,15814,1,8,0:0:0:0:
256,192,15868,1,8,0:0:0:0:
256,192,15922,1,8,0:0:0:0:
256,192,15976,1,0,0:0:0:0:
256,192,16138,1,8,0:0:0:0:
256,192,16192,1,0,0:0:0:0:
256,192,16246,1,0,0:0:0:0:
256,192,16300,1,8,0:0:0:0:
256,192,16463,1,8,0:0:0:0:
256,192,16517,1,0,0:0:0:0:
256,192,16571,1,0,0:0:0:0:
256,192,16625,1,8,0:0:0:0:
256,192,16706,1,0,0:0:0:0:
256,192,16787,1,0,0:0:0:0:
256,192,16868,1,0,0:0:0:0:
256,192,16949,1,8,0:0:0:0:
256,192,17273,1,0,0:0:0:0:
256,192,17436,1,8,0:0:0:0:
256,192,17517,1,8,0:0:0:0:
256,192,17598,1,0,0:0:0:0:
256,192,17760,1,8,0:0:0:0:
256,192,17922,1,0,0:0:0:0:
256,192,18003,1,0,0:0:0:0:
256,192,18084,1,8,0:0:0:0:
256,192,18246,1,0,0:0:0:0:
256,192,18409,1,8,0:0:0:0:
256,192,18490,1,8,0:0:0:0:
256,192,18571,1,0,0:0:0:0:
256,192,18733,1,8,0:0:0:0:
256,192,18814,1,0,0:0:0:0:
256,192,18895,1,0,0:0:0:0:
256,192,19057,1,8,0:0:0:0:
256,192,19219,1,0,0:0:0:0:
256,192,19300,1,0,0:0:0:0:
256,192,19381,1,8,0:0:0:0:
256,192,19463,1,0,0:0:0:0:
256,192,19544,1,8,0:0:0:0:
256,192,19706,1,8,0:0:0:0:
256,192,19868,1,0,0:0:0:0:
256,192,19949,1,0,0:0:0:0:
256,192,20030,1,8,0:0:0:0:
256,192,20192,1,8,0:0:0:0:
256,192,20273,1,8,0:0:0:0:
256,192,20354,1,8,0:0:0:0:
256,192,20436,1,0,0:0:0:0:
256,192,20517,1,8,0:0:0:0:
256,192,20679,1,0,0:0:0:0:
256,192,20841,1,8,0:0:0:0:
256,192,20922,1,8,0:0:0:0:
256,192,21003,1,0,0:0:0:0:
256,192,21084,1,0,0:0:0:0:
256,192,21165,1,8,0:0:0:0:
256,192,21246,1,8,0:0:0:0:
256,192,21327,1,8,0:0:0:0:
256,192,21409,1,0,0:0:0:0:
256,192,21490,1,8,0:0:0:0:
256,192,21571,1,8,0:0:0:0:
256,192,21652,1,0,0:0:0:0:
256,192,21733,1,0,0:0:0:0:
256,192,21814,1,8,0:0:0:0:
256,192,21895,1,0,0:0:0:0:
256,192,21976,1,8,0:0:0:0:
256,192,22057,1,8,0:0:0:0:
256,192,22138,1,0,0:0:0:0:
256,192,22300,1,0,0:0:0:0:
256,192,22381,1,0,0:0:0:0:
256,192,22463,1,8,0:0:0:0:
256,192,22544,1,0,0:0:0:0:
256,192,22625,1,8,0:0:0:0:
256,192,22706,1,8,0:0:0:0:
256,192,22787,1,8,0:0:0:0:
256,192,22868,1,0,0:0:0:0:
256,192,22949,1,8,0:0:0:0:
256,192,23030,1,8,0:0:0:0:
256,192,23111,1,0,0:0:0:0:
256,192,23192,1,8,0:0:0:0:
256,192,23273,1,0,0:0:0:0:
256,192,23354,1,8,0:0:0:0:
256,192,23436,1,0,0:0:0:0:
256,192,23517,1,0,0:0:0:0:
256,192,23598,1,0,0:0:0:0:
256,192,23679,1,0,0:0:0:0:
256,192,23760,1,8,0:0:0:0:
256,192,23841,1,0,0:0:0:0:
256,192,23922,1,8,0:0:0:0:
256,192,24003,1,8,0:0:0:0:
256,192,24084,1,8,0:0:0:0:
256,192,24165,1,0,0:0:0:0:
256,192,24246,1,8,0:0:0:0:
256,192,24327,1,0,0:0:0:0:
256,192,24409,1,8,0:0:0:0:
256,192,24490,1,8,0:0:0:0:
256,192,24571,1,0,0:0:0:0:
256,192,24733,1,8,0:0:0:0:
256,192,24814,1,0,0:0:0:0:
256,192,24895,1,8,0:0:0:0:
256,192,24976,1,0,0:0:0:0:
256,192,25057,1,8,0:0:0:0:
256,192,25138,1,8,0:0:0:0:
256,192,25219,1,0,0:0:0:0:
256,192,25300,1,8,0:0:0:0:
256,192,25381,1,8,0:0:0:0:
256,192,25463,1,0,0:0:0:0:
256,192,25544,1,8,0:0:0:0:
256,192,25625,1,0,0:0:0:0:
256,192,25706,1,8,0:0:0:0:
256,192,25787,1,0,0:0:0:0:
256,192,25868,1,0,0:0:0:0:
256,192,25949,1,0,0:0:0:0:
256,192,26030,1,8,0:0:0:0:
256,192,26138,1,8,0:0:0:0:
256,192,26246,1,0,0:0:0:0:
256,192,26354,1,8,0:0:0:0:
256,192,26463,1,8,0:0:0:0:
256,192,26571,1,0,0:0:0:0:
256,192,26679,1,8,0:0:0:0:
256,192,26733,1,8,0:0:0:0:
256,192,26787,1,8,0:0:0:0:
256,192,26841,1,0,0:0:0:0:
256,192,26895,1,0,0:0:0:0:
256,192,26949,1,0,0:0:0:0:
256,192,27003,1,8,0:0:0:0:
256,192,27165,1,0,0:0:0:0:
256,192,27327,1,8,0:0:0:0:
256,192,27409,1,0,0:0:0:0:
256,192,27490,1,8,0:0:0:0:
256,192,27571,1,0,0:0:0:0:
256,192,27652,1,8,0:0:0:0:
256,192,27706,1,0,0:0:0:0:
256,192,27760,1,0,0:0:0:0:
256,192,27814,1,8,0:0:0:0:
256,192,27895,1,0,0:0:0:0:
256,192,27976,1,8,0:0:0:0:
256,192,28057,1,0,0:0:0:0:
256,192,28138,1,8,0:0:0:0:
256,192,28192,1,8,0:0:0:0:
256,192,28246,1,8,0:0:0:0:
256,192,28300,1,0,0:0:0:0:
256,192,28463,1,8,0:0:0:0:
256,192,28544,1,8,0:0:0:0:
256,192,28625,1,0,0:0:0:0:
256,192,28706,1,0,0:0:0:0:
256,192,28787,1,8,0:0:0:0:
256,192,28868,1,0,0:0:0:0:
256,192,28949,1,8,0:0:0:0:
256,192,29030,1,8,0:0:0:0:
256,192,29111,1,8,0:0:0:0:
256,192,29192,1,0,0:0:0:0:
256,192,29273,1,8,0:0:0:0:
256,192,29354,1,8,0:0:0:0:
256,192,29436,1,0,0:0:0:0:
256,192,29517,1,0,0:0:0:0:
256,192,29598,1,8,0:0:0:0:
256,192,29760,1,8,0:0:0:0:
256,192,29841,1,0,0:0:0:0:
256,192,29922,1,8,0:0:0:0:
256,192,30003,1,0,0:0:0:0:
256,192,30084,1,0,0:0:0:0:
256,192,30165,1,8,0:0:0:0:
256,192,30246,1,0,0:0:0:0:
256,192,30327,1,0,0:0:0:0:
256,192,30409,1,8,0:0:0:0:
256,192,30490,1,0,0:0:0:0:
256,192,30571,1,8,0:0:0:0:
256,192,30679,1,8,0:0:0:0:
256,192,30787,1,0,0:0:0:0:
256,192,30895,1,8,0:0:0:0:
256,192,31003,1,0,0:0:0:0:
256,192,31111,1,0,0:0:0:0:
256,192,31219,1,8,0:0:0:0:
256,192,31327,1,8,0:0:0:0:
256,192,31436,1,0,0:0:0:0:
256,192,31544,1,8,0:0:0:0:
256,192,31652,1,0,0:0:0:0:
256,192,31760,1,0,0:0:0:0:
256,192,31868,1,8,0:0:0:0:
256,192,31949,1,8,0:0:0:0:
256,192,32030,1,0,0:0:0:0:
256,192,32111,1,0,0:0:0:0:
256,192,32192,1,8,0:0:0:0:
256,192,32354,1,8,0:0:0:0:
256,192,32436,1,8,0:0:0:0:
256,192,32517,1,0,0:0:0:0:
256,192,32679,1,0,0:0:0:0:
256,192,32760,1,0,0:0:0:0:
256,192,32841,1,8,0:0:0:0:
256,192,32922,1,0,0:0:0:0:
256,192,33003,1,8,0:0:0:0:
256,192,33084,1,0,0:0:0:0:
256,192,33165,1,8,0:0:0:0:
256,192,33246,1,8,0:0:0:0:
256,192,33327,1,8,0:0:0:0:
256,192,33409,1,0,0:0:0:0:
256,192,33490,1,8,0:0:0:0:
256,192,33571,1,0,0:0:0:0:
256,192,33652,1,0,0:0:0:0:
256,192,33733,1,0,0:0:0:0:
256,192,33814,1,8,0:0:0:0:
256,192,33895,1,8,0:0:0:0:
256,192,33976,1,0,0:0:0:0:
256,192,34057,1,0,0:0:0:0:
256,192,34138,1,8,0:0:0:0:
256,192,34219,1,0,0:0:0:0:
256,192,34300,1,8,0:0:0:0:
256,192,34381,1,0,0:0:0:0:
256,192,34463,1,8,0:0:0:0:
256,192,34544,1,8,0:0:0:0:
256,192,34625,1,0,0:0:0:0:
256,192,34706,1,0,0:0:0:0:
256,192,34787,1,8,0:0:0:0:
256,192,34949,1,0,0:0:0:0:
256,192,35030,1,0,0:0:0:0:
256,192,35111,1,8,0:0:0:0:
256,192,35192,1,0,0:0:0:0:
256,192,35273,1,8,0:0:0:0:
256,192,35354,1,0,0:0:0:0:
256,192,35436,1,8,0:0:0:0:
256,192,35517,1,8,0:0:0:0:
256,192,35598,1,0,0:0:0:0:
256,192,35679,1,8,0:0:0:0:
256,192,35760,1,8,0:0:0:0:
256,192,35841,1,8,0:0:0:0:
256,192,35922,1,0,0:0:0:0:
256,192,36003,1,0,0:0:0:0:
256,192,36084,1,8,0:0:0:0:
256,192,36165,1,8,0:0:0:0:
256,192,36246,1,0,0:0:0:0:
256,192,36327,1,8,0:0:0:0:
256,192,36409,1,0,0:0:0:0:
256,192,36517,1,8,0:0:0:0:
256,192,36625,1,0,0:0:0:0:
256,192,36733,1,8,0:0:0:0:
256,192,36841,1,8,0:0:0:0:
256,192,36949,1,0,0:0:0:0:
256,192,37057,1,8,0:0:0:0:
256,192,37111,1,8,0:0:0:0:
256,192,37165,1,8,0:0:0:0:
256,192,37219,1,0,0:0:0:0:
256,192,37273,1,0,0:0:0:0:
256,192,37327,1,0,0:0:0:0:
256,192,37381,1,8,0:0:0:0:
256,192,37436,1,0,0:0:0:0:
256,192,37490,1,0,0:0:0:0:
256,192,37544,1,8,0:0:0:0:
256,192,37598,1,0,0:0:0:0:
256,192,37652,1,0,0:0:0:0:
256,192,37706,1,8,0:0:0:0:
256,192,38030,1,0,0:0:0:0:
256,192,38192,1,8,0:0:0:0:
256,192,38273,1,8,0:0:0:0:
256,192,38354,1,0,0:0:0:0:
256,192,38517,1,8,0:0:0:0:
256,192,38598,1,0,0:0:0:0:
256,192,38679,1,0,0:0:0:0:
256,192,38841,1,8,0:0:0:0:
256,192,38922,1,0,0:0:0:0:
256,192,39003,1,0,0:0:0:0:
256,192,39084,1,8,0:0:0:0:
256,192,39165,1,8,0:0:0:0:
256,192,39246,1,0,0:0:0:0:
256,192,39327,1,8,0:0:0:0:
256,192,39490,1,8,0:0:0:0:
256,192,39652,1,0,0:0:0:0:
256,192,39814,1,8,0:0:0:0:
256,192,39976,1,8,0:0:0:0:
256,192,40057,1,8,0:0:0:0:
256,192,40138,1,0,0:0:0:0:
256,192,40219,1,0,0:0:0:0:
256,192,40300,1,8,0:0:0:0:
256,192,40381,1,8,0:0:0:0:
256,192,40463,1,8,0:0:0:0:
256,192,40625,1,0,0:0:0:0:
256,192,40787,1,8,0:0:0:0:
256,192,40868,1,8,0:0:0:0:
256,192,40949,1,0,0:0:0:0:
256,192,41111,1,8,0:0:0:0:
256,192,41192,1,0,0:0:0:0:
256,192,41273,1,8,0:0:0:0:
256,192,41354,1,8,0:0:0:0:
256,192,41436,1,0,0:0:0:0:
256,192,41517,1,0,0:0:0:0:
256,192,41598,1,8,0:0:0:0:
256,192,41760,1,8,0:0:0:0:
256,192,41841,1,8,0:0:0:0:
256,192,41922,1,0,0:0:0:0:
256,192,42084,1,8,0:0:0:0:
256,192,42246,1,8,0:0:0:0:
256,192,42327,1,8,0:0:0:0:
256,192,42409,1,8,0:0:0:0:
256,192,42490,1,0,0:0:0:0:
256,192,42571,1,8,0:0:0:0:
256,192,42733,1,0,0:0:0:0:
256,192,42895,1,8,0:0:0:0:
256,192,42976,1,0,0:0:0:0:
256,192,43057,1,8,0:0:0:0:
256,192,43219,1,0,0:0:0:0:
256,192,43381,1,8,0:0:0:0:
256,192,43463,1,8,0:0:0:0:
256,192,43544,1,0,0:0:0:0:
256,192,43706,1,8,0:0:0:0:
256,192,43787,1,0,0:0:0:0:
256,192,43868,1,0,0:0:0:0:
256,192,43949,1,8,0:0:0:0:
256,192,44030,1,8,0:0:0:0:
256,192,44111,1,0,0:0:0:0:
256,192,44192,1,8,0:0:0:0:
256,192,44354,1,8,0:0:0:0:
256,192,44517,1,0,0:0:0:0:
256,192,44679,1,8,0:0:0:0:
256,192,44760,1,8,0:0:0:0:
256,192,44841,1,0,0:0:0:0:
256,192,45003,1,8,0:0:0:0:
256,192,45165,1,0,0:0:0:0:
256,192,45246,1,8,0:0:0:0:
256,192,45327,1,8,0:0:0:0:
256,192,45409,1,0,0:0:0:0:
256,192,45490,1,8,0:0:0:0:
256,192,45652,1,8,0:0:0:0:
256,192,45814,1,0,0:0:0:0:
256,192,45976,1,8,0:0:0:0:
256,192,46057,1,8,0:0:0:0:
256,192,46138,1,0,0:0:0:0:
256,192,46300,1,8,0:0:0:0:
256,192,46463,1,8,0:0:0:0:
256,192,46544,1,0,0:0:0:0:
256,192,46625,1,8,0:0:0:0:
256,192,46706,1,8,0:0:0:0:
256,192,46787,1,0,0:0:0:0:
256,192,46949,1,8,0:0:0:0:
256,192,47111,1,0,0:0:0:0:
256,192,47273,1,8,0:0:0:0:
256,192,47436,1,0,0:0:0:0:
256,192,47598,1,0,0:0:0:0:
256,192,47679,1,0,0:0:0:0:
256,192,47760,1,12,0:0:0:0:
256,192,47922,1,0,0:0:0:0:
256,192,48084,1,8,0:0:0:0:
256,192,48246,1,8,0:0:0:0:
256,192,48327,1,8,0:0:0:0:
256,192,48409,1,0,0:0:0:0:
256,192,48571,1,8,0:0:0:0:
256,192,48733,1,0,0:0:0:0:
256,192,48895,1,8,0:0:0:0:
256,192,48976,1,8,0:0:0:0:
256,192,49057,1,0,0:0:0:0:
256,192,49219,1,8,0:0:0:0:
256,192,49300,1,8,0:0:0:0:
256,192,49381,1,0,0:0:0:0:
256,192,49463,1,0,0:0:0:0:
256,192,49544,1,8,0:0:0:0:
256,192,49706,1,0,0:0:0:0:
256,192,49868,1,8,0:0:0:0:
256,192,50030,1,0,0:0:0:0:
256,192,50111,1,0,0:0:0:0:
256,192,50192,1,8,0:0:0:0:
256,192,50273,1,8,0:0:0:0:
256,192,50354,1,0,0:0:0:0:
256,192,50517,1,8,0:0:0:0:
256,192,50598,1,0,0:0:0:0:
256,192,50679,1,8,0:0:0:0:
256,192,50760,1,8,0:0:0:0:
256,192,50841,1,8,0:0:0:0:
256,192,51003,1,0,0:0:0:0:
256,192,51165,1,8,0:0:0:0:
256,192,51327,1,0,0:0:0:0:
256,192,51409,1,0,0:0:0:0:
256,192,51490,1,8,0:0:0:0:
256,192,51571,1,0,0:0:0:0:
256,192,51652,1,8,0:0:0:0:
256,192,51733,1,8,0:0:0:0:
256,192,51814,1,0,0:0:0:0:
256,192,51895,1,0,0:0:0:0:
256,192,51976,1,8,0:0:0:0:
256,192,52138,1,8,0:0:0:0:
256,192,52300,1,0,0:0:0:0:
256,192,52463,1,8,0:0:0:0:
256,192,52544,1,0,0:0:0:0:
256,192,52625,1,0,0:0:0:0:
256,192,52787,1,8,0:0:0:0:
256,192,52949,1,0,0:0:0:0:
256,192,53030,1,8,0:0:0:0:
256,192,53111,1,0,0:0:0:0:
256,192,53192,1,0,0:0:0:0:
256,192,53273,1,8,0:0:0:0:
256,192,53436,1,0,0:3:0:0:
256,192,53598,1,8,0:3:0:0:
256,192,53760,1,0,0:3:0:0:
256,192,53922,1,0,0:3:0:0:
256,192,54084,1,0,0:3:0:0:
256,192,54246,1,8,0:3:0:0:
256,192,54300,1,8,0:3:0:0:
256,192,54354,1,8,0:3:0:0:
256,192,54409,1,0,0:3:0:0:
256,192,54463,1,0,0:3:0:0:
256,192,54517,1,0,0:3:0:0:
256,192,54571,1,8,0:3:0:0:
256,192,54733,1,0,0:3:0:0:
256,192,54895,1,8,0:3:0:0:
256,192,55057,1,0,0:3:0:0:
256,192,55219,1,0,0:3:0:0:
256,192,55381,1,0,0:3:0:0:
256,192,55544,1,8,0:0:0:0:
256,192,55598,1,8,0:0:0:0:
256,192,55652,1,8,0:0:0:0:
256,192,55706,1,0,0:0:0:0:
256,192,55760,1,0,0:0:0:0:
256,192,55814,1,0,0:0:0:0:
256,192,55868,1,8,0:0:0:0:
256,192,56030,1,0,0:0:0:0:
256,192,56192,1,8,0:0:0:0:
256,192,56246,1,8,0:0:0:0:
256,192,56300,1,8,0:0:0:0:
256,192,56354,1,8,0:0:0:0:
256,192,56409,1,8,0:0:0:0:
256,192,56463,1,8,0:0:0:0:
256,192,56517,1,0,0:0:0:0:
256,192,56679,1,0,0:0:0:0:
256,192,56841,1,8,0:0:0:0:
256,192,56895,1,8,0:0:0:0:
256,192,56949,1,8,0:0:0:0:
256,192,57003,1,0,0:0:0:0:
256,192,57057,1,0,0:0:0:0:
256,192,57111,1,0,0:0:0:0:
256,192,57165,1,8,0:0:0:0:
256,192,57327,1,8,0:0:0:0:
256,192,57381,1,0,0:0:0:0:
256,192,57436,1,0,0:0:0:0:
256,192,57490,1,8,0:0:0:0:
256,192,57652,1,0,0:0:0:0:
256,192,57706,1,0,0:0:0:0:
256,192,57760,1,0,0:0:0:0:
256,192,57814,1,8,0:0:0:0:
256,192,57976,1,8,0:0:0:0:
256,192,58030,1,0,0:0:0:0:
256,192,58084,1,0,0:0:0:0:
256,192,58138,1,8,0:0:0:0:
256,192,58219,1,8,0:0:0:0:
256,192,58300,1,8,0:0:0:0:
256,192,58381,1,8,0:0:0:0:
256,192,58463,1,0,0:0:0:0:
256,192,59111,1,0,0:0:0:0:
256,192,59436,1,0,0:0:0:0:
256,192,59598,1,0,0:0:0:0:
256,192,59760,1,12,0:0:0:0:
256,192,60409,1,0,0:0:0:0:
256,192,60733,1,0,0:0:0:0:
256,192,60814,1,0,0:0:0:0:
256,192,60895,1,0,0:0:0:0:
256,192,61057,1,12,0:0:0:0:
256,192,61706,1,0,0:0:0:0:
256,192,62030,1,0,0:0:0:0:
256,192,62192,1,0,0:0:0:0:
256,192,62246,1,0,0:0:0:0:
256,192,62300,1,0,0:0:0:0:
256,192,62354,1,8,0:0:0:0:
256,192,63003,1,0,0:0:0:0:
256,192,63246,1,0,0:0:0:0:
256,192,63490,1,0,0:0:0:0:
256,192,63652,1,12,0:0:0:0:
256,192,63976,1,0,0:0:0:0:
256,192,64300,1,12,0:0:0:0:
256,192,64625,1,0,0:0:0:0:
256,192,64949,1,12,0:0:0:0:
256,192,65273,1,0,0:0:0:0:
256,192,65598,1,12,0:0:0:0:
256,192,65922,1,0,0:0:0:0:
256,192,66084,1,0,0:0:0:0:
256,192,66246,1,12,0:0:0:0:
256,192,66571,1,12,0:0:0:0:
256,192,66895,1,12,0:0:0:0:
256,192,67219,1,12,0:0:0:0:
256,192,67544,1,8,0:0:0:0:
256,192,67706,1,8,0:0:0:0:
256,192,67868,1,8,0:0:0:0:
256,192,68030,1,8,0:0:0:0:
256,192,68192,1,8,0:0:0:0:
256,192,68354,1,8,0:0:0:0:
256,192,68517,1,0,0:0:0:0:
256,192,68571,1,0,0:0:0:0:
256,192,68625,1,0,0:0:0:0:
256,192,68679,1,0,0:0:0:0:
256,192,68733,1,0,0:0:0:0:
256,192,68787,1,0,0:0:0:0:
256,192,68841,1,8,0:0:0:0:
256,192,68922,12,0,69976,0:0:0:0:
256,192,70138,5,8,0:0:0:0:
256,192,70219,1,0,0:0:0:0:
256,192,70300,1,8,0:0:0:0:
256,192,70381,1,8,0:0:0:0:
256,192,70463,1,0,0:0:0:0:
256,192,70544,1,0,0:0:0:0:
256,192,70625,1,8,0:0:0:0:
256,192,70706,1,0,0:0:0:0:
256,192,70787,1,8,0:0:0:0:
256,192,70868,1,0,0:0:0:0:
256,192,70949,1,8,0:0:0:0:
256,192,71030,1,0,0:0:0:0:
256,192,71111,1,8,0:0:0:0:
256,192,71165,1,0,0:0:0:0:
256,192,71219,1,0,0:0:0:0:
256,192,71273,1,8,0:0:0:0:
256,192,71327,1,0,0:0:0:0:
256,192,71381,1,0,0:0:0:0:
256,192,71436,1,8,0:0:0:0:
256,192,71598,1,8,0:0:0:0:
256,192,71679,1,0,0:0:0:0:
256,192,71760,1,0,0:0:0:0:
256,192,71922,1,8,0:0:0:0:
256,192,72084,1,0,0:0:0:0:
256,192,72165,1,8,0:0:0:0:
256,192,72246,1,0,0:0:0:0:
256,192,72327,1,0,0:0:0:0:
256,192,72409,1,8,0:0:0:0:
256,192,72571,1,8,0:0:0:0:
256,192,72733,1,8,0:0:0:0:
256,192,72814,1,0,0:0:0:0:
256,192,72895,1,0,0:0:0:0:
256,192,72976,1,8,0:0:0:0:
256,192,73057,1,0,0:0:0:0:
256,192,73219,1,8,0:0:0:0:
256,192,73300,1,8,0:0:0:0:
256,192,73381,1,0,0:0:0:0:
256,192,73544,1,8,0:0:0:0:
256,192,73706,1,0,0:0:0:0:
256,192,73868,1,8,0:0:0:0:
256,192,74030,1,8,0:0:0:0:
256,192,74111,1,8,0:0:0:0:
256,192,74192,1,0,0:0:0:0:
256,192,74273,1,8,0:0:0:0:
256,192,74354,1,0,0:0:0:0:
256,192,74517,1,8,0:0:0:0:
256,192,74679,1,8,0:0:0:0:
256,192,74760,1,0,0:0:0:0:
256,192,74841,1,0,0:0:0:0:
256,192,74922,1,8,0:0:0:0:
256,192,75003,1,0,0:0:0:0:
256,192,75165,1,8,0:0:0:0:
256,192,75327,1,8,0:0:0:0:
256,192,75409,1,8,0:0:0:0:
256,192,75490,1,0,0:0:0:0:
256,192,75571,1,8,0:0:0:0:
256,192,75652,1,0,0:0:0:0:
256,192,75733,1,0,0:0:0:0:
256,192,75814,1,8,0:0:0:0:
256,192,75976,1,8,0:0:0:0:
256,192,76057,1,8,0:0:0:0:
256,192,76138,1,0,0:0:0:0:
256,192,76219,1,0,0:0:0:0:
256,192,76300,1,8,0:0:0:0:
256,192,76381,1,0,0:0:0:0:
256,192,76463,1,0,0:0:0:0:
256,192,76544,1,0,0:0:0:0:
256,192,76625,1,8,0:0:0:0:
256,192,76733,1,0,0:0:0:0:
256,192,76841,1,0,0:0:0:0:
256,192,76949,1,8,0:0:0:0:
256,192,77057,1,0,0:0:0:0:
256,192,77165,1,0,0:0:0:0:
256,192,77273,1,8,0:0:0:0:
256,192,77354,1,0,0:0:0:0:
256,192,77436,1,8,0:0:0:0:
256,192,77517,1,8,0:0:0:0:
256,192,77598,1,0,0:0:0:0:
256,192,77760,1,0,0:0:0:0:
256,192,77922,1,8,0:0:0:0:
256,192,78030,1,8,0:0:0:0:
256,192,78138,1,0,0:0:0:0:
256,192,78246,1,8,0:0:0:0:
256,192,78354,1,0,0:0:0:0:
256,192,78463,1,0,0:0:0:0:
256,192,78571,1,8,0:0:0:0:
256,192,78652,1,0,0:0:0:0:
256,192,78733,1,8,0:0:0:0:
256,192,78814,1,8,0:0:0:0:
256,192,78895,1,0,0:0:0:0:
256,192,78976,1,0,0:0:0:0:
256,192,79057,1,0,0:0:0:0:
256,192,79138,1,8,0:0:0:0:
256,192,79219,1,0,0:0:0:0:
256,192,79381,1,8,0:0:0:0:
256,192,79463,1,0,0:0:0:0:
256,192,79625,1,8,0:0:0:0:
256,192,79706,1,0,0:0:0:0:
256,192,79787,1,8,0:0:0:0:
256,192,79868,1,0,0:0:0:0:
256,192,80030,1,8,0:0:0:0:
256,192,80111,1,8,0:0:0:0:
256,192,80273,1,8,0:0:0:0:
256,192,80354,1,8,0:0:0:0:
256,192,80436,1,0,0:0:0:0:
256,192,80517,1,8,0:0:0:0:
256,192,80679,1,8,0:0:0:0:
256,192,80760,1,0,0:0:0:0:
256,192,80841,1,8,0:0:0:0:
256,192,80922,1,8,0:0:0:0:
256,192,81003,1,0,0:0:0:0:
256,192,81084,1,0,0:0:0:0:
256,192,81165,1,8,0:0:0:0:
256,192,81246,1,8,0:0:0:0:
256,192,81327,1,0,0:0:0:0:
256,192,81409,1,8,0:0:0:0:
256,192,81490,1,8,0:0:0:0:
256,192,81571,1,0,0:0:0:0:
256,192,81652,1,8,0:0:0:0:
256,192,81733,1,0,0:0:0:0:
256,192,81814,1,8,0:0:0:0:
256,192,81976,1,0,0:0:0:0:
256,192,82057,1,8,0:0:0:0:
256,192,82138,1,0,0:0:0:0:
256,192,82219,1,0,0:0:0:0:
256,192,82300,1,8,0:0:0:0:
256,192,82463,1,0,0:0:0:0:
256,192,82625,1,8,0:0:0:0:
256,192,82706,1,8,0:0:0:0:
256,192,82787,1,8,0:0:0:0:
256,192,82868,1,0,0:0:0:0:
256,192,82949,1,8,0:0:0:0:
256,192,83111,1,8,0:0:0:0:
256,192,83273,1,8,0:0:0:0:
256,192,83354,1,8,0:0:0:0:
256,192,83436,1,0,0:0:0:0:
256,192,83598,1,8,0:0:0:0:
256,192,83760,1,0,0:0:0:0:
256,192,83922,1,8,0:0:0:0:
256,192,84003,1,0,0:0:0:0:
256,192,84084,1,8,0:0:0:0:
256,192,84165,1,0,0:0:0:0:
256,192,84246,1,8,0:0:0:0:
256,192,84409,1,8,0:0:0:0:
256,192,84571,1,0,0:0:0:0:
256,192,84652,1,8,0:0:0:0:
256,192,84733,1,0,0:0:0:0:
256,192,84814,1,0,0:0:0:0:
256,192,84895,1,8,0:0:0:0:
256,192,85057,1,8,0:0:0:0:
256,192,85219,1,0,0:0:0:0:
256,192,85300,1,8,0:0:0:0:
256,192,85381,1,8,0:0:0:0:
256,192,85463,1,0,0:0:0:0:
256,192,85544,1,8,0:0:0:0:
256,192,85706,1,8,0:0:0:0:
256,192,85787,1,8,0:0:0:0:
256,192,85868,1,0,0:0:0:0:
256,192,85949,1,8,0:0:0:0:
256,192,86030,1,0,0:0:0:0:
256,192,86192,1,8,0:0:0:0:
256,192,86273,1,0,0:0:0:0:
256,192,86354,1,8,0:0:0:0:
256,192,86436,1,8,0:0:0:0:
256,192,86517,1,8,0:0:0:0:
256,192,86598,1,0,0:0:0:0:
256,192,86679,1,8,0:0:0:0:
256,192,86760,1,8,0:0:0:0:
256,192,86841,1,0,0:0:0:0:
256,192,86922,1,0,0:0:0:0:
256,192,87003,1,8,0:0:0:0:
256,192,87165,1,0,0:0:0:0:
256,192,87327,1,8,0:0:0:0:
256,192,87490,1,0,0:0:0:0:
256,192,87652,1,8,0:0:0:0:
256,192,87733,1,0,0:0:0:0:
256,192,87814,1,8,0:0:0:0:
256,192,87895,1,8,0:0:0:0:
256,192,87976,1,0,0:0:0:0:
256,192,88057,1,0,0:0:0:0:
256,192,88138,1,8,0:0:0:0:
256,192,88219,1,0,0:0:0:0:
256,192,88300,1,8,0:0:0:0:
256,192,88463,1,0,0:0:0:0:
256,192,88625,1,8,0:0:0:0:
256,192,88787,1,0,0:0:0:0:
256,192,88949,1,8,0:0:0:0:
256,192,89030,1,0,0:0:0:0:
256,192,89111,1,8,0:0:0:0:
256,192,89192,1,8,0:0:0:0:
256,192,89273,1,0,0:0:0:0:
256,192,89354,1,8,0:0:0:0:
256,192,89436,1,0,0:0:0:0:
256,192,89517,1,8,0:0:0:0:
256,192,89598,1,0,0:0:0:0:
256,192,89679,1,0,0:0:0:0:
256,192,89760,1,8,0:0:0:0:
256,192,89841,1,0,0:0:0:0:
256,192,89922,1,0,0:0:0:0:
256,192,90003,1,8,0:0:0:0:
256,192,90084,1,0,0:0:0:0:
256,192,90165,1,8,0:0:0:0:
256,192,90246,1,0,0:0:0:0:
256,192,90327,1,0,0:0:0:0:
256,192,90409,1,8,0:0:0:0:
256,192,90490,1,8,0:0:0:0:
256,192,90571,1,8,0:0:0:0:
256,192,90652,1,0,0:0:0:0:
256,192,90733,1,8,0:0:0:0:
256,192,90814,1,0,0:0:0:0:
256,192,90895,1,8,0:0:0:0:
256,192,90976,1,0,0:0:0:0:
256,192,91057,1,8,0:0:0:0:
256,192,91111,1,0,0:0:0:0:
256,192,91165,1,0,0:0:0:0:
256,192,91219,1,8,0:0:0:0:
256,192,91300,1,0,0:0:0:0:
256,192,91381,1,8,0:0:0:0:
256,192,91436,1,8,0:0:0:0:
256,192,91490,1,8,0:0:0:0:
256,192,91544,1,0,0:0:0:0:
256,192,91625,1,0,0:0:0:0:
256,192,91706,1,8,0:0:0:0:
256,192,91760,1,0,0:0:0:0:
256,192,91814,1,0,0:0:0:0:
256,192,91868,1,8,0:0:0:0:
256,192,91949,1,0,0:0:0:0:
256,192,92030,1,8,0:0:0:0:
256,192,92111,1,0,0:0:0:0:
256,192,92192,1,8,0:0:0:0:
256,192,92679,1,0,0:0:0:0:
256,192,93165,1,8,0:0:0:0:
256,192,93490,1,0,0:0:0:0:
256,192,93976,1,8,0:0:0:0:
256,192,94300,1,0,0:0:0:0:
256,192,94463,1,0,0:0:0:0:
256,192,94787,1,8,0:0:0:0:
256,192,95273,1,8,0:0:0:0:
256,192,95436,1,0,0:0:0:0:
256,192,95760,1,8,0:0:0:0:
256,192,95922,1,8,0:0:0:0:
256,192,96084,1,0,0:0:0:0:
256,192,96246,1,8,0:0:0:0:
256,192,96733,1,8,0:0:0:0:
256,192,97057,1,8,0:0:0:0:
256,192,97219,1,0,0:0:0:0:
256,192,97300,1,0,0:0:0:0:
256,192,97381,1,8,0:0:0:0:
256,192,97706,1,0,0:0:0:0:
256,192,98030,1,8,0:0:0:0:
256,192,98354,1,8,0:0:0:0:
256,192,98517,1,0,0:0:0:0:
256,192,98598,1,0,0:0:0:0:
256,192,98679,1,8,0:0:0:0:
256,192,99003,1,0,0:0:0:0:
256,192,99165,1,0,0:0:0:0:
256,192,99327,1,8,0:0:0:0:
256,192,99490,1,0,0:0:0:0:
256,192,99652,1,8,0:0:0:0:
256,192,99814,1,0,0:0:0:0:
256,192,99895,1,0,0:0:0:0:
256,192,99976,1,8,0:0:0:0:
256,192,100057,1,0,0:0:0:0:
256,192,100138,1,0,0:0:0:0:
256,192,100219,1,0,0:0:0:0:
256,192,100300,1,8,0:0:0:0:
256,192,100381,1,8,0:0:0:0:
256,192,100463,1,0,0:0:0:0:
256,192,100544,1,0,0:0:0:0:
256,192,100625,1,8,0:0:0:0:
256,192,100706,1,0,0:0:0:0:
256,192,100787,1,8,0:0:0:0:
256,192,100868,1,0,0:0:0:0:
256,192,100949,1,8,0:0:0:0:
256,192,101030,1,8,0:0:0:0:
256,192,101111,1,0,0:0:0:0:
256,192,101192,1,0,0:0:0:0:
256,192,101273,1,8,0:0:0:0:
256,192,101436,1,8,0:0:0:0:
256,192,101490,1,0,0:0:0:0:
256,192,101544,1,0,0:0:0:0:
256,192,101598,1,8,0:0:0:0:
256,192,101760,1,0,0:0:0:0:
256,192,101814,1,0,0:0:0:0:
256,192,101868,1,0,0:0:0:0:
256,192,101922,1,8,0:0:0:0:
256,192,102084,1,8,0:0:0:0:
256,192,102138,1,0,0:0:0:0:
256,192,102192,1,0,0:0:0:0:
256,192,102246,1,8,0:0:0:0:
256,192,102327,1,8,0:0:0:0:
256,192,102409,1,8,0:0:0:0:
256,192,102490,1,0,0:0:0:0:
256,192,102733,1,0,0:0:0:0:
256,192,102895,1,12,0:0:0:0:
256,192,103057,1,8,0:0:0:0:
256,192,103138,1,0,0:0:0:0:
256,192,103219,1,8,0:0:0:0:
256,192,103300,1,8,0:0:0:0:
256,192,103381,1,0,0:0:0:0:
256,192,103463,1,0,0:0:0:0:
256,192,103544,1,8,0:0:0:0:
256,192,103706,1,8,0:0:0:0:
256,192,103787,1,0,0:0:0:0:
256,192,103868,1,8,0:0:0:0:
256,192,103949,1,8,0:0:0:0:
256,192,104030,1,0,0:0:0:0:
256,192,104111,1,8,0:0:0:0:
256,192,104192,1,0,0:0:0:0:
256,192,104273,1,0,0:0:0:0:
256,192,104354,1,8,0:0:0:0:
256,192,104436,1,0,0:0:0:0:
256,192,104517,1,8,0:0:0:0:
256,192,104598,1,0,0:0:0:0:
256,192,104679,1,8,0:0:0:0:
256,192,104760,1,0,0:0:0:0:
256,192,104841,1,8,0:0:0:0:
256,192,104922,1,8,0:0:0:0:
256,192,105003,1,0,0:0:0:0:
256,192,105084,1,0,0:0:0:0:
256,192,105165,1,8,0:0:0:0:
256,192,105246,1,0,0:0:0:0:
256,192,105327,1,0,0:0:0:0:
256,192,105409,1,8,0:0:0:0:
256,192,105490,1,0,0:0:0:0:
256,192,105571,1,8,0:0:0:0:
256,192,105652,1,8,0:0:0:0:
256,192,105733,1,0,0:0:0:0:
256,192,105814,1,8,0:0:0:0:
256,192,105895,1,0,0:0:0:0:
256,192,105976,1,8,0:0:0:0:
256,192,106057,1,8,0:0:0:0:
256,192,106219,1,8,0:0:0:0:
256,192,106300,1,0,0:0:0:0:
256,192,106381,1,8,0:0:0:0:
256,192,106463,1,0,0:0:0:0:
256,192,106544,1,0,0:0:0:0:
256,192,106625,1,8,0:0:0:0:
256,192,106706,1,8,0:0:0:0:
256,192,106787,1,0,0:0:0:0:
256,192,106868,1,8,0:0:0:0:
256,192,106949,1,8,0:0:0:0:
256,192,107030,1,8,0:0:0:0:
256,192,107111,1,0,0:0:0:0:
256,192,107192,1,0,0:0:0:0:
256,192,107273,1,8,0:0:0:0:
256,192,107354,1,8,0:0:0:0:
256,192,107436,1,0,0:0:0:0:
256,192,107517,1,0,0:0:0:0:
256,192,107598,1,0,0:0:0:0:
256,192,107679,1,8,0:0:0:0:
256,192,107760,1,8,0:0:0:0:
256,192,107868,1,0,0:0:0:0:
256,192,107976,1,0,0:0:0:0:
256,192,108084,1,8,0:0:0:0:
256,192,108192,1,0,0:0:0:0:
256,192,108300,1,0,0:0:0:0:
256,192,108409,1,8,0:0:0:0:
256,192,108490,1,0,0:0:0:0:
256,192,108571,1,8,0:0:0:0:
256,192,108652,1,8,0:0:0:0:
256,192,108733,1,0,0:0:0:0:
256,192,108814,1,0,0:0:0:0:
256,192,108895,1,8,0:0:0:0:
256,192,108976,1,8,0:0:0:0:
256,192,109057,1,8,0:0:0:0:
256,192,109165,1,0,0:0:0:0:
256,192,109273,1,0,0:0:0:0:
256,192,109381,1,8,0:0:0:0:
256,192,109490,1,0,0:0:0:0:
256,192,109598,1,0,0:0:0:0:
256,192,109706,1,8,0:0:0:0:
256,192,109787,1,0,0:0:0:0:
256,192,109868,1,8,0:0:0:0:
256,192,109949,1,8,0:0:0:0:
256,192,110030,1,0,0:0:0:0:
256,192,110111,1,8,0:0:0:0:
256,192,110192,1,0,0:0:0:0:
256,192,110273,1,8,0:0:0:0:
256,192,110354,1,0,0:0:0:0:
256,192,110436,1,0,0:0:0:0:
256,192,110517,1,8,0:0:0:0:
256,192,110598,1,0,0:0:0:0:
256,192,110679,1,0,0:0:0:0:
256,192,110760,1,8,0:0:0:0:
256,192,110841,1,0,0:0:0:0:
256,192,110922,1,8,0:0:0:0:
256,192,111003,1,0,0:0:0:0:
256,192,111084,1,0,0:0:0:0:
256,192,111165,1,8,0:0:0:0:
256,192,111246,1,8,0:0:0:0:
256,192,111327,1,8,0:0:0:0:
256,192,111409,1,0,0:0:0:0:
256,192,111490,1,8,0:0:0:0:
256,192,111571,1,0,0:0:0:0:
256,192,111652,1,8,0:0:0:0:
256,192,111733,1,0,0:0:0:0:
256,192,111814,1,8,0:0:0:0:
256,192,111868,1,0,0:0:0:0:
256,192,111922,1,0,0:0:0:0:
256,192,111976,1,8,0:0:0:0:
256,192,112057,1,0,0:0:0:0:
256,192,112138,1,8,0:0:0:0:
256,192,112192,1,8,0:0:0:0:
256,192,112246,1,8,0:0:0:0:
256,192,112300,1,0,0:0:0:0:
256,192,112381,1,0,0:0:0:0:
256,192,112463,1,8,0:0:0:0:
256,192,112517,1,8,0:0:0:0:
256,192,112571,1,8,0:0:0:0:
256,192,112625,1,0,0:0:0:0:
256,192,112679,1,0,0:0:0:0:
256,192,112733,1,0,0:0:0:0:
256,192,112787,1,8,0:0:0:0:
256,192,112868,1,8,0:0:0:0:
256,192,112949,12,0,114246,0:0:0:0:
