osu file format v14

[General]
AudioFilename: audio.mp3
AudioLeadIn: 0
PreviewTime: 70926
Countdown: 0
SampleSet: Soft
StackLeniency: 0.7
Mode: 3
LetterboxInBreaks: 0
SpecialStyle: 0
WidescreenStoryboard: 0

[Editor]
DistanceSpacing: 2
BeatDivisor: 4
GridSize: 16
TimelineZoom: 2

[Metadata]
Title:Inverse World
TitleUnicode:Inverse World
Artist:Sisterz
ArtistUnicode:Sisterz
Creator:DoNotMess
Version:Cosmos / Extra
Source:
Tags:ITSUHA. TA2MAX selen karen reverse trance ajeemaniz arzenvald exusagi Falcon Envory
BeatmapID:1517300
BeatmapSetID:718316

[Difficulty]
HPDrainRate:8.8
CircleSize:4
OverallDifficulty:8
ApproachRate:5
SliderMultiplier:1.4
SliderTickRate:1

[Events]
//Background and Video events
0,0,"cosmos.jpg",0,0
//Break Periods
//Storyboard Layer 0 (Background)
//Storyboard Layer 1 (Fail)
//Storyboard Layer 2 (Pass)
//Storyboard Layer 3 (Foreground)
//Storyboard Sound Samples

[TimingPoints]
1278,324.324324324324,4,2,1,50,1,0
6142,-52.6315789473684,4,2,1,50,0,0
6223,-90.9090909090909,4,2,1,50,0,0
6305,-142.857142857143,4,2,1,50,0,0
6386,-333.333333333333,4,2,1,50,0,0
6467,-100,4,2,1,50,0,0
10359,-62.5,4,2,1,50,0,0
10399,-83.3333333333333,4,2,1,50,0,0
10440,-125,4,2,1,50,0,0
10480,-250.000000000001,4,2,1,50,0,0
10521,-100,4,2,1,50,0,0
10683,-62.5,4,2,1,50,0,0
10723,-83.3333333333333,4,2,1,50,0,0
10764,-125,4,2,1,50,0,0
10805,-250.000000000001,4,2,1,50,0,0
10845,-100,4,2,1,50,0,0
11007,-62.5,4,2,1,50,0,0
11048,-83.3333333333333,4,2,1,50,0,0
11088,-125,4,2,1,50,0,0
11129,-250.000000000001,4,2,1,50,0,0
11169,-100,4,2,1,50,0,0
47656,-76.9230769230769,4,2,1,50,0,0
47737,-142.857142857143,4,2,1,50,0,0
47818,-76.9230769230769,4,2,1,50,0,0
47899,-142.857142857143,4,2,1,50,0,0
47980,-100,4,2,1,50,0,0
57061,-62.5,4,2,1,50,0,0
57102,-83.3333333333333,4,2,1,50,0,0
57142,-125,4,2,1,50,0,0
57183,-250.000000000001,4,2,1,50,0,0
57223,-100,4,2,1,50,0,0
57386,-62.5,4,2,1,50,0,0
57426,-83.3333333333333,4,2,1,50,0,0
57467,-125,4,2,1,50,0,0
57507,-250.000000000001,4,2,1,50,0,0
57548,-100,4,2,1,50,0,0
57710,-62.5,4,2,1,50,0,0
57750,-83.3333333333333,4,2,1,50,0,0
57791,-125,4,2,1,50,0,0
57832,-250.000000000001,4,2,1,50,0,0
57872,-100,4,2,1,50,0,0
58034,-29.4117647058824,4,2,1,50,0,0
58055,-500,4,2,1,50,0,0
58115,-32.258064516129,4,2,1,50,0,0
58136,-333.333333333333,4,2,1,50,0,0
58196,-35.7142857142857,4,2,1,50,0,0
58217,-250,4,2,1,50,0,0
58277,-40,4,2,1,50,0,0
58298,-200,4,2,1,50,0,0
58359,-100,4,2,1,50,0,0
63548,-71.4285714285714,4,2,1,50,0,0
63629,-166.666666666667,4,2,1,50,0,0
63710,-100,4,2,1,50,0,0
64196,-71.4285714285714,4,2,1,50,0,0
64277,-166.666666666667,4,2,1,50,0,0
64359,-100,4,2,1,50,0,0
64845,-71.4285714285714,4,2,1,50,0,0
64926,-166.666666666667,4,2,1,50,0,0
65007,-100,4,2,1,50,0,0
65494,-71.4285714285714,4,2,1,50,0,0
65575,-166.666666666667,4,2,1,50,0,0
65656,-100,4,2,1,50,0,0
66142,-71.4285714285714,4,2,1,50,0,0
66223,-166.666666666667,4,2,1,50,0,0
66305,-100,4,2,1,50,0,0
66467,-71.4285714285714,4,2,1,50,0,0
66548,-166.666666666667,4,2,1,50,0,0
66629,-100,4,2,1,50,0,0
66791,-71.4285714285714,4,2,1,50,0,0
66872,-166.666666666667,4,2,1,50,0,0
66953,-100,4,2,1,50,0,0
67115,-71.4285714285714,4,2,1,50,0,0
67196,-166.666666666667,4,2,1,50,0,0
67277,-100,4,2,1,50,0,0
67440,-80,4,2,1,50,0,0
67521,-133.333333333333,4,2,1,50,0,0
67602,-80,4,2,1,50,0,0
67683,-133.333333333333,4,2,1,50,0,0
67764,-80,4,2,1,50,0,0
67845,-133.333333333333,4,2,1,50,0,0
67926,-80,4,2,1,50,0,0
68007,-133.333333333333,4,2,1,50,0,0
68088,-80,4,2,1,50,0,0
68169,-133.333333333333,4,2,1,50,0,0
68250,-80,4,2,1,50,0,0
68332,-133.333333333333,4,2,1,50,0,0
68413,-100,4,2,1,50,0,0
69548,-80,4,2,1,50,0,0
70034,-100,4,2,1,50,0,0
71332,-100,4,2,1,50,0,1
76521,-68.0272108843537,4,2,1,50,0,1
76575,-188.679245283019,4,2,1,50,0,1
76629,-68.0272108843537,4,2,1,50,0,1
76683,-188.679245283019,4,2,1,50,0,1
76737,-68.0272108843537,4,2,1,50,0,1
76791,-188.679245283019,4,2,1,50,0,1
76845,-68.0272108843537,4,2,1,50,0,1
76899,-188.679245283019,4,2,1,50,0,1
76953,-68.0272108843537,4,2,1,50,0,1
77007,-188.679245283019,4,2,1,50,0,1
77061,-68.0272108843537,4,2,1,50,0,1
77115,-188.679245283019,4,2,1,50,0,1
77169,-100,4,2,1,50,0,1
77494,-52.6315789473684,4,2,1,50,0,1
77575,-90.9090909090909,4,2,1,50,0,1
77656,-142.857142857143,4,2,1,50,0,1
77737,-333.333333333333,4,2,1,50,0,1
77818,-68.0272108843537,4,2,1,50,0,1
77872,-188.679245283019,4,2,1,50,0,1
77926,-68.0272108843537,4,2,1,50,0,1
77980,-188.679245283019,4,2,1,50,0,1
78034,-68.0272108843537,4,2,1,50,0,1
78088,-188.679245283019,4,2,1,50,0,1
78142,-68.0272108843537,4,2,1,50,0,1
78196,-188.679245283019,4,2,1,50,0,1
78250,-68.0272108843537,4,2,1,50,0,1
78305,-188.679245283019,4,2,1,50,0,1
78359,-68.0272108843537,4,2,1,50,0,1
78413,-188.679245283019,4,2,1,50,0,1
78467,-100,4,2,1,50,0,1
78791,-52.6315789473684,4,2,1,50,0,1
78872,-90.9090909090909,4,2,1,50,0,1
78953,-142.857142857143,4,2,1,50,0,1
79034,-333.333333333333,4,2,1,50,0,1
79115,-80,4,2,1,50,0,1
79196,-133.333333333333,4,2,1,50,0,1
79277,-100,4,2,1,50,0,1
79359,-80,4,2,1,50,0,1
79440,-133.333333333333,4,2,1,50,0,1
79521,-100,4,2,1,50,0,1
79602,-80,4,2,1,50,0,1
79683,-133.333333333333,4,2,1,50,0,1
79764,-80,4,2,1,50,0,1
79845,-133.333333333333,4,2,1,50,0,1
79926,-100,4,2,1,50,0,1
80007,-80,4,2,1,50,0,1
80088,-133.333333333333,4,2,1,50,0,1
80169,-100,4,2,1,50,0,1
80250,-80,4,2,1,50,0,1
80332,-133.333333333333,4,2,1,50,0,1
80413,-100,4,2,1,50,0,1
81061,-100,4,2,1,50,0,0
81710,-100,4,2,1,50,0,1
90791,-62.5,4,2,1,50,0,1
90832,-83.3333333333333,4,2,1,50,0,1
90872,-125,4,2,1,50,0,1
90913,-250.000000000001,4,2,1,50,0,1
90953,-100,4,2,1,50,0,1
91115,-62.5,4,2,1,50,0,1
91156,-83.3333333333333,4,2,1,50,0,1
91196,-125,4,2,1,50,0,1
91237,-250.000000000001,4,2,1,50,0,1
91277,-100,4,2,1,50,0,1
91440,-62.5,4,2,1,50,0,1
91480,-83.3333333333333,4,2,1,50,0,1
91521,-125,4,2,1,50,0,1
91561,-250.000000000001,4,2,1,50,0,1
91602,-100,4,2,1,50,0,1
92088,-100,4,2,1,50,0,0
101169,-62.5,4,2,1,50,0,0
101210,-83.3333333333333,4,2,1,50,0,0
101250,-125,4,2,1,50,0,0
101291,-250.000000000001,4,2,1,50,0,0
101332,-100,4,2,1,50,0,0
101494,-62.5,4,2,1,50,0,0
101534,-83.3333333333333,4,2,1,50,0,0
101575,-125,4,2,1,50,0,0
101615,-250.000000000001,4,2,1,50,0,0
101656,-100,4,2,1,50,0,0
101818,-62.5,4,2,1,50,0,0
101859,-83.3333333333333,4,2,1,50,0,0
101899,-125,4,2,1,50,0,0
101940,-250.000000000001,4,2,1,50,0,0
101980,-100,4,2,1,50,0,0
102467,-52.6315789473684,4,2,1,50,0,0
102548,-90.9090909090909,4,2,1,50,0,0
102629,-142.857142857143,4,2,1,50,0,0
102710,-333.333333333333,4,2,1,50,0,0
102791,-100,4,2,1,50,0,1
111548,-62.5,4,2,1,50,0,1
111588,-83.3333333333333,4,2,1,50,0,1
111629,-125,4,2,1,50,0,1
111669,-250.000000000001,4,2,1,50,0,1
111710,-100,4,2,1,50,0,1
111872,-62.5,4,2,1,50,0,1
111913,-83.3333333333333,4,2,1,50,0,1
111953,-125,4,2,1,50,0,1
111994,-250.000000000001,4,2,1,50,0,1
112034,-100,4,2,1,50,0,1
112845,-100,4,2,1,50,0,0

[HitObjects]
64,192,953,5,2,0:0:0:0:
192,192,953,1,8,0:0:0:0:
448,192,953,1,0,0:0:0:0:
320,192,1007,1,0,0:0:0:0:
192,192,1061,1,0,0:0:0:0:
64,192,1115,1,0,0:0:0:0:
448,192,1169,1,0,0:0:0:0:
320,192,1223,1,0,0:0:0:0:
64,192,1278,1,2,0:0:0:0:
192,192,1278,1,4,0:0:0:0:
448,192,1278,1,0,0:0:0:0:
320,192,1440,1,0,0:0:0:0:
64,192,1521,1,2,0:0:0:0:
192,192,1521,1,4,0:0:0:0:
448,192,1521,1,0,0:0:0:0:
320,192,1602,1,0,0:0:0:0:
64,192,1764,1,2,0:0:0:0:
320,192,1764,1,4,0:0:0:0:
448,192,1764,1,0,0:0:0:0:
192,192,1926,1,0,0:0:0:0:
320,192,2007,1,0,0:0:0:0:
64,192,2088,1,0,0:0:0:0:
192,192,2250,1,0,0:0:0:0:
320,192,2413,1,0,0:0:0:0:
64,192,2575,1,2,0:0:0:0:
192,192,2575,1,4,0:0:0:0:
448,192,2575,1,0,0:0:0:0:
320,192,2656,1,0,0:0:0:0:
192,192,2737,1,0,0:0:0:0:
64,192,2818,1,2,0:0:0:0:
320,192,2818,1,4,0:0:0:0:
448,192,2818,1,0,0:0:0:0:
192,192,2899,1,0,0:0:0:0:
64,192,3061,1,2,0:0:0:0:
320,192,3061,1,4,0:0:0:0:
448,192,3061,1,0,0:0:0:0:
192,192,3223,1,0,0:0:0:0:
320,192,3305,1,0,0:0:0:0:
192,192,3386,1,0,0:0:0:0:
64,192,3548,1,2,0:0:0:0:
320,192,3548,1,4,0:0:0:0:
448,192,3548,1,0,0:0:0:0:
192,192,3710,1,0,0:0:0:0:
320,192,3791,1,0,0:0:0:0:
64,192,3872,1,2,0:0:0:0:
192,192,3872,1,4,0:0:0:0:
448,192,3872,1,0,0:0:0:0:
320,192,4034,1,0,0:0:0:0:
64,192,4115,1,2,0:0:0:0:
192,192,4115,1,4,0:0:0:0:
448,192,4115,1,0,0:0:0:0:
320,192,4196,1,0,0:0:0:0:
64,192,4277,1,0,0:0:0:0:
192,192,4359,1,0,0:0:0:0:
320,192,4440,1,0,0:0:0:0:
64,192,4521,1,2,0:0:0:0:
192,192,4521,1,4,0:0:0:0:
448,192,4521,1,0,0:0:0:0:
320,192,4629,1,0,0:0:0:0:
192,192,4737,1,0,0:0:0:0:
64,192,4845,1,2,0:0:0:0:
320,192,4845,1,4,0:0:0:0:
448,192,4845,1,0,0:0:0:0:
192,192,4953,1,0,0:0:0:0:
64,192,5061,1,0,0:0:0:0:
192,192,5169,1,2,0:0:0:0:
320,192,5169,1,4,0:0:0:0:
448,192,5169,1,0,0:0:0:0:
320,192,5332,1,0,0:0:0:0:
64,192,5413,1,2,0:0:0:0:
192,192,5413,1,4,0:0:0:0:
448,192,5413,1,0,0:0:0:0:
320,192,5494,1,0,0:0:0:0:
64,192,5656,1,2,0:0:0:0:
192,192,5656,1,4,0:0:0:0:
448,192,5656,1,0,0:0:0:0:
64,192,5818,1,2,0:0:0:0:
320,192,5818,1,4,0:0:0:0:
448,192,5818,1,0,0:0:0:0:
64,192,5980,1,2,0:0:0:0:
192,192,5980,1,0,0:0:0:0:
320,192,6061,1,2,0:0:0:0:
448,192,6061,1,0,0:0:0:0:
64,192,6142,1,8,0:0:0:0:
192,192,6142,1,2,0:0:0:0:
320,192,6142,1,0,0:0:0:0:
448,192,6142,1,0,0:0:0:0:
64,192,6467,1,2,0:0:0:0:
192,192,6467,1,4,0:0:0:0:
448,192,6467,1,0,0:0:0:0:
320,192,6629,1,2,0:0:0:0:
448,192,6629,1,0,0:0:0:0:
320,192,6791,1,2,0:0:0:0:
448,192,6791,1,0,0:0:0:0:
320,192,6953,1,2,0:0:0:0:
448,192,6953,1,0,0:0:0:0:
64,192,7034,1,0,0:0:0:0:
192,192,7115,1,2,0:0:0:0:
448,192,7115,1,0,0:0:0:0:
320,192,7196,1,0,0:0:0:0:
192,192,7277,1,2,0:0:0:0:
448,192,7277,1,0,0:0:0:0:
64,192,7359,1,0,0:0:0:0:
320,192,7440,1,2,0:0:0:0:
448,192,7440,1,0,0:0:0:0:
64,192,7602,1,2,0:0:0:0:
448,192,7602,1,0,0:0:0:0:
192,192,7683,1,2,0:0:0:0:
320,192,7683,1,0,0:0:0:0:
64,192,7764,1,2,0:0:0:0:
320,192,7764,1,4,0:0:0:0:
448,192,7764,1,0,0:0:0:0:
64,192,7926,1,2,0:0:0:0:
192,192,7926,1,0,0:0:0:0:
64,192,8088,1,2,0:0:0:0:
192,192,8088,1,0,0:0:0:0:
64,192,8250,1,2,0:0:0:0:
192,192,8250,1,0,0:0:0:0:
448,192,8332,1,0,0:0:0:0:
64,192,8413,1,2,0:0:0:0:
320,192,8413,1,0,0:0:0:0:
192,192,8494,1,0,0:0:0:0:
64,192,8575,1,2,0:0:0:0:
320,192,8575,1,0,0:0:0:0:
448,192,8656,1,0,0:0:0:0:
64,192,8737,1,2,0:0:0:0:
192,192,8737,1,0,0:0:0:0:
64,192,8899,1,2,0:0:0:0:
448,192,8899,1,0,0:0:0:0:
192,192,8980,1,2,0:0:0:0:
320,192,8980,1,0,0:0:0:0:
64,192,9061,1,2,0:0:0:0:
320,192,9061,1,4,0:0:0:0:
448,192,9061,1,0,0:0:0:0:
192,192,9142,1,2,0:0:0:0:
320,192,9223,1,2,0:0:0:0:
448,192,9223,1,0,0:0:0:0:
64,192,9305,1,2,0:0:0:0:
192,192,9305,1,0,0:0:0:0:
320,192,9386,1,2,0:0:0:0:
448,192,9386,1,0,0:0:0:0:
64,192,9467,1,2,0:0:0:0:
192,192,9467,1,0,0:0:0:0:
320,192,9548,1,2,0:0:0:0:
448,192,9548,1,0,0:0:0:0:
192,192,9629,1,2,0:0:0:0:
64,192,9710,1,4,0:0:0:0:
448,192,9710,1,2,0:0:0:0:
320,192,9791,1,2,0:0:0:0:
64,192,9872,1,2,0:0:0:0:
192,192,9872,1,0,0:0:0:0:
320,192,9953,1,2,0:0:0:0:
448,192,9953,1,0,0:0:0:0:
64,192,10034,1,2,0:0:0:0:
192,192,10034,1,0,0:0:0:0:
320,192,10115,1,2,0:0:0:0:
448,192,10115,1,0,0:0:0:0:
64,192,10196,1,2,0:0:0:0:
192,192,10196,1,0,0:0:0:0:
320,192,10277,1,2,0:0:0:0:
448,192,10277,1,0,0:0:0:0:
64,192,10359,1,2,0:0:0:0:
192,192,10359,1,4,0:0:0:0:
448,192,10521,1,2,0:0:0:0:
320,192,10561,1,2,0:0:0:0:
192,192,10602,1,2,0:0:0:0:
64,192,10642,1,2,0:0:0:0:
320,192,10683,1,2,0:0:0:0:
448,192,10683,1,4,0:0:0:0:
64,192,10845,1,2,0:0:0:0:
192,192,10886,1,2,0:0:0:0:
320,192,10926,1,2,0:0:0:0:
448,192,10967,1,2,0:0:0:0:
64,192,11007,1,2,0:0:0:0:
192,192,11007,1,4,0:0:0:0:
448,192,11169,1,2,0:0:0:0:
320,192,11210,1,2,0:0:0:0:
192,192,11250,1,2,0:0:0:0:
64,192,11291,1,2,0:0:0:0:
320,192,11332,1,2,0:0:0:0:
448,192,11332,1,4,0:0:0:0:
64,192,11413,1,2,0:0:0:0:
192,192,11413,1,0,0:0:0:0:
320,192,11494,1,2,0:0:0:0:
448,192,11534,1,0,0:0:0:0:
64,192,11575,1,2,0:0:0:0:
192,192,11615,1,0,0:0:0:0:
320,192,11656,1,2,0:0:0:0:
448,192,11656,1,4,0:0:0:0:
64,192,11818,128,0,11980:0:0:0:0:
192,192,11980,1,2,0:0:0:0:
320,192,11980,1,0,0:0:0:0:
448,192,11980,1,0,0:0:0:0:
448,192,12142,128,0,12305:0:0:0:0:
64,192,12305,1,2,0:0:0:0:
192,192,12305,1,0,0:0:0:0:
320,192,12305,1,0,0:0:0:0:
64,192,12467,128,0,12629:0:0:0:0:
192,192,12629,1,2,0:0:0:0:
320,192,12629,1,0,0:0:0:0:
448,192,12629,1,0,0:0:0:0:
448,192,12791,128,0,12953:0:0:0:0:
64,192,12953,1,2,0:0:0:0:
192,192,12953,1,0,0:0:0:0:
320,192,12953,1,0,0:0:0:0:
64,192,13115,128,0,13277:0:0:0:0:
192,192,13277,1,2,0:0:0:0:
320,192,13277,1,0,0:0:0:0:
448,192,13277,1,0,0:0:0:0:
448,192,13440,128,0,13602:0:0:0:0:
64,192,13602,1,2,0:0:0:0:
192,192,13602,1,0,0:0:0:0:
320,192,13602,1,0,0:0:0:0:
64,192,13764,128,0,13926:0:0:0:0:
192,192,13926,1,2,0:0:0:0:
448,192,13926,128,0,14007:0:0:0:0:
64,192,14088,1,2,0:0:0:0:
448,192,14088,128,0,14169:0:0:0:0:
192,192,14250,128,2,14332:0:0:0:0:
448,192,14250,128,0,14332:0:0:0:0:
64,192,14413,128,2,14494:0:0:0:0:
448,192,14413,128,0,14494:0:0:0:0:
192,192,14575,128,2,14656:0:0:0:0:
320,192,14575,128,0,14656:0:0:0:0:
448,192,14575,128,0,14656:0:0:0:0:
64,192,14737,128,2,14818:0:0:0:0:
320,192,14737,128,0,14818:0:0:0:0:
448,192,14737,128,0,14818:0:0:0:0:
64,192,14899,128,2,14980:0:0:0:0:
448,192,14899,128,0,14980:0:0:0:0:
192,192,14980,1,2,0:0:0:0:
320,192,14980,1,0,0:0:0:0:
64,192,15061,128,2,15142:0:0:0:0:
448,192,15061,128,0,15142:0:0:0:0:
192,192,15142,1,2,0:0:0:0:
320,192,15142,1,0,0:0:0:0:
64,192,15223,128,2,15305:0:0:0:0:
448,192,15223,128,0,15305:0:0:0:0:
192,192,15305,1,2,0:0:0:0:
320,192,15305,1,0,0:0:0:0:
64,192,15386,128,2,15467:0:0:0:0:
448,192,15386,128,0,15467:0:0:0:0:
192,192,15467,1,2,0:0:0:0:
320,192,15467,1,0,0:0:0:0:
64,192,15548,1,2,0:0:0:0:
448,192,15548,1,0,0:0:0:0:
320,192,15629,1,0,0:0:0:0:
192,192,15710,1,2,0:0:0:0:
64,192,15750,1,2,0:0:0:0:
448,192,15791,1,2,0:0:0:0:
320,192,15832,1,2,0:0:0:0:
64,192,15872,1,2,0:0:0:0:
192,192,15872,1,0,0:0:0:0:
448,192,15953,1,0,0:0:0:0:
320,192,16034,1,2,0:0:0:0:
64,192,16075,1,2,0:0:0:0:
192,192,16115,1,2,0:0:0:0:
320,192,16156,1,2,0:0:0:0:
64,192,16196,1,2,0:0:0:0:
448,192,16196,1,0,0:0:0:0:
192,192,16277,1,0,0:0:0:0:
448,192,16359,1,2,0:0:0:0:
320,192,16399,1,2,0:0:0:0:
192,192,16440,1,2,0:0:0:0:
64,192,16480,1,2,0:0:0:0:
320,192,16521,1,2,0:0:0:0:
448,192,16521,1,0,0:0:0:0:
64,192,16602,1,2,0:0:0:0:
192,192,16602,1,0,0:0:0:0:
320,192,16683,1,2,0:0:0:0:
448,192,16683,1,0,0:0:0:0:
64,192,16764,1,2,0:0:0:0:
192,192,16764,1,0,0:0:0:0:
64,192,16845,1,2,0:0:0:0:
192,192,16845,1,8,0:0:0:0:
320,192,16845,1,0,0:0:0:0:
448,192,16845,1,0,0:0:0:0:
448,192,17007,128,0,17169:0:0:0:0:
64,192,17169,1,2,0:0:0:0:
192,192,17169,1,0,0:0:0:0:
320,192,17169,1,0,0:0:0:0:
448,192,17332,128,0,17494:0:0:0:0:
64,192,17494,1,2,0:0:0:0:
192,192,17494,1,0,0:0:0:0:
320,192,17494,1,0,0:0:0:0:
448,192,17656,128,0,17818:0:0:0:0:
64,192,17818,1,2,0:0:0:0:
192,192,17818,1,0,0:0:0:0:
320,192,17818,128,0,18142:0:0:0:0:
448,192,17980,128,0,18142:0:0:0:0:
64,192,18142,1,2,0:0:0:0:
192,192,18142,1,0,0:0:0:0:
64,192,18305,128,0,18467:0:0:0:0:
192,192,18467,1,2,0:0:0:0:
320,192,18467,1,0,0:0:0:0:
448,192,18467,1,0,0:0:0:0:
64,192,18629,128,0,18791:0:0:0:0:
192,192,18791,1,2,0:0:0:0:
320,192,18791,1,0,0:0:0:0:
448,192,18791,1,0,0:0:0:0:
64,192,18953,128,0,19115:0:0:0:0:
192,192,19115,128,2,19440:0:0:0:0:
320,192,19115,1,0,0:0:0:0:
448,192,19115,1,0,0:0:0:0:
64,192,19277,128,0,19440:0:0:0:0:
320,192,19440,1,2,0:0:0:0:
448,192,19440,1,0,0:0:0:0:
320,192,19602,128,0,19764:0:0:0:0:
64,192,19764,1,2,0:0:0:0:
192,192,19764,1,0,0:0:0:0:
448,192,19764,1,0,0:0:0:0:
320,192,19926,128,0,20088:0:0:0:0:
64,192,20088,1,2,0:0:0:0:
192,192,20088,1,0,0:0:0:0:
448,192,20088,1,0,0:0:0:0:
192,192,20250,128,0,20413:0:0:0:0:
320,192,20413,1,0,0:0:0:0:
64,192,20413,1,2,0:0:0:0:
448,192,20413,1,0,0:0:0:0:
192,192,20575,128,0,20737:0:0:0:0:
64,192,20737,1,2,0:0:0:0:
320,192,20737,1,0,0:0:0:0:
448,192,20737,1,0,0:0:0:0:
192,192,20845,1,0,0:0:0:0:
320,192,20953,1,0,0:0:0:0:
64,192,21061,1,2,0:0:0:0:
448,192,21061,1,0,0:0:0:0:
320,192,21169,1,0,0:0:0:0:
192,192,21277,1,0,0:0:0:0:
320,192,21386,1,2,0:0:0:0:
448,192,21386,128,0,21467:0:0:0:0:
64,192,21467,128,0,21548:0:0:0:0:
192,192,21548,128,0,21629:0:0:0:0:
320,192,21629,128,0,21710:0:0:0:0:
64,192,21710,128,2,21791:0:0:0:0:
448,192,21710,128,0,21791:0:0:0:0:
320,192,21791,128,0,21872:0:0:0:0:
192,192,21872,128,0,21953:0:0:0:0:
64,192,21953,128,0,22034:0:0:0:0:
192,192,22034,1,2,0:0:0:0:
448,192,22034,128,0,22115:0:0:0:0:
320,192,22115,128,0,22196:0:0:0:0:
448,192,22196,128,0,23088:0:0:0:0:
320,192,22277,128,0,22359:0:0:0:0:
192,192,22359,128,2,22440:0:0:0:0:
64,192,22359,1,0,0:0:0:0:
320,192,22440,128,0,22845:0:0:0:0:
192,192,22521,128,0,22602:0:0:0:0:
64,192,22602,128,0,22683:0:0:0:0:
192,192,22683,128,2,22764:0:0:0:0:
64,192,22764,128,0,22845:0:0:0:0:
192,192,22845,128,0,22926:0:0:0:0:
320,192,22926,128,0,23007:0:0:0:0:
192,192,23007,128,2,23088:0:0:0:0:
64,192,23007,1,0,0:0:0:0:
320,192,23088,128,0,23169:0:0:0:0:
448,192,23169,128,0,23250:0:0:0:0:
320,192,23250,128,0,23332:0:0:0:0:
64,192,23332,128,2,23413:0:0:0:0:
448,192,23332,128,0,23413:0:0:0:0:
192,192,23413,128,0,23494:0:0:0:0:
64,192,23494,128,0,24386:0:0:0:0:
192,192,23575,128,0,23656:0:0:0:0:
320,192,23656,128,2,23737:0:0:0:0:
448,192,23656,1,0,0:0:0:0:
192,192,23737,128,0,24142:0:0:0:0:
320,192,23818,128,0,23899:0:0:0:0:
448,192,23899,128,0,23980:0:0:0:0:
320,192,23980,128,2,24061:0:0:0:0:
448,192,24061,128,0,24142:0:0:0:0:
320,192,24142,128,0,24223:0:0:0:0:
192,192,24223,128,0,24305:0:0:0:0:
320,192,24305,128,2,24386:0:0:0:0:
448,192,24305,1,0,0:0:0:0:
192,192,24386,128,0,24467:0:0:0:0:
64,192,24467,128,0,24548:0:0:0:0:
192,192,24548,128,0,24629:0:0:0:0:
64,192,24629,128,2,24710:0:0:0:0:
448,192,24629,128,0,24710:0:0:0:0:
320,192,24710,128,0,24791:0:0:0:0:
192,192,24791,128,0,24872:0:0:0:0:
448,192,24872,128,0,25034:0:0:0:0:
64,192,24953,1,2,0:0:0:0:
320,192,24953,128,0,25115:0:0:0:0:
192,192,25034,128,0,25196:0:0:0:0:
448,192,25115,128,0,25277:0:0:0:0:
320,192,25196,128,0,25359:0:0:0:0:
64,192,25277,128,2,25440:0:0:0:0:
192,192,25277,1,0,0:0:0:0:
448,192,25359,128,0,25440:0:0:0:0:
192,192,25440,128,0,25521:0:0:0:0:
64,192,25521,128,0,25602:0:0:0:0:
320,192,25602,128,2,25683:0:0:0:0:
448,192,25602,1,0,0:0:0:0:
192,192,25683,128,0,25764:0:0:0:0:
64,192,25764,128,0,25845:0:0:0:0:
192,192,25926,1,2,0:0:0:0:
448,192,25926,128,0,26142:0:0:0:0:
320,192,26034,128,0,26250:0:0:0:0:
192,192,26142,128,0,26359:0:0:0:0:
64,192,26250,128,2,26467:0:0:0:0:
448,192,26250,128,0,26467:0:0:0:0:
320,192,26359,128,0,26575:0:0:0:0:
192,192,26467,128,0,26575:0:0:0:0:
64,192,26575,1,2,0:0:0:0:
448,192,26575,1,0,0:0:0:0:
320,192,26629,1,0,0:0:0:0:
192,192,26683,1,0,0:0:0:0:
64,192,26737,1,2,0:0:0:0:
448,192,26737,1,0,0:0:0:0:
192,192,26818,1,2,0:0:0:0:
320,192,26818,1,0,0:0:0:0:
64,192,26899,1,2,0:0:0:0:
448,192,26899,1,8,0:0:0:0:
192,192,26940,1,0,0:0:0:0:
320,192,26980,1,0,0:0:0:0:
448,192,27021,1,0,0:0:0:0:
64,192,27061,1,2,0:0:0:0:
192,192,27102,1,0,0:0:0:0:
320,192,27142,1,0,0:0:0:0:
448,192,27183,1,0,0:0:0:0:
64,192,27223,128,2,27305:0:0:0:0:
192,192,27223,1,4,0:0:0:0:
320,192,27305,128,0,27386:0:0:0:0:
192,192,27386,128,0,27467:0:0:0:0:
448,192,27467,128,0,27548:0:0:0:0:
64,192,27548,1,2,0:0:0:0:
320,192,27548,128,0,27602:0:0:0:0:
192,192,27602,128,0,27656:0:0:0:0:
64,192,27656,128,0,27710:0:0:0:0:
320,192,27710,128,0,27791:0:0:0:0:
192,192,27791,128,0,27872:0:0:0:0:
64,192,27872,1,2,0:0:0:0:
448,192,27872,128,0,27953:0:0:0:0:
320,192,27953,128,0,28034:0:0:0:0:
64,192,28034,128,0,28088:0:0:0:0:
192,192,28088,128,0,28142:0:0:0:0:
320,192,28142,128,0,28196:0:0:0:0:
64,192,28196,128,2,28277:0:0:0:0:
448,192,28196,1,0,0:0:0:0:
192,192,28277,128,0,28359:0:0:0:0:
448,192,28359,128,0,28440:0:0:0:0:
320,192,28440,128,0,28521:0:0:0:0:
192,192,28521,128,2,28602:0:0:0:0:
448,192,28521,1,0,0:0:0:0:
64,192,28602,128,0,28683:0:0:0:0:
320,192,28683,128,0,28764:0:0:0:0:
192,192,28764,128,0,28845:0:0:0:0:
320,192,28845,1,2,0:0:0:0:
448,192,28845,128,0,28926:0:0:0:0:
64,192,28926,128,0,29007:0:0:0:0:
192,192,29007,1,0,0:0:0:0:
448,192,29088,128,0,29169:0:0:0:0:
64,192,29169,1,2,0:0:0:0:
320,192,29169,128,0,29250:0:0:0:0:
192,192,29250,128,0,29332:0:0:0:0:
64,192,29332,128,0,29413:0:0:0:0:
192,192,29413,128,0,29494:0:0:0:0:
320,192,29494,128,2,29575:0:0:0:0:
448,192,29494,1,0,0:0:0:0:
192,192,29575,128,0,29656:0:0:0:0:
320,192,29656,128,0,29737:0:0:0:0:
448,192,29737,128,0,29818:0:0:0:0:
64,192,29818,128,2,29899:0:0:0:0:
192,192,29818,1,0,0:0:0:0:
448,192,29899,1,0,0:0:0:0:
320,192,29980,1,0,0:0:0:0:
192,192,30061,128,0,30142:0:0:0:0:
64,192,30142,1,2,0:0:0:0:
448,192,30142,1,0,0:0:0:0:
192,192,30223,1,0,0:0:0:0:
320,192,30305,128,0,30386:0:0:0:0:
64,192,30386,1,0,0:0:0:0:
320,192,30467,1,2,0:0:0:0:
448,192,30467,128,0,30683:0:0:0:0:
192,192,30575,128,0,30683:0:0:0:0:
320,192,30683,128,0,30899:0:0:0:0:
64,192,30791,128,2,30899:0:0:0:0:
448,192,30791,128,0,30899:0:0:0:0:
192,192,30899,128,0,31115:0:0:0:0:
320,192,31007,128,0,31115:0:0:0:0:
64,192,31115,128,2,31332:0:0:0:0:
448,192,31115,128,0,31332:0:0:0:0:
192,192,31223,128,0,31548:0:0:0:0:
320,192,31332,128,0,31440:0:0:0:0:
64,192,31440,128,2,31656:0:0:0:0:
448,192,31440,128,0,31548:0:0:0:0:
320,192,31548,128,0,31656:0:0:0:0:
192,192,31656,128,0,31764:0:0:0:0:
64,192,31764,1,2,0:0:0:0:
448,192,31764,128,0,31926:0:0:0:0:
320,192,31845,128,0,32007:0:0:0:0:
192,192,31926,128,0,32088:0:0:0:0:
64,192,32007,128,0,32169:0:0:0:0:
448,192,32088,128,2,32169:0:0:0:0:
320,192,32169,128,0,32250:0:0:0:0:
192,192,32250,128,0,32332:0:0:0:0:
64,192,32332,128,0,32413:0:0:0:0:
320,192,32413,1,2,0:0:0:0:
448,192,32413,1,0,0:0:0:0:
64,192,32494,128,0,32575:0:0:0:0:
192,192,32575,128,0,32656:0:0:0:0:
320,192,32656,128,0,32737:0:0:0:0:
64,192,32737,128,2,32818:0:0:0:0:
448,192,32737,128,0,32818:0:0:0:0:
192,192,32818,128,0,32899:0:0:0:0:
320,192,32899,128,0,33061:0:0:0:0:
192,192,32980,128,0,33142:0:0:0:0:
64,192,33061,128,2,33305:0:0:0:0:
448,192,33061,128,0,33305:0:0:0:0:
320,192,33142,128,0,33223:0:0:0:0:
192,192,33223,128,0,33386:0:0:0:0:
320,192,33305,128,0,33467:0:0:0:0:
64,192,33386,128,2,33467:0:0:0:0:
448,192,33386,128,0,33548:0:0:0:0:
192,192,33467,128,0,33548:0:0:0:0:
320,192,33548,128,0,33629:0:0:0:0:
448,192,33629,128,0,33710:0:0:0:0:
64,192,33710,1,2,0:0:0:0:
192,192,33710,1,0,0:0:0:0:
448,192,33791,128,0,33872:0:0:0:0:
320,192,33872,128,0,33953:0:0:0:0:
192,192,33953,128,0,34034:0:0:0:0:
64,192,34034,128,2,34115:0:0:0:0:
448,192,34034,128,0,34115:0:0:0:0:
320,192,34115,128,0,34196:0:0:0:0:
192,192,34196,128,0,34359:0:0:0:0:
320,192,34277,128,0,34440:0:0:0:0:
64,192,34359,128,2,34602:0:0:0:0:
448,192,34359,128,0,34602:0:0:0:0:
192,192,34440,128,0,34521:0:0:0:0:
320,192,34521,128,0,34683:0:0:0:0:
192,192,34602,128,0,34764:0:0:0:0:
64,192,34683,128,2,34845:0:0:0:0:
448,192,34683,128,0,34764:0:0:0:0:
320,192,34764,128,0,34845:0:0:0:0:
192,192,34845,128,0,34926:0:0:0:0:
64,192,34926,128,0,35007:0:0:0:0:
320,192,35007,1,2,0:0:0:0:
448,192,35007,1,0,0:0:0:0:
64,192,35088,128,0,35169:0:0:0:0:
192,192,35169,128,0,35250:0:0:0:0:
320,192,35250,128,0,35332:0:0:0:0:
64,192,35332,128,2,35413:0:0:0:0:
448,192,35332,128,0,35575:0:0:0:0:
192,192,35413,128,0,35494:0:0:0:0:
320,192,35494,128,0,35575:0:0:0:0:
192,192,35575,128,0,35656:0:0:0:0:
64,192,35656,128,2,35899:0:0:0:0:
448,192,35656,128,0,35737:0:0:0:0:
320,192,35737,128,0,35818:0:0:0:0:
192,192,35818,128,0,35899:0:0:0:0:
320,192,35899,128,0,35980:0:0:0:0:
64,192,35980,128,2,36061:0:0:0:0:
448,192,35980,128,0,36223:0:0:0:0:
192,192,36061,128,0,36142:0:0:0:0:
320,192,36142,128,0,36223:0:0:0:0:
64,192,36305,128,2,36413:0:0:0:0:
192,192,36305,128,0,36629:0:0:0:0:
320,192,36413,128,0,36521:0:0:0:0:
448,192,36521,128,0,36629:0:0:0:0:
64,192,36629,128,2,36737:0:0:0:0:
320,192,36629,128,0,36953:0:0:0:0:
192,192,36737,128,0,36845:0:0:0:0:
448,192,36845,128,0,36953:0:0:0:0:
64,192,36953,1,2,0:0:0:0:
192,192,36953,1,0,0:0:0:0:
320,192,37007,1,0,0:0:0:0:
192,192,37061,1,0,0:0:0:0:
64,192,37115,1,0,0:0:0:0:
448,192,37115,1,0,0:0:0:0:
320,192,37169,1,0,0:0:0:0:
192,192,37223,1,0,0:0:0:0:
320,192,37277,1,2,0:0:0:0:
448,192,37277,1,0,0:0:0:0:
64,192,37318,1,0,0:0:0:0:
192,192,37359,1,2,0:0:0:0:
320,192,37399,1,0,0:0:0:0:
448,192,37440,1,0,0:0:0:0:
64,192,37480,1,0,0:0:0:0:
192,192,37521,1,2,0:0:0:0:
320,192,37561,1,0,0:0:0:0:
64,192,37602,1,2,0:0:0:0:
448,192,37602,128,4,38413:0:0:0:0:
320,192,37764,1,0,0:0:0:0:
192,192,37845,1,0,0:0:0:0:
64,192,37926,1,2,0:0:0:0:
320,192,37926,1,0,0:0:0:0:
192,192,38088,1,0,0:0:0:0:
320,192,38169,1,0,0:0:0:0:
64,192,38250,1,2,0:0:0:0:
192,192,38250,1,0,0:0:0:0:
320,192,38332,1,0,0:0:0:0:
64,192,38413,1,0,0:0:0:0:
192,192,38575,128,2,38656:0:0:0:0:
320,192,38575,1,0,0:0:0:0:
64,192,38656,128,0,38737:0:0:0:0:
448,192,38737,128,0,38818:0:0:0:0:
320,192,38818,128,0,38899:0:0:0:0:
64,192,38899,128,2,38980:0:0:0:0:
192,192,38899,128,0,39710:0:0:0:0:
448,192,38980,128,0,39061:0:0:0:0:
320,192,39061,128,0,39142:0:0:0:0:
64,192,39142,128,0,39223:0:0:0:0:
320,192,39223,1,2,0:0:0:0:
448,192,39223,1,0,0:0:0:0:
448,192,39386,1,0,0:0:0:0:
320,192,39467,1,0,0:0:0:0:
64,192,39548,1,2,0:0:0:0:
448,192,39548,1,0,0:0:0:0:
320,192,39710,1,0,0:0:0:0:
64,192,39872,1,2,0:0:0:0:
448,192,39872,128,0,39953:0:0:0:0:
320,192,39953,128,0,40034:0:0:0:0:
192,192,40034,128,0,40115:0:0:0:0:
64,192,40115,128,0,40196:0:0:0:0:
320,192,40196,128,2,40683:0:0:0:0:
448,192,40196,1,0,0:0:0:0:
192,192,40359,1,0,0:0:0:0:
448,192,40440,1,0,0:0:0:0:
64,192,40521,1,2,0:0:0:0:
192,192,40521,1,0,0:0:0:0:
64,192,40683,128,0,41169:0:0:0:0:
320,192,40845,1,2,0:0:0:0:
448,192,40845,1,0,0:0:0:0:
192,192,41007,1,0,0:0:0:0:
448,192,41088,1,0,0:0:0:0:
192,192,41169,128,2,41494:0:0:0:0:
320,192,41169,1,0,0:0:0:0:
448,192,41332,128,0,41494:0:0:0:0:
64,192,41494,1,2,0:0:0:0:
320,192,41494,128,0,42467:0:0:0:0:
192,192,41656,1,0,0:0:0:0:
448,192,41737,1,0,0:0:0:0:
64,192,41818,1,2,0:0:0:0:
192,192,41818,1,0,0:0:0:0:
448,192,41980,1,0,0:0:0:0:
64,192,42142,1,2,0:0:0:0:
192,192,42142,1,0,0:0:0:0:
448,192,42223,1,0,0:0:0:0:
64,192,42305,1,0,0:0:0:0:
192,192,42386,1,0,0:0:0:0:
64,192,42467,1,2,0:0:0:0:
448,192,42467,128,0,42791:0:0:0:0:
64,192,42629,128,0,42791:0:0:0:0:
192,192,42791,128,2,43602:0:0:0:0:
320,192,42791,1,0,0:0:0:0:
64,192,42953,1,0,0:0:0:0:
320,192,43034,1,0,0:0:0:0:
64,192,43115,1,2,0:0:0:0:
448,192,43115,1,0,0:0:0:0:
320,192,43277,1,0,0:0:0:0:
320,192,43440,1,2,0:0:0:0:
448,192,43440,1,0,0:0:0:0:
64,192,43521,1,0,0:0:0:0:
448,192,43602,1,0,0:0:0:0:
192,192,43764,128,2,43845:0:0:0:0:
320,192,43764,1,0,0:0:0:0:
64,192,43845,128,0,43926:0:0:0:0:
320,192,43926,128,0,44007:0:0:0:0:
192,192,44007,128,0,44088:0:0:0:0:
64,192,44088,128,2,44899:0:0:0:0:
448,192,44088,1,0,0:0:0:0:
320,192,44250,1,0,0:0:0:0:
192,192,44413,1,2,0:0:0:0:
320,192,44413,1,0,0:0:0:0:
448,192,44494,1,0,0:0:0:0:
192,192,44575,1,0,0:0:0:0:
320,192,44656,1,0,0:0:0:0:
192,192,44737,1,2,0:0:0:0:
448,192,44737,1,0,0:0:0:0:
320,192,44818,1,0,0:0:0:0:
448,192,44899,1,0,0:0:0:0:
64,192,45061,1,2,0:0:0:0:
192,192,45061,128,0,45142:0:0:0:0:
320,192,45142,128,0,45223:0:0:0:0:
448,192,45223,128,0,45305:0:0:0:0:
64,192,45305,128,0,45386:0:0:0:0:
192,192,45386,1,2,0:0:0:0:
320,192,45386,128,0,46034:0:0:0:0:
448,192,45548,1,0,0:0:0:0:
192,192,45629,1,0,0:0:0:0:
64,192,45710,1,2,0:0:0:0:
448,192,45710,1,0,0:0:0:0:
192,192,45872,1,0,0:0:0:0:
64,192,46034,128,2,46683:0:0:0:0:
192,192,46034,1,0,0:0:0:0:
320,192,46196,1,0,0:0:0:0:
448,192,46277,1,0,0:0:0:0:
192,192,46359,1,2,0:0:0:0:
320,192,46359,1,0,0:0:0:0:
448,192,46521,1,0,0:0:0:0:
320,192,46683,1,2,0:0:0:0:
448,192,46683,128,0,47332:0:0:0:0:
192,192,46845,1,0,0:0:0:0:
64,192,46926,1,0,0:0:0:0:
192,192,47007,1,2,0:0:0:0:
320,192,47007,1,0,0:0:0:0:
64,192,47169,1,0,0:0:0:0:
320,192,47250,1,0,0:0:0:0:
64,192,47332,1,2,0:0:0:0:
192,192,47332,1,0,0:0:0:0:
320,192,47494,1,2,0:0:0:0:
448,192,47494,1,0,0:0:0:0:
64,192,47575,1,2,0:0:0:0:
192,192,47575,1,0,0:0:0:0:
64,192,47656,1,2,0:0:0:0:
192,192,47656,1,8,0:0:0:0:
320,192,47656,1,0,0:0:0:0:
448,192,47656,1,0,0:0:0:0:
192,192,47818,1,2,0:0:0:0:
320,192,47818,1,0,0:0:0:0:
64,192,47980,128,2,48791:0:0:0:0:
320,192,47980,1,4,0:0:0:0:
448,192,47980,1,0,0:0:0:0:
192,192,48142,1,0,0:0:0:0:
448,192,48223,1,0,0:0:0:0:
192,192,48305,1,2,0:0:0:0:
320,192,48305,1,0,0:0:0:0:
448,192,48467,1,0,0:0:0:0:
192,192,48629,1,2,0:0:0:0:
320,192,48629,1,0,0:0:0:0:
320,192,48791,1,0,0:0:0:0:
64,192,48953,1,2,0:0:0:0:
448,192,48953,128,0,49034:0:0:0:0:
320,192,49034,128,0,49115:0:0:0:0:
192,192,49115,128,0,49196:0:0:0:0:
64,192,49196,128,0,49277:0:0:0:0:
192,192,49277,128,2,50088:0:0:0:0:
448,192,49277,1,0,0:0:0:0:
320,192,49359,128,0,49440:0:0:0:0:
448,192,49440,128,0,49521:0:0:0:0:
64,192,49602,1,2,0:0:0:0:
320,192,49602,1,0,0:0:0:0:
448,192,49764,1,0,0:0:0:0:
64,192,49845,1,0,0:0:0:0:
320,192,49926,1,2,0:0:0:0:
448,192,49926,1,0,0:0:0:0:
64,192,50088,1,0,0:0:0:0:
320,192,50250,1,2,0:0:0:0:
448,192,50250,128,0,50332:0:0:0:0:
192,192,50332,128,0,50413:0:0:0:0:
320,192,50413,128,0,50494:0:0:0:0:
64,192,50494,128,0,50575:0:0:0:0:
192,192,50575,1,2,0:0:0:0:
448,192,50575,128,0,51061:0:0:0:0:
320,192,50737,1,0,0:0:0:0:
192,192,50818,1,0,0:0:0:0:
64,192,50899,1,2,0:0:0:0:
320,192,50899,1,0,0:0:0:0:
192,192,51061,128,0,51548:0:0:0:0:
64,192,51223,1,2,0:0:0:0:
320,192,51223,1,0,0:0:0:0:
448,192,51386,1,0,0:0:0:0:
320,192,51467,1,0,0:0:0:0:
64,192,51548,128,2,51710:0:0:0:0:
448,192,51548,1,0,0:0:0:0:
320,192,51629,128,0,51710:0:0:0:0:
448,192,51710,128,0,51872:0:0:0:0:
192,192,51791,128,0,51872:0:0:0:0:
64,192,51872,1,2,0:0:0:0:
320,192,51872,128,0,52683:0:0:0:0:
192,192,52034,1,0,0:0:0:0:
448,192,52115,1,0,0:0:0:0:
64,192,52196,1,2,0:0:0:0:
192,192,52196,1,0,0:0:0:0:
448,192,52359,1,0,0:0:0:0:
64,192,52521,1,2,0:0:0:0:
448,192,52521,1,0,0:0:0:0:
192,192,52602,1,0,0:0:0:0:
64,192,52683,1,0,0:0:0:0:
64,192,52845,128,2,53007:0:0:0:0:
320,192,52845,1,0,0:0:0:0:
448,192,52845,1,0,0:0:0:0:
192,192,53007,128,0,53169:0:0:0:0:
64,192,53169,1,2,0:0:0:0:
320,192,53169,1,4,0:0:0:0:
448,192,53169,1,0,0:0:0:0:
192,192,53250,1,0,0:0:0:0:
320,192,53332,1,2,0:0:0:0:
448,192,53332,1,0,0:0:0:0:
64,192,53413,1,0,0:0:0:0:
192,192,53494,1,2,0:0:0:0:
320,192,53494,1,0,0:0:0:0:
448,192,53575,1,0,0:0:0:0:
64,192,53656,1,2,0:0:0:0:
320,192,53656,1,0,0:0:0:0:
192,192,53737,1,0,0:0:0:0:
64,192,53818,1,2,0:0:0:0:
448,192,53818,1,0,0:0:0:0:
320,192,53899,1,0,0:0:0:0:
192,192,53980,1,2,0:0:0:0:
448,192,53980,1,0,0:0:0:0:
64,192,54061,1,0,0:0:0:0:
320,192,54142,1,2,0:0:0:0:
448,192,54142,1,0,0:0:0:0:
192,192,54183,1,2,0:0:0:0:
64,192,54223,1,2,0:0:0:0:
320,192,54264,1,2,0:0:0:0:
192,192,54305,1,2,0:0:0:0:
64,192,54345,1,2,0:0:0:0:
320,192,54386,1,2,0:0:0:0:
192,192,54426,1,2,0:0:0:0:
64,192,54467,1,4,0:0:0:0:
448,192,54467,1,2,0:0:0:0:
320,192,54548,1,0,0:0:0:0:
192,192,54629,1,2,0:0:0:0:
448,192,54629,1,0,0:0:0:0:
64,192,54710,1,0,0:0:0:0:
320,192,54791,1,2,0:0:0:0:
448,192,54791,1,0,0:0:0:0:
192,192,54872,1,0,0:0:0:0:
64,192,54953,1,2,0:0:0:0:
448,192,54953,1,0,0:0:0:0:
320,192,55034,1,0,0:0:0:0:
192,192,55115,1,2,0:0:0:0:
448,192,55115,1,0,0:0:0:0:
64,192,55196,1,0,0:0:0:0:
192,192,55277,1,2,0:0:0:0:
320,192,55277,1,0,0:0:0:0:
448,192,55359,1,0,0:0:0:0:
64,192,55440,1,2,0:0:0:0:
192,192,55440,1,0,0:0:0:0:
320,192,55480,1,2,0:0:0:0:
448,192,55521,1,2,0:0:0:0:
192,192,55561,1,2,0:0:0:0:
320,192,55602,1,2,0:0:0:0:
448,192,55642,1,2,0:0:0:0:
192,192,55683,1,2,0:0:0:0:
320,192,55723,1,2,0:0:0:0:
64,192,55764,1,2,0:0:0:0:
448,192,55764,1,4,0:0:0:0:
320,192,55845,1,0,0:0:0:0:
192,192,55926,1,2,0:0:0:0:
448,192,55926,1,0,0:0:0:0:
64,192,56007,1,0,0:0:0:0:
320,192,56088,1,2,0:0:0:0:
448,192,56088,1,0,0:0:0:0:
192,192,56129,1,2,0:0:0:0:
64,192,56169,1,2,0:0:0:0:
320,192,56210,1,2,0:0:0:0:
192,192,56250,1,2,0:0:0:0:
64,192,56291,1,2,0:0:0:0:
320,192,56332,1,2,0:0:0:0:
192,192,56372,1,2,0:0:0:0:
64,192,56413,1,2,0:0:0:0:
448,192,56413,1,4,0:0:0:0:
192,192,56494,1,0,0:0:0:0:
64,192,56575,1,2,0:0:0:0:
320,192,56575,1,0,0:0:0:0:
448,192,56656,1,0,0:0:0:0:
64,192,56737,1,2,0:0:0:0:
192,192,56737,1,0,0:0:0:0:
320,192,56777,1,2,0:0:0:0:
448,192,56818,1,2,0:0:0:0:
192,192,56859,1,2,0:0:0:0:
320,192,56899,1,2,0:0:0:0:
448,192,56940,1,2,0:0:0:0:
192,192,56980,1,2,0:0:0:0:
320,192,57021,1,2,0:0:0:0:
64,192,57061,1,2,0:0:0:0:
448,192,57061,1,4,0:0:0:0:
192,192,57223,1,2,0:0:0:0:
64,192,57264,1,2,0:0:0:0:
320,192,57305,1,2,0:0:0:0:
448,192,57345,1,2,0:0:0:0:
64,192,57386,1,2,0:0:0:0:
192,192,57386,1,4,0:0:0:0:
320,192,57548,1,2,0:0:0:0:
448,192,57588,1,2,0:0:0:0:
192,192,57629,1,2,0:0:0:0:
64,192,57669,1,2,0:0:0:0:
320,192,57710,1,2,0:0:0:0:
448,192,57710,1,4,0:0:0:0:
192,192,57872,1,2,0:0:0:0:
64,192,57913,1,2,0:0:0:0:
320,192,57953,1,2,0:0:0:0:
448,192,57994,1,2,0:0:0:0:
192,192,58034,1,0,0:0:0:50:static.wav
192,192,58115,1,0,0:0:0:50:static.wav
320,192,58196,1,0,0:0:0:50:static.wav
320,192,58277,1,0,0:0:0:50:static.wav
64,192,58359,1,2,0:0:0:0:
192,192,58359,1,4,0:0:0:0:
448,192,58359,128,0,58845:0:0:0:0:
320,192,58521,1,0,0:0:0:0:
192,192,58602,1,0,0:0:0:0:
64,192,58683,128,0,58845:0:0:0:0:
192,192,58845,128,0,59332:0:0:0:0:
320,192,59169,128,0,59332:0:0:0:0:
64,192,59332,128,2,59494:0:0:0:0:
448,192,59332,1,0,0:0:0:0:
320,192,59494,128,2,59656:0:0:0:0:
448,192,59494,1,0,0:0:0:0:
64,192,59656,1,2,0:0:0:0:
192,192,59656,1,4,0:0:0:0:
448,192,59656,128,0,60142:0:0:0:0:
320,192,59818,1,0,0:0:0:0:
192,192,59899,1,0,0:0:0:0:
64,192,59980,128,0,60142:0:0:0:0:
192,192,60142,128,0,60629:0:0:0:0:
320,192,60467,128,0,60629:0:0:0:0:
64,192,60629,128,2,60791:0:0:0:0:
448,192,60629,1,0,0:0:0:0:
320,192,60710,1,2,0:0:0:0:
192,192,60791,128,2,60953:0:0:0:0:
448,192,60791,1,0,0:0:0:0:
64,192,60953,1,2,0:0:0:0:
320,192,60953,1,4,0:0:0:0:
448,192,60953,128,0,61440:0:0:0:0:
320,192,61115,1,0,0:0:0:0:
192,192,61196,1,0,0:0:0:0:
64,192,61277,128,0,61440:0:0:0:0:
192,192,61440,128,0,61926:0:0:0:0:
320,192,61764,128,0,61926:0:0:0:0:
64,192,61926,1,2,0:0:0:0:
448,192,61926,1,0,0:0:0:0:
320,192,62088,1,2,0:0:0:0:
64,192,62129,1,2,0:0:0:0:
192,192,62169,1,2,0:0:0:0:
320,192,62210,1,2,0:0:0:0:
64,192,62250,1,2,0:0:0:0:
448,192,62250,128,4,62737:0:0:0:0:
320,192,62413,1,0,0:0:0:0:
192,192,62494,1,0,0:0:0:0:
64,192,62575,128,0,62737:0:0:0:0:
192,192,62737,128,0,62899:0:0:0:0:
64,192,62899,1,2,0:0:0:0:
448,192,62899,1,0,0:0:0:0:
320,192,62980,128,0,63142:0:0:0:0:
192,192,63061,128,0,63142:0:0:0:0:
64,192,63142,1,2,0:0:0:0:
448,192,63142,1,0,0:0:0:0:
64,192,63386,1,2,0:0:0:0:
448,192,63386,1,0,0:0:0:0:
64,192,63548,1,2,0:0:0:0:
192,192,63548,1,4,0:0:0:0:
448,192,63548,1,0,0:0:0:0:
320,192,63710,128,0,64034:0:0:0:0:
192,192,63791,1,0,0:0:0:0:
64,192,63872,128,0,64034:0:0:0:0:
448,192,64034,128,0,64196:0:0:0:0:
64,192,64196,1,2,0:0:0:0:
192,192,64196,1,4,0:0:0:0:
320,192,64196,1,0,0:0:0:0:
192,192,64359,128,0,64683:0:0:0:0:
320,192,64440,1,0,0:0:0:0:
448,192,64521,128,0,64683:0:0:0:0:
64,192,64683,128,0,64845:0:0:0:0:
192,192,64845,1,2,0:0:0:0:
320,192,64845,1,4,0:0:0:0:
448,192,64845,1,0,0:0:0:0:
320,192,65007,128,0,65332:0:0:0:0:
192,192,65088,1,0,0:0:0:0:
64,192,65169,128,0,65332:0:0:0:0:
448,192,65332,128,0,65494:0:0:0:0:
64,192,65494,1,2,0:0:0:0:
192,192,65494,1,4,0:0:0:0:
320,192,65494,1,0,0:0:0:0:
192,192,65656,128,0,65980:0:0:0:0:
320,192,65737,1,0,0:0:0:0:
448,192,65818,128,0,65980:0:0:0:0:
64,192,65980,128,0,66142:0:0:0:0:
192,192,66142,1,2,0:0:0:0:
320,192,66142,1,4,0:0:0:0:
448,192,66142,1,0,0:0:0:0:
192,192,66305,128,0,66467:0:0:0:0:
64,192,66467,1,2,0:0:0:0:
320,192,66467,1,4,0:0:0:0:
448,192,66467,1,0,0:0:0:0:
320,192,66629,128,0,66791:0:0:0:0:
64,192,66791,1,2,0:0:0:0:
192,192,66791,1,4,0:0:0:0:
448,192,66791,1,0,0:0:0:0:
448,192,66953,128,0,67115:0:0:0:0:
64,192,67115,1,2,0:0:0:0:
192,192,67115,1,4,0:0:0:0:
320,192,67115,1,0,0:0:0:0:
64,192,67277,128,0,67440:0:0:0:0:
192,192,67440,1,2,0:0:0:0:
320,192,67440,1,4,0:0:0:0:
448,192,67440,1,0,0:0:0:0:
64,192,67602,1,2,0:0:0:0:
192,192,67602,1,4,0:0:0:0:
320,192,67602,1,0,0:0:0:0:
64,192,67764,1,2,0:0:0:0:
320,192,67764,1,4,0:0:0:0:
448,192,67764,1,0,0:0:0:0:
64,192,67926,1,2,0:0:0:0:
192,192,67926,1,4,0:0:0:0:
448,192,67926,1,0,0:0:0:0:
192,192,68088,1,2,0:0:0:0:
320,192,68088,1,4,0:0:0:0:
448,192,68088,1,0,0:0:0:0:
64,192,68250,1,2,0:0:0:0:
192,192,68250,1,4,0:0:0:0:
320,192,68250,1,0,0:0:0:0:
64,192,68413,1,2,0:0:0:0:
448,192,68413,1,4,0:0:0:0:
320,192,68453,1,2,0:0:0:0:
192,192,68494,1,2,0:0:0:0:
448,192,68534,1,2,0:0:0:0:
64,192,68575,1,2,0:0:0:0:
320,192,68615,1,2,0:0:0:0:
192,192,68656,1,2,0:0:0:0:
448,192,68696,1,2,0:0:0:0:
64,192,68737,1,2,0:0:0:0:
320,192,68737,128,4,70034:0:0:0:0:
192,192,70034,128,0,70196:0:0:0:0:
448,192,70115,128,0,70196:0:0:0:0:
64,192,70196,128,0,70359:0:0:0:0:
320,192,70277,128,0,70359:0:0:0:0:
448,192,70359,128,0,70521:0:0:0:0:
192,192,70440,128,0,70521:0:0:0:0:
320,192,70521,128,0,70683:0:0:0:0:
64,192,70602,128,0,70683:0:0:0:0:
448,192,70683,128,0,70845:0:0:0:0:
320,192,70764,128,0,70845:0:0:0:0:
192,192,70845,128,0,71007:0:0:0:0:
64,192,70926,128,0,71007:0:0:0:0:
448,192,71007,1,8,0:0:0:0:
320,192,71048,1,0,0:0:0:0:
192,192,71088,1,0,0:0:0:0:
64,192,71129,1,0,0:0:0:0:
320,192,71169,1,0,0:0:0:0:
192,192,71210,1,0,0:0:0:0:
448,192,71250,1,0,0:0:0:0:
320,192,71291,1,0,0:0:0:0:
64,192,71332,128,2,71575:0:0:0:0:
192,192,71332,1,4,0:0:0:0:
320,192,71494,128,0,71575:0:0:0:0:
192,192,71575,1,0,0:0:0:0:
448,192,71575,128,0,71818:0:0:0:0:
192,192,71737,128,0,71818:0:0:0:0:
64,192,71818,128,0,72142:0:0:0:0:
320,192,71818,1,0,0:0:0:0:
320,192,71980,1,2,0:0:0:0:
448,192,71980,1,0,0:0:0:0:
192,192,72061,128,0,72142:0:0:0:0:
320,192,72142,128,0,72305:0:0:0:0:
448,192,72223,128,0,72305:0:0:0:0:
64,192,72305,1,2,0:0:0:0:
192,192,72305,128,0,72467:0:0:0:0:
320,192,72386,128,0,72467:0:0:0:0:
64,192,72467,128,0,72629:0:0:0:0:
192,192,72548,128,0,72629:0:0:0:0:
320,192,72629,1,2,0:0:0:0:
448,192,72629,128,0,72872:0:0:0:0:
192,192,72791,128,0,72872:0:0:0:0:
64,192,72872,128,0,73115:0:0:0:0:
320,192,72872,1,0,0:0:0:0:
320,192,73034,128,0,73115:0:0:0:0:
192,192,73115,1,0,0:0:0:0:
448,192,73115,128,0,73440:0:0:0:0:
64,192,73277,1,2,0:0:0:0:
192,192,73277,1,0,0:0:0:0:
320,192,73359,128,0,73440:0:0:0:0:
192,192,73440,128,0,73602:0:0:0:0:
64,192,73521,128,0,73602:0:0:0:0:
320,192,73602,128,2,73764:0:0:0:0:
448,192,73602,1,0,0:0:0:0:
192,192,73683,128,0,73764:0:0:0:0:
448,192,73764,128,0,73926:0:0:0:0:
320,192,73845,128,0,73926:0:0:0:0:
64,192,73926,1,2,0:0:0:0:
192,192,73926,128,0,74169:0:0:0:0:
448,192,74088,128,0,74169:0:0:0:0:
64,192,74169,1,0,0:0:0:0:
320,192,74169,128,0,74413:0:0:0:0:
64,192,74332,128,0,74413:0:0:0:0:
192,192,74413,128,0,74575:0:0:0:0:
448,192,74413,1,0,0:0:0:0:
320,192,74494,128,0,74575:0:0:0:0:
64,192,74575,128,2,74818:0:0:0:0:
448,192,74575,1,0,0:0:0:0:
192,192,74737,128,0,74818:0:0:0:0:
320,192,74818,128,0,75061:0:0:0:0:
448,192,74818,1,0,0:0:0:0:
448,192,74980,128,0,75061:0:0:0:0:
64,192,75061,1,0,0:0:0:0:
192,192,75061,128,0,75223:0:0:0:0:
320,192,75142,128,0,75223:0:0:0:0:
64,192,75223,128,2,75467:0:0:0:0:
448,192,75223,1,0,0:0:0:0:
448,192,75386,128,0,75467:0:0:0:0:
192,192,75467,1,0,0:0:0:0:
320,192,75467,128,0,75710:0:0:0:0:
64,192,75629,128,0,75710:0:0:0:0:
192,192,75710,128,0,75872:0:0:0:0:
448,192,75710,1,0,0:0:0:0:
320,192,75791,128,0,75872:0:0:0:0:
64,192,75872,1,2,0:0:0:0:
448,192,75872,128,0,76034:0:0:0:0:
320,192,75953,128,0,76115:0:0:0:0:
192,192,76034,128,0,76196:0:0:0:0:
64,192,76115,128,0,76277:0:0:0:0:
448,192,76196,128,2,76277:0:0:0:0:
320,192,76277,128,0,76359:0:0:0:0:
192,192,76359,128,0,76440:0:0:0:0:
64,192,76440,128,0,76521:0:0:0:0:
192,192,76521,1,2,0:0:0:0:
320,192,76521,128,4,76629:0:0:0:0:
64,192,76629,1,2,0:0:0:0:
448,192,76629,128,4,76737:0:0:0:0:
192,192,76737,128,4,76845:0:0:0:0:
320,192,76737,1,2,0:0:0:0:
320,192,76845,128,2,76953:0:0:0:0:
448,192,76845,1,4,0:0:0:0:
64,192,76953,128,2,77061:0:0:0:0:
192,192,76953,1,4,0:0:0:0:
192,192,77061,128,2,77169:0:0:0:0:
320,192,77061,1,4,0:0:0:0:
64,192,77169,1,2,0:0:0:0:
448,192,77169,1,4,0:0:0:0:
320,192,77250,1,0,0:0:0:0:
192,192,77332,1,0,0:0:0:0:
64,192,77413,1,0,0:0:0:0:
64,192,77494,1,2,0:0:0:0:
192,192,77494,1,8,0:0:0:0:
320,192,77494,1,0,0:0:0:0:
448,192,77494,1,0,0:0:0:0:
192,192,77818,128,2,77926:0:0:0:0:
320,192,77818,1,4,0:0:0:0:
64,192,77926,128,2,78034:0:0:0:0:
448,192,77926,1,4,0:0:0:0:
192,192,78034,1,4,0:0:0:0:
320,192,78034,128,2,78142:0:0:0:0:
64,192,78142,1,2,0:0:0:0:
192,192,78142,128,4,78250:0:0:0:0:
320,192,78250,1,2,0:0:0:0:
448,192,78250,128,4,78359:0:0:0:0:
192,192,78359,1,2,0:0:0:0:
320,192,78359,128,4,78467:0:0:0:0:
64,192,78467,1,2,0:0:0:0:
448,192,78467,1,4,0:0:0:0:
192,192,78548,1,0,0:0:0:0:
320,192,78629,1,0,0:0:0:0:
448,192,78710,1,0,0:0:0:0:
64,192,78791,1,2,0:0:0:0:
192,192,78791,1,8,0:0:0:0:
320,192,78791,1,0,0:0:0:0:
448,192,78791,1,0,0:0:0:0:
64,192,79115,1,2,0:0:0:0:
192,192,79115,1,4,0:0:0:0:
448,192,79115,128,0,79277:0:0:0:0:
192,192,79277,128,0,79359:0:0:0:0:
64,192,79359,1,2,0:0:0:0:
320,192,79359,128,4,79521:0:0:0:0:
448,192,79359,1,0,0:0:0:0:
64,192,79521,128,0,79602:0:0:0:0:
192,192,79602,128,2,79764:0:0:0:0:
320,192,79602,1,4,0:0:0:0:
448,192,79602,1,0,0:0:0:0:
64,192,79764,128,2,79926:0:0:0:0:
320,192,79764,1,4,0:0:0:0:
448,192,79764,1,0,0:0:0:0:
320,192,79926,128,0,80007:0:0:0:0:
64,192,80007,1,2,0:0:0:0:
192,192,80007,128,4,80169:0:0:0:0:
448,192,80007,1,0,0:0:0:0:
448,192,80169,128,0,80250:0:0:0:0:
64,192,80250,1,2,0:0:0:0:
192,192,80250,1,4,0:0:0:0:
320,192,80250,128,0,80413:0:0:0:0:
64,192,80413,1,2,0:0:0:0:
192,192,80413,1,4,0:0:0:0:
448,192,80413,128,0,80494:0:0:0:0:
64,192,80575,128,0,80656:0:0:0:0:
320,192,80575,1,0,0:0:0:0:
64,192,80737,1,2,0:0:0:0:
320,192,80737,128,0,80818:0:0:0:0:
448,192,80737,1,0,0:0:0:0:
192,192,80899,128,0,80980:0:0:0:0:
320,192,80899,1,0,0:0:0:0:
64,192,81061,128,2,81142:0:0:0:0:
448,192,81061,128,0,81223:0:0:0:0:
192,192,81142,128,2,81305:0:0:0:0:
320,192,81142,128,0,81223:0:0:0:0:
64,192,81223,128,0,81305:0:0:0:0:
320,192,81305,128,2,81467:0:0:0:0:
448,192,81305,128,0,81386:0:0:0:0:
64,192,81386,128,2,81548:0:0:0:0:
192,192,81386,128,0,81467:0:0:0:0:
448,192,81467,128,0,81629:0:0:0:0:
192,192,81548,128,2,81710:0:0:0:0:
320,192,81548,128,0,81629:0:0:0:0:
64,192,81629,128,2,81710:0:0:0:0:
320,192,81710,128,2,81953:0:0:0:0:
448,192,81710,1,4,0:0:0:0:
448,192,81872,128,0,81953:0:0:0:0:
64,192,81953,1,0,0:0:0:0:
192,192,81953,128,0,82196:0:0:0:0:
320,192,82115,128,0,82196:0:0:0:0:
64,192,82196,128,0,82521:0:0:0:0:
448,192,82196,1,0,0:0:0:0:
320,192,82359,1,2,0:0:0:0:
448,192,82359,1,0,0:0:0:0:
192,192,82440,128,0,82521:0:0:0:0:
448,192,82521,128,0,82683:0:0:0:0:
320,192,82602,128,0,82683:0:0:0:0:
64,192,82683,1,2,0:0:0:0:
192,192,82683,128,0,82845:0:0:0:0:
448,192,82764,128,0,82845:0:0:0:0:
64,192,82845,128,0,83007:0:0:0:0:
320,192,82926,128,0,83007:0:0:0:0:
192,192,83007,128,2,83250:0:0:0:0:
448,192,83007,1,0,0:0:0:0:
64,192,83169,128,0,83250:0:0:0:0:
320,192,83250,128,0,83494:0:0:0:0:
448,192,83250,1,0,0:0:0:0:
192,192,83413,128,0,83494:0:0:0:0:
64,192,83494,1,0,0:0:0:0:
448,192,83494,128,0,83818:0:0:0:0:
64,192,83656,1,2,0:0:0:0:
192,192,83656,1,0,0:0:0:0:
320,192,83737,128,0,83818:0:0:0:0:
64,192,83818,128,0,83980:0:0:0:0:
192,192,83899,128,0,83980:0:0:0:0:
320,192,83980,128,2,84142:0:0:0:0:
448,192,83980,1,0,0:0:0:0:
64,192,84061,128,0,84142:0:0:0:0:
448,192,84142,128,0,84305:0:0:0:0:
192,192,84223,128,0,84305:0:0:0:0:
64,192,84305,1,2,0:0:0:0:
320,192,84305,128,0,84548:0:0:0:0:
448,192,84467,128,0,84548:0:0:0:0:
64,192,84548,1,0,0:0:0:0:
192,192,84548,128,0,84791:0:0:0:0:
64,192,84710,128,0,84791:0:0:0:0:
320,192,84791,128,0,84953:0:0:0:0:
448,192,84791,1,0,0:0:0:0:
192,192,84872,128,0,84953:0:0:0:0:
64,192,84953,1,2,0:0:0:0:
448,192,84953,128,0,85196:0:0:0:0:
64,192,85115,128,0,85196:0:0:0:0:
192,192,85196,1,0,0:0:0:0:
320,192,85196,128,0,85440:0:0:0:0:
448,192,85359,128,0,85440:0:0:0:0:
64,192,85440,1,0,0:0:0:0:
192,192,85440,128,0,85602:0:0:0:0:
320,192,85521,128,0,85602:0:0:0:0:
64,192,85602,128,2,85845:0:0:0:0:
448,192,85602,1,0,0:0:0:0:
448,192,85764,128,0,85845:0:0:0:0:
192,192,85845,128,0,86088:0:0:0:0:
320,192,85845,1,0,0:0:0:0:
64,192,86007,128,0,86088:0:0:0:0:
320,192,86088,128,0,86250:0:0:0:0:
448,192,86088,1,0,0:0:0:0:
192,192,86169,128,0,86250:0:0:0:0:
64,192,86250,1,2,0:0:0:0:
448,192,86250,128,0,86413:0:0:0:0:
320,192,86332,128,0,86494:0:0:0:0:
192,192,86413,128,0,86575:0:0:0:0:
64,192,86494,128,0,86656:0:0:0:0:
448,192,86575,128,2,86656:0:0:0:0:
320,192,86656,128,0,86737:0:0:0:0:
192,192,86737,128,0,86818:0:0:0:0:
64,192,86818,128,0,86899:0:0:0:0:
320,192,86899,128,2,87007:0:0:0:0:
448,192,86899,1,4,0:0:0:0:
192,192,87007,128,0,87115:0:0:0:0:
448,192,87061,1,2,0:0:0:0:
64,192,87115,128,0,87223:0:0:0:0:
320,192,87223,128,2,87332:0:0:0:0:
448,192,87223,1,0,0:0:0:0:
192,192,87332,128,0,87440:0:0:0:0:
448,192,87386,1,2,0:0:0:0:
64,192,87440,128,0,87548:0:0:0:0:
192,192,87548,128,2,87629:0:0:0:0:
448,192,87548,128,0,87629:0:0:0:0:
320,192,87629,128,0,87710:0:0:0:0:
64,192,87710,128,2,87791:0:0:0:0:
448,192,87710,128,0,87791:0:0:0:0:
192,192,87791,128,0,87872:0:0:0:0:
64,192,87872,128,2,87953:0:0:0:0:
320,192,87872,128,0,87953:0:0:0:0:
448,192,87953,128,0,88034:0:0:0:0:
64,192,88034,128,2,88115:0:0:0:0:
192,192,88034,128,0,88115:0:0:0:0:
320,192,88115,128,2,88196:0:0:0:0:
64,192,88196,1,2,0:0:0:0:
192,192,88196,128,4,88305:0:0:0:0:
448,192,88196,1,0,0:0:0:0:
320,192,88305,128,0,88413:0:0:0:0:
64,192,88359,1,2,0:0:0:0:
448,192,88413,128,0,88521:0:0:0:0:
64,192,88521,1,2,0:0:0:0:
192,192,88521,128,0,88629:0:0:0:0:
320,192,88629,128,0,88737:0:0:0:0:
64,192,88683,1,2,0:0:0:0:
448,192,88737,128,0,88845:0:0:0:0:
64,192,88845,128,2,88926:0:0:0:0:
320,192,88845,128,0,88926:0:0:0:0:
192,192,88926,128,0,89007:0:0:0:0:
64,192,89007,128,2,89088:0:0:0:0:
448,192,89007,128,0,89088:0:0:0:0:
320,192,89088,128,0,89169:0:0:0:0:
192,192,89169,128,2,89250:0:0:0:0:
448,192,89169,128,0,89250:0:0:0:0:
64,192,89250,128,0,89332:0:0:0:0:
320,192,89332,128,2,89413:0:0:0:0:
448,192,89332,128,0,89413:0:0:0:0:
192,192,89413,128,2,89494:0:0:0:0:
64,192,89494,1,2,0:0:0:0:
320,192,89494,1,4,0:0:0:0:
448,192,89494,1,0,0:0:0:0:
192,192,89575,1,2,0:0:0:0:
64,192,89656,1,2,0:0:0:0:
448,192,89656,1,0,0:0:0:0:
192,192,89737,1,2,0:0:0:0:
320,192,89737,1,0,0:0:0:0:
64,192,89818,1,2,0:0:0:0:
448,192,89818,1,0,0:0:0:0:
192,192,89899,1,2,0:0:0:0:
320,192,89899,1,0,0:0:0:0:
64,192,89980,1,2,0:0:0:0:
448,192,89980,1,0,0:0:0:0:
320,192,90061,1,2,0:0:0:0:
64,192,90142,1,2,0:0:0:0:
192,192,90142,1,4,0:0:0:0:
448,192,90142,1,0,0:0:0:0:
320,192,90223,1,2,0:0:0:0:
64,192,90305,1,2,0:0:0:0:
448,192,90305,1,0,0:0:0:0:
192,192,90386,1,2,0:0:0:0:
320,192,90386,1,0,0:0:0:0:
64,192,90467,1,2,0:0:0:0:
448,192,90467,1,0,0:0:0:0:
192,192,90548,1,2,0:0:0:0:
320,192,90548,1,0,0:0:0:0:
64,192,90629,1,2,0:0:0:0:
448,192,90629,1,0,0:0:0:0:
192,192,90710,1,2,0:0:0:0:
64,192,90791,1,2,0:0:0:0:
320,192,90791,1,4,0:0:0:0:
448,192,90791,1,0,0:0:0:0:
192,192,90953,1,2,0:0:0:0:
64,192,90994,1,2,0:0:0:0:
448,192,91034,1,2,0:0:0:0:
320,192,91075,1,2,0:0:0:0:
64,192,91115,1,2,0:0:0:0:
192,192,91115,1,4,0:0:0:0:
320,192,91277,1,2,0:0:0:0:
448,192,91318,1,2,0:0:0:0:
64,192,91359,1,2,0:0:0:0:
192,192,91399,1,2,0:0:0:0:
320,192,91440,1,2,0:0:0:0:
448,192,91440,1,4,0:0:0:0:
64,192,91602,1,2,0:0:0:0:
448,192,91642,1,2,0:0:0:0:
320,192,91683,1,2,0:0:0:0:
192,192,91723,1,2,0:0:0:0:
64,192,91764,1,2,0:0:0:0:
448,192,91764,1,8,0:0:0:0:
192,192,91845,1,2,0:0:0:0:
320,192,91845,1,0,0:0:0:0:
64,192,91926,1,2,0:0:0:0:
448,192,91926,1,0,0:0:0:0:
320,192,92007,1,2,0:0:0:0:
64,192,92088,128,2,92737:0:0:0:0:
192,192,92088,128,4,92169:0:0:0:0:
448,192,92088,1,0,0:0:0:0:
320,192,92169,128,0,92250:0:0:0:0:
448,192,92250,128,0,92413:0:0:0:0:
192,192,92332,128,0,92413:0:0:0:0:
320,192,92413,128,0,92575:0:0:0:0:
192,192,92575,128,0,92737:0:0:0:0:
320,192,92737,128,0,92899:0:0:0:0:
192,192,92818,128,0,92899:0:0:0:0:
448,192,92899,128,0,93061:0:0:0:0:
64,192,93061,128,0,93386:0:0:0:0:
320,192,93223,128,0,93386:0:0:0:0:
192,192,93305,128,0,93386:0:0:0:0:
448,192,93386,128,0,93710:0:0:0:0:
320,192,93467,128,0,93548:0:0:0:0:
192,192,93548,128,0,93710:0:0:0:0:
64,192,93710,128,0,93872:0:0:0:0:
320,192,93710,128,0,93872:0:0:0:0:
192,192,93872,128,0,94359:0:0:0:0:
320,192,94034,128,0,94196:0:0:0:0:
448,192,94034,128,0,94196:0:0:0:0:
64,192,94196,128,0,94359:0:0:0:0:
320,192,94359,128,0,94521:0:0:0:0:
448,192,94359,128,0,94521:0:0:0:0:
192,192,94521,128,0,94683:0:0:0:0:
64,192,94602,128,0,94683:0:0:0:0:
320,192,94683,128,0,94845:0:0:0:0:
448,192,94683,128,0,95332:0:0:0:0:
192,192,94764,128,0,94845:0:0:0:0:
64,192,94845,128,0,95007:0:0:0:0:
320,192,94926,128,0,95007:0:0:0:0:
192,192,95007,128,0,95169:0:0:0:0:
320,192,95169,128,0,95332:0:0:0:0:
192,192,95250,128,0,95332:0:0:0:0:
64,192,95332,128,0,95980:0:0:0:0:
192,192,95440,128,0,95764:0:0:0:0:
320,192,95548,128,0,95656:0:0:0:0:
448,192,95656,128,0,95764:0:0:0:0:
320,192,95764,128,0,95872:0:0:0:0:
192,192,95872,128,0,95980:0:0:0:0:
320,192,95980,128,0,96305:0:0:0:0:
64,192,96142,128,0,96305:0:0:0:0:
448,192,96142,128,0,96467:0:0:0:0:
192,192,96305,128,0,96467:0:0:0:0:
64,192,96467,128,0,96791:0:0:0:0:
192,192,96629,128,0,96953:0:0:0:0:
320,192,96629,128,0,96791:0:0:0:0:
448,192,96791,128,0,96953:0:0:0:0:
64,192,96953,128,0,97115:0:0:0:0:
320,192,96953,128,0,97115:0:0:0:0:
192,192,97115,128,0,97277:0:0:0:0:
64,192,97277,128,4,97926:0:0:0:0:
320,192,97277,128,2,97602:0:0:0:0:
448,192,97277,1,0,0:0:0:0:
448,192,97440,128,0,97602:0:0:0:0:
192,192,97602,128,0,97764:0:0:0:0:
320,192,97764,128,0,97926:0:0:0:0:
448,192,97845,128,0,97926:0:0:0:0:
192,192,97926,128,0,98088:0:0:0:0:
320,192,98007,128,0,98088:0:0:0:0:
64,192,98088,128,0,98250:0:0:0:0:
192,192,98169,128,0,98250:0:0:0:0:
448,192,98250,128,0,98332:0:0:0:0:
320,192,98332,128,0,98413:0:0:0:0:
192,192,98413,128,0,98494:0:0:0:0:
64,192,98494,128,0,98575:0:0:0:0:
320,192,98575,1,2,0:0:0:0:
448,192,98575,128,4,99223:0:0:0:0:
320,192,98737,1,2,0:0:0:0:
320,192,98899,1,2,0:0:0:0:
320,192,99061,1,2,0:0:0:0:
64,192,99223,1,2,0:0:0:0:
192,192,99223,1,0,0:0:0:0:
320,192,99305,1,0,0:0:0:0:
192,192,99386,1,2,0:0:0:0:
448,192,99386,1,0,0:0:0:0:
64,192,99467,1,0,0:0:0:0:
192,192,99548,1,2,0:0:0:0:
320,192,99548,1,0,0:0:0:0:
448,192,99629,1,0,0:0:0:0:
64,192,99710,1,2,0:0:0:0:
192,192,99710,1,0,0:0:0:0:
320,192,99791,1,2,0:0:0:0:
64,192,99872,1,2,0:0:0:0:
192,192,99872,1,4,0:0:0:0:
448,192,99872,1,0,0:0:0:0:
320,192,99953,1,2,0:0:0:0:
64,192,100034,1,2,0:0:0:0:
192,192,100034,1,0,0:0:0:0:
320,192,100115,1,2,0:0:0:0:
448,192,100115,1,0,0:0:0:0:
64,192,100196,1,2,0:0:0:0:
192,192,100196,1,0,0:0:0:0:
320,192,100277,1,2,0:0:0:0:
448,192,100277,1,0,0:0:0:0:
64,192,100359,1,2,0:0:0:0:
192,192,100359,1,0,0:0:0:0:
320,192,100440,1,2,0:0:0:0:
64,192,100521,1,2,0:0:0:0:
448,192,100521,1,4,0:0:0:0:
192,192,100602,1,2,0:0:0:0:
320,192,100683,1,2,0:0:0:0:
448,192,100683,1,0,0:0:0:0:
64,192,100764,1,2,0:0:0:0:
192,192,100764,1,0,0:0:0:0:
448,192,100845,1,2,0:0:0:0:
320,192,100845,1,0,0:0:0:0:
64,192,100926,1,2,0:0:0:0:
192,192,100926,1,0,0:0:0:0:
320,192,101007,1,2,0:0:0:0:
448,192,101007,1,0,0:0:0:0:
64,192,101088,1,2,0:0:0:0:
192,192,101088,1,0,0:0:0:0:
448,192,101169,128,2,101372:0:0:0:0:
320,192,101169,128,4,101332:0:0:0:0:
192,192,101332,1,2,0:0:0:0:
64,192,101372,1,2,0:0:0:0:
320,192,101413,1,2,0:0:0:0:
448,192,101453,1,2,0:0:0:0:
192,192,101494,128,2,101656:0:0:0:0:
64,192,101494,128,4,101696:0:0:0:0:
320,192,101656,1,2,0:0:0:0:
448,192,101696,1,2,0:0:0:0:
192,192,101737,1,0,0:0:0:0:
64,192,101777,1,2,0:0:0:0:
448,192,101818,128,2,102021:0:0:0:0:
320,192,101818,128,4,101980:0:0:0:0:
192,192,101980,1,2,0:0:0:0:
64,192,102021,1,2,0:0:0:0:
320,192,102061,1,2,0:0:0:0:
448,192,102102,1,2,0:0:0:0:
192,192,102142,128,2,102305:0:0:0:0:
64,192,102142,128,4,102386:0:0:0:0:
448,192,102223,128,2,102467:0:0:0:0:
320,192,102305,128,2,102467:0:0:0:0:
192,192,102386,128,2,102467:0:0:0:0:
64,192,102467,1,0,0:0:0:0:
64,192,102791,128,2,103034:0:0:0:0:
192,192,102791,128,8,103115:0:0:0:0:
320,192,102791,128,0,102872:0:0:0:0:
448,192,102791,128,0,103196:0:0:0:0:
320,192,102953,128,0,103277:0:0:0:0:
64,192,103115,128,2,103359:0:0:0:0:
192,192,103196,128,0,103359:0:0:0:0:
448,192,103277,128,0,103440:0:0:0:0:
320,192,103359,128,0,103521:0:0:0:0:
64,192,103440,128,2,103683:0:0:0:0:
192,192,103440,128,0,103602:0:0:0:0:
448,192,103521,128,0,103602:0:0:0:0:
320,192,103602,128,0,103683:0:0:0:0:
192,192,103683,128,0,103764:0:0:0:0:
64,192,103764,128,2,104007:0:0:0:0:
448,192,103764,128,0,104007:0:0:0:0:
192,192,103926,128,0,104169:0:0:0:0:
320,192,104007,128,0,104088:0:0:0:0:
64,192,104088,128,2,104250:0:0:0:0:
448,192,104088,128,0,104332:0:0:0:0:
320,192,104169,128,0,104332:0:0:0:0:
192,192,104250,128,0,104413:0:0:0:0:
64,192,104332,128,0,104494:0:0:0:0:
320,192,104413,128,2,104656:0:0:0:0:
448,192,104413,128,0,104656:0:0:0:0:
192,192,104494,128,0,104575:0:0:0:0:
64,192,104575,128,0,104737:0:0:0:0:
192,192,104656,128,0,104818:0:0:0:0:
320,192,104737,128,2,104899:0:0:0:0:
448,192,104737,128,0,104980:0:0:0:0:
64,192,104818,128,0,104899:0:0:0:0:
192,192,104899,128,0,104980:0:0:0:0:
320,192,104980,128,0,105061:0:0:0:0:
64,192,105061,128,2,105305:0:0:0:0:
448,192,105061,128,0,105223:0:0:0:0:
192,192,105142,128,0,105305:0:0:0:0:
320,192,105223,128,0,105386:0:0:0:0:
448,192,105305,128,0,105467:0:0:0:0:
64,192,105386,128,2,105629:0:0:0:0:
192,192,105386,128,0,105629:0:0:0:0:
320,192,105467,128,0,105548:0:0:0:0:
448,192,105548,128,0,105629:0:0:0:0:
320,192,105629,128,0,105710:0:0:0:0:
64,192,105710,128,2,105872:0:0:0:0:
192,192,105710,128,0,105791:0:0:0:0:
448,192,105791,128,0,105953:0:0:0:0:
320,192,105872,128,0,106034:0:0:0:0:
192,192,105953,128,0,106115:0:0:0:0:
64,192,106034,1,2,0:0:0:0:
448,192,106034,1,0,0:0:0:0:
320,192,106115,128,0,106277:0:0:0:0:
192,192,106196,128,0,106359:0:0:0:0:
64,192,106277,128,0,106359:0:0:0:0:
320,192,106359,128,2,106521:0:0:0:0:
448,192,106359,128,0,106602:0:0:0:0:
64,192,106440,128,0,106602:0:0:0:0:
192,192,106521,128,0,106683:0:0:0:0:
320,192,106602,128,0,106764:0:0:0:0:
64,192,106683,128,2,106764:0:0:0:0:
448,192,106683,128,0,106845:0:0:0:0:
192,192,106764,128,0,106845:0:0:0:0:
320,192,106845,128,0,106926:0:0:0:0:
192,192,106926,128,0,107007:0:0:0:0:
64,192,107007,128,2,107169:0:0:0:0:
448,192,107007,128,0,107250:0:0:0:0:
320,192,107088,128,0,107250:0:0:0:0:
192,192,107169,128,0,107332:0:0:0:0:
64,192,107250,128,0,107332:0:0:0:0:
320,192,107332,128,2,107413:0:0:0:0:
448,192,107332,128,0,107494:0:0:0:0:
64,192,107413,128,0,107494:0:0:0:0:
192,192,107494,128,0,107575:0:0:0:0:
320,192,107575,128,0,107656:0:0:0:0:
64,192,107656,1,2,0:0:0:0:
192,192,107656,128,4,107764:0:0:0:0:
448,192,107656,1,0,0:0:0:0:
320,192,107764,128,0,107872:0:0:0:0:
64,192,107818,1,2,0:0:0:0:
448,192,107872,128,0,107980:0:0:0:0:
64,192,107980,1,2,0:0:0:0:
192,192,107980,128,0,108088:0:0:0:0:
448,192,108088,128,0,108196:0:0:0:0:
64,192,108142,1,2,0:0:0:0:
320,192,108196,128,0,108305:0:0:0:0:
64,192,108305,128,2,108386:0:0:0:0:
448,192,108305,128,0,108467:0:0:0:0:
320,192,108386,128,0,108548:0:0:0:0:
64,192,108467,128,2,108629:0:0:0:0:
192,192,108467,128,0,108548:0:0:0:0:
448,192,108548,128,0,108710:0:0:0:0:
192,192,108629,128,2,108791:0:0:0:0:
320,192,108629,128,0,108710:0:0:0:0:
64,192,108710,128,0,108872:0:0:0:0:
320,192,108791,128,2,108872:0:0:0:0:
448,192,108791,128,0,108872:0:0:0:0:
192,192,108872,128,2,108953:0:0:0:0:
64,192,108953,1,2,0:0:0:0:
320,192,108953,128,4,109061:0:0:0:0:
448,192,108953,1,0,0:0:0:0:
192,192,109061,128,0,109169:0:0:0:0:
448,192,109115,1,2,0:0:0:0:
64,192,109169,128,0,109277:0:0:0:0:
320,192,109277,128,2,109386:0:0:0:0:
448,192,109277,1,0,0:0:0:0:
64,192,109386,128,0,109494:0:0:0:0:
448,192,109440,1,2,0:0:0:0:
192,192,109494,128,0,109602:0:0:0:0:
64,192,109602,128,2,109764:0:0:0:0:
448,192,109602,128,0,109683:0:0:0:0:
192,192,109683,128,0,109845:0:0:0:0:
320,192,109764,128,2,109845:0:0:0:0:
448,192,109764,128,0,109926:0:0:0:0:
64,192,109845,128,0,110007:0:0:0:0:
192,192,109926,128,2,110007:0:0:0:0:
320,192,109926,128,0,110088:0:0:0:0:
448,192,110007,128,0,110169:0:0:0:0:
64,192,110088,128,2,110169:0:0:0:0:
192,192,110088,128,0,110169:0:0:0:0:
320,192,110169,128,2,110250:0:0:0:0:
64,192,110250,1,2,0:0:0:0:
192,192,110250,1,4,0:0:0:0:
448,192,110250,1,0,0:0:0:0:
320,192,110332,1,2,0:0:0:0:
64,192,110413,1,2,0:0:0:0:
448,192,110413,1,0,0:0:0:0:
192,192,110494,1,2,0:0:0:0:
320,192,110494,1,0,0:0:0:0:
64,192,110575,1,2,0:0:0:0:
448,192,110575,1,0,0:0:0:0:
192,192,110656,1,2,0:0:0:0:
320,192,110656,1,0,0:0:0:0:
64,192,110737,1,2,0:0:0:0:
448,192,110737,1,0,0:0:0:0:
192,192,110818,1,2,0:0:0:0:
64,192,110899,1,2,0:0:0:0:
320,192,110899,1,4,0:0:0:0:
448,192,110899,1,0,0:0:0:0:
192,192,110980,1,2,0:0:0:0:
64,192,111061,1,2,0:0:0:0:
448,192,111061,1,0,0:0:0:0:
192,192,111142,1,2,0:0:0:0:
320,192,111142,1,0,0:0:0:0:
64,192,111223,1,2,0:0:0:0:
448,192,111223,1,0,0:0:0:0:
192,192,111305,1,2,0:0:0:0:
320,192,111305,1,0,0:0:0:0:
64,192,111386,1,2,0:0:0:0:
448,192,111386,1,0,0:0:0:0:
320,192,111467,1,2,0:0:0:0:
64,192,111548,1,2,0:0:0:0:
192,192,111548,1,4,0:0:0:0:
448,192,111548,1,0,0:0:0:0:
320,192,111710,1,2,0:0:0:0:
448,192,111750,1,2,0:0:0:0:
64,192,111791,1,2,0:0:0:0:
192,192,111832,1,2,0:0:0:0:
320,192,111872,1,2,0:0:0:0:
448,192,111872,1,4,0:0:0:0:
64,192,112034,1,2,0:0:0:0:
448,192,112075,1,2,0:0:0:0:
320,192,112115,1,2,0:0:0:0:
192,192,112156,1,2,0:0:0:0:
64,192,112196,128,2,112277:0:0:0:0:
448,192,112196,1,4,0:0:0:0:
192,192,112277,1,2,0:0:0:0:
320,192,112277,128,0,112359:0:0:0:0:
448,192,112359,128,2,112440:0:0:0:0:
64,192,112399,1,2,0:0:0:0:
192,192,112440,128,2,112521:0:0:0:0:
320,192,112440,1,0,0:0:0:0:
64,192,112521,1,2,0:0:0:0:
448,192,112521,128,4,112602:0:0:0:0:
320,192,112602,128,2,112683:0:0:0:0:
192,192,112642,1,2,0:0:0:0:
64,192,112683,128,2,112764:0:0:0:0:
448,192,112683,1,0,0:0:0:0:
192,192,112764,128,2,112845:0:0:0:0:
320,192,112845,128,2,113980:0:0:0:0:
448,192,112845,128,4,114034:0:0:0:0:
64,192,113980,128,0,114467:0:0:0:0:
192,192,114034,128,0,114413:0:0:0:0:
320,192,114088,128,0,114359:0:0:0:0:
448,192,114142,128,0,114305:0:0:0:0:
