osu file format v14

[General]
AudioFilename: audio.mp3
AudioLeadIn: 0
PreviewTime: 57496
Countdown: 0
SampleSet: Soft
StackLeniency: 0.3
Mode: 0
LetterboxInBreaks: 0
WidescreenStoryboard: 0

[Editor]
Bookmarks: 7480
DistanceSpacing: 0.5
BeatDivisor: 4
GridSize: 32
TimelineZoom: 2.1

[Metadata]
Title:Umarun Taisou(TV size)
TitleUnicode:うまるん体操(TV size)
Artist:SisterS
ArtistUnicode:妹S
Creator:[C u r i]
Version:Rumi's Insane
Source:干物妹!うまるちゃんR
Tags:himouto! umaruchan R Rumia- Ending ED TV size Umaru Doma Aimi Tanaka Nana Ebina Akari Kageyama Kirie Motoba Haruka Shiraishi Sylphinford Tachibana Yurina Furukawa 土間うまる 田中あいみ 海老名菜々 影山 灯 本場切絵 白石晴香 橘・シルフィンフォード 古川由利奈
BeatmapID:1442472
BeatmapSetID:680251

[Difficulty]
HPDrainRate:6
CircleSize:4
OverallDifficulty:7.5
ApproachRate:9
SliderMultiplier:1.56
SliderTickRate:1

[Events]
//Background and Video events
0,0,"cache-0877e7cd-0aef-4005-c01f-9b37af4d9d1b.jpg",0,0
Video,-400,"ending.avi"
//Break Periods
//Storyboard Layer 0 (Background)
//Storyboard Layer 1 (Fail)
//Storyboard Layer 2 (Pass)
//Storyboard Layer 3 (Foreground)
//Storyboard Sound Samples

[TimingPoints]
1907,352.941176470588,4,2,1,70,1,0
7554,-133.333333333333,4,2,1,70,0,0
9407,-133.333333333333,4,2,1,5,0,0
9496,-133.333333333333,4,2,1,70,0,0
9584,-133.333333333333,4,2,1,5,0,0
9672,-133.333333333333,4,2,1,70,0,0
10024,-66.6666666666667,4,2,1,70,0,0
10378,-133.333333333333,4,2,1,70,0,0
12231,-133.333333333333,4,2,1,5,0,0
12319,-133.333333333333,4,2,1,70,0,0
12407,-133.333333333333,4,2,1,5,0,0
12496,-133.333333333333,4,2,1,70,0,0
12848,-66.6666666666667,4,2,1,70,0,0
12937,-133.333333333333,4,2,1,5,0,0
13025,-133.333333333333,4,2,1,70,0,0
13113,-133.333333333333,4,2,1,25,0,0
13201,-117.647058823529,4,2,1,70,0,0
15054,-117.647058823529,4,2,1,5,0,0
15143,-117.647058823529,4,2,1,70,0,0
15231,-117.647058823529,4,2,1,5,0,0
15319,-117.647058823529,4,2,1,70,0,0
15937,-117.647058823529,4,2,1,5,0,0
16025,-100,4,2,1,70,0,0
18143,-71.4285714285714,4,2,1,70,0,0
18231,-71.4285714285714,4,2,1,5,0,0
18319,-71.4285714285714,4,2,1,70,0,0
18407,-71.4285714285714,4,2,1,5,0,0
18496,-62.5,4,2,3,80,0,0
18584,-62.5,4,2,1,70,0,0
18760,-62.5,4,2,1,5,0,0
18848,-100,4,2,1,70,0,0
23878,-100,4,2,1,5,0,0
23966,-100,4,2,1,70,0,0
24054,-100,4,2,1,5,0,0
24143,-83.3333333333333,4,2,1,70,0,0
24496,-100,4,2,1,70,0,0
30143,-133.333333333333,4,2,1,70,0,0
31643,-100,4,2,1,5,0,0
31731,-100,4,2,1,70,0,0
32172,-100,4,2,1,5,0,0
32260,-100,4,2,1,70,0,0
32966,-66.6666666666667,4,2,1,70,0,0
33319,-100,4,2,1,70,0,0
37290,-100,4,2,1,5,0,0
37378,-100,4,2,1,70,0,0
37554,-100,4,2,1,40,0,0
38083,-100,4,2,1,70,0,0
38172,-100,4,2,1,5,0,0
38260,-100,4,2,1,70,0,0
38348,-100,4,2,1,5,0,0
38437,-100,4,2,1,70,0,0
38525,-100,4,2,1,5,0,0
38613,-100,4,2,1,70,0,0
41437,-142.857142857143,4,2,1,70,0,0
42407,-142.857142857143,4,2,1,5,0,0
42496,-142.857142857143,4,2,1,70,0,0
42760,-142.857142857143,4,2,1,5,0,0
42848,-142.857142857143,4,2,1,70,0,0
45937,-142.857142857143,4,2,1,5,0,0
46025,-142.857142857143,4,2,1,70,0,0
47084,-125,4,2,1,70,0,0
52731,-111.111111111111,4,2,3,70,0,0
52907,-111.111111111111,4,2,1,70,0,0
54143,-125,4,2,1,70,0,0
55201,-125,4,2,1,70,0,0
55554,-100,4,2,1,70,0,0
55907,-83.3333333333333,4,2,1,70,0,0
56260,-71.4285714285714,4,2,1,70,0,0
56613,-55.5555555555556,4,2,1,70,0,0
57937,-125,4,2,1,5,0,0
58025,-125,4,2,1,70,0,0
58290,-125,4,2,1,5,0,0
58377,-83.3333333333333,4,2,1,90,0,1
58643,-83.3333333333333,4,2,1,5,0,1
58731,-83.3333333333333,4,2,1,90,0,1
58996,-83.3333333333333,4,2,1,5,0,1
59084,-83.3333333333333,4,2,1,90,0,1
59348,-83.3333333333333,4,2,1,5,0,1
59437,-83.3333333333333,4,2,1,90,0,1
63584,-83.3333333333333,4,2,1,5,0,1
63672,-71.4285714285714,4,2,1,90,0,1
63937,-71.4285714285714,4,2,1,5,0,1
64025,-83.3333333333333,4,2,1,90,0,1
64290,-83.3333333333333,4,2,1,5,0,1
64378,-83.3333333333333,4,2,1,90,0,1
64643,-83.3333333333333,4,2,1,5,0,1
64731,-83.3333333333333,4,2,1,90,0,1
64996,-83.3333333333333,4,2,1,5,0,1
65084,-83.3333333333333,4,2,1,90,0,1
67113,-83.3333333333333,4,2,1,90,0,1
67201,-83.3333333333333,4,2,1,90,0,1
69937,-83.3333333333333,4,2,1,5,0,1
70025,-83.3333333333333,4,2,1,90,0,1
71348,-83.3333333333333,4,2,1,5,0,1
71437,-83.3333333333333,4,2,1,90,0,1
72760,-83.3333333333333,4,2,1,5,0,1
72848,-83.3333333333333,4,2,1,90,0,1
73290,-83.3333333333333,4,2,1,5,0,1
73378,-83.3333333333333,4,2,1,90,0,1
73996,-83.3333333333333,4,2,1,5,0,1
74084,-83.3333333333333,4,2,1,90,0,1
74966,-125,4,2,1,90,0,1
75319,-166.666666666667,4,2,1,90,0,1
76025,-125,4,2,1,90,0,1
76731,-100,4,2,1,90,0,1
77437,-50,4,2,1,90,0,1
78142,-125,4,2,1,70,0,0
79378,-125,4,2,1,5,0,0
79554,-100,4,2,1,70,0,0
80260,-71.4285714285714,4,2,1,70,0,0
80348,-71.4285714285714,4,2,1,5,0,0
80437,-50,4,2,1,70,0,0
80525,-50,4,2,1,5,0,0
80613,-100,4,2,1,70,0,0
82819,-100,4,2,1,5,0,0
82907,-100,4,2,1,70,0,0
82996,-100,4,2,1,5,0,0
83084,-100,4,2,1,70,0,0
83437,-66.6666666666667,4,2,1,70,0,0
83790,-100,4,2,1,70,0,0
85554,-100,4,2,1,70,0,0
85643,-100,4,2,1,5,0,0
85731,-100,4,2,1,70,0,0
85819,-100,4,2,1,5,0,0
85907,-66.6666666666667,4,2,1,70,0,0
85996,-66.6666666666667,4,2,1,5,0,0
86084,-66.6666666666667,4,2,1,70,0,0
86172,-66.6666666666667,4,2,1,5,0,0
86260,-66.6666666666667,4,2,1,70,0,0

[Colours]
Combo1 : 255,194,166
Combo2 : 255,128,64
Combo3 : 255,255,85
Combo4 : 255,119,255

[HitObjects]
57,286,7554,6,0,L|166:277,1,87.750003347397,6|0,0:0|0:0,0:0:0:0:
149,293,7907,2,0,L|218:287,1,58.500002231598,2|0,0:0|0:0,0:0:0:0:
345,277,8260,2,0,P|382:291|424:272,1,87.750003347397,2|0,0:0|0:0,0:0:0:0:
439,277,8613,2,0,P|453:239|450:216,1,58.500002231598,2|0,0:0|0:0,0:0:0:0:
410,30,8966,5,2,0:0:0:0:
299,103,9143,1,0,0:0:0:0:
299,103,9231,1,0,0:0:0:0:
299,103,9319,1,2,0:0:0:0:
234,43,9496,1,0,0:0:0:0:
214,123,9672,2,0,P|212:164|218:205,1,58.500002231598,2|0,0:0|0:0,0:0:0:0:
240,336,10024,6,0,B|197:345|197:345|161:332|161:332|110:341,1,117.000004463196,2|0,0:0|0:0,0:0:0:0:
272,252,10378,6,0,P|304:269|322:308,1,58.500002231598,2|0,0:0|0:0,0:0:0:0:
359,348,10643,1,0,0:0:0:0:
359,348,10731,2,0,P|370:308|386:280,1,58.500002231598,2|0,0:0|0:0,0:0:0:0:
479,164,11084,2,0,P|442:165|407:140,1,58.500002231598,2|0,0:0|0:0,0:0:0:0:
355,124,11349,1,0,0:0:0:0:
355,124,11437,2,0,P|365:164|365:196,1,58.500002231598,2|0,0:0|0:0,0:0:0:0:
359,283,11790,6,0,P|323:282|285:295,1,58.500002231598,2|0,0:0|0:0,0:0:0:0:
188,217,12054,1,0,0:0:0:0:
188,217,12143,2,0,P|216:231|240:261,1,58.500002231598,2|0,0:0|0:0,0:0:0:0:
164,302,12496,1,2,0:0:0:0:
74,367,12672,1,8,0:0:0:0:
27,195,12848,6,0,L|147:169,1,117.000004463196,2|8,0:0|0:0,0:0:0:0:
232,104,13201,6,0,L|227:170,1,66.3000012645722,6|0,0:0|0:0,0:0:0:0:
197,241,13466,1,0,0:0:0:0:
201,263,13554,2,0,L|205:329,1,66.3000012645722,2|0,0:0|0:0,0:0:0:0:
396,342,13907,2,0,P|404:297|400:250,1,66.3000012645722,2|0,0:0|0:0,0:0:0:0:
391,198,14171,1,0,0:0:0:0:
367,202,14260,2,0,L|296:211,1,66.3000012645722,2|0,0:0|0:0,0:0:0:0:
288,102,14613,6,0,L|379:105,1,66.3000012645722,2|0,0:0|0:0,0:0:0:0:
442,121,14878,1,0,0:0:0:0:
441,101,14966,2,0,L|435:32,1,66.3000012645722,2|0,0:0|0:0,0:0:0:0:
404,277,15319,2,0,L|398:208,1,66.3000012645722,2|0,0:0|0:0,0:0:0:0:
462,340,15672,1,2,0:0:0:0:
462,340,16025,6,0,P|421:362|351:344,1,117,6|0,0:0|0:0,0:0:0:0:
341,338,16378,2,0,L|329:246,1,78,2|0,0:0|0:0,0:0:0:0:
98,195,16731,6,0,P|139:217|209:199,1,117,6|0,0:0|0:0,0:0:0:0:
219,193,17084,2,0,L|231:101,1,78,2|0,0:0|0:0,0:0:0:0:
328,33,17437,5,8,0:0:0:0:
331,63,17525,1,8,0:0:0:0:
336,93,17613,1,2,0:0:0:0:
340,123,17701,1,8,0:0:0:0:
342,154,17790,2,0,L|331:204,2,39,8|0|8,0:0|0:0|0:0,0:0:0:0:
350,294,18143,6,0,P|317:299|288:311,1,54.5999983337403,4|0,0:0|0:0,0:0:0:0:
439,315,18319,2,0,P|457:339|484:359,1,54.5999983337403,0|0,0:0|0:0,0:0:0:0:
412,231,18496,2,0,B|439:187|436:138|436:138|391:106|386:37,1,187.2,8|0,0:0|0:0,0:0:0:0:
389,63,18848,6,0,L|285:81,1,78,6|0,0:0|0:0,0:0:0:0:
127,41,19201,1,8,0:0:0:0:
161,148,19378,1,0,0:0:0:0:
161,148,19466,1,0,0:0:0:0:
161,148,19554,1,2,0:0:0:0:
211,72,19731,1,2,0:0:0:0:
71,111,19907,1,8,0:0:0:0:
216,210,20084,6,0,B|176:247|120:224|120:224|89:191|45:198,1,156,2|2,0:0|0:0,0:0:0:0:
70,349,20613,2,0,P|74:307|58:261,1,78,8|0,0:0|0:0,0:0:0:0:
163,351,20966,2,0,L|161:305,2,39,2|0|2,0:0|0:0|0:0,0:0:0:0:
216,210,21319,2,0,P|257:202|332:242,1,117,8|0,0:0|0:0,0:0:0:0:
332,248,21672,6,0,L|320:338,1,78,6|0,0:0|0:0,0:0:0:0:
346,157,22025,1,8,0:0:0:0:
468,332,22201,2,0,L|454:176,1,156,0|2,0:0|0:0,0:0:0:0:
447,90,22731,1,8,0:0:0:0:
297,234,22907,6,0,P|368:244|431:195,1,156,2|2,0:0|0:0,0:0:0:0:
236,142,23437,1,8,0:0:0:0:
216,301,23613,1,0,0:0:0:0:
170,89,23790,2,0,P|203:64|259:57,1,78,2|2,0:0|0:0,0:0:0:0:
216,301,24143,2,0,L|111:292,1,93.5999971435548,8|0,0:0|0:0,0:0:0:0:
156,198,24407,1,8,0:0:0:0:
166,210,24496,6,0,L|244:219,2,78,6|0|8,0:0|0:0|0:0,0:0:0:0:
122,293,25025,2,0,L|103:137,1,156,0|2,0:0|0:0,0:0:0:0:
92,49,25554,1,8,0:0:0:0:
193,149,25731,2,0,P|275:145|329:76,1,156,2|2,0:0|0:0,0:0:0:0:
355,18,26260,1,8,0:0:0:0:
383,198,26437,1,2,0:0:0:0:
355,18,26613,2,0,L|366:99,1,78,0|2,0:0|0:0,0:0:0:0:
383,198,26966,2,0,L|393:275,1,78,8|2,0:0|0:0,0:0:0:0:
247,214,27319,6,0,L|261:105,2,78,6|0|8,0:0|0:0|0:0,0:0:0:0:
97,294,27848,2,0,P|150:278|231:336,1,156,0|2,0:0|0:0,0:0:0:0:
52,226,28378,1,8,0:0:0:0:
162,61,28554,6,0,B|113:45|113:45|140:177,1,156,2|0,0:0|0:0,0:0:0:0:
222,217,29084,2,0,L|235:132,1,78,8|2,0:0|0:0,0:0:0:0:
248,62,29437,1,0,0:0:0:0:
352,159,29613,1,2,0:0:0:0:
423,43,29790,1,8,0:0:0:0:
407,60,29878,1,8,0:0:0:0:
386,70,29966,1,8,0:0:0:0:
362,73,30054,1,8,0:0:0:0:
339,65,30143,5,6,0:0:0:0:
475,224,30319,1,0,0:0:0:0:
457,222,30407,1,0,0:0:0:0:
439,221,30496,1,8,0:0:0:0:
356,218,30672,1,0,0:0:0:0:
349,327,30848,2,0,L|355:219,1,87.750003347397,2|0,0:0|0:0,0:0:0:0:
356,218,31201,2,0,L|352:144,1,58.500002231598,8|2,0:0|0:0,0:0:0:0:
240,345,31554,5,0,0:0:0:0:
162,284,31731,1,2,0:0:0:0:
276,186,31907,1,8,0:0:0:0:
311,276,32084,1,0,0:0:0:0:
183,191,32260,1,2,0:0:0:0:
209,59,32437,5,2,0:0:0:0:
54,47,32613,2,0,P|95:30|139:40,1,78,8|0,0:0|0:0,0:0:0:0:
209,59,32966,6,0,L|198:244,1,175.500006694794,6|0,0:0|0:0,0:0:0:0:
198,234,33319,2,0,L|280:212,1,78,8|0,0:0|0:0,0:0:0:0:
352,211,33672,1,2,0:0:0:0:
316,311,33848,1,2,0:0:0:0:
352,211,34024,2,0,L|437:233,1,78,8|0,0:0|0:0,0:0:0:0:
469,91,34378,5,2,0:0:0:0:
357,113,34555,1,2,0:0:0:0:
350,90,34643,1,0,0:0:0:0:
356,67,34730,1,8,0:0:0:0:
469,91,34907,1,0,0:0:0:0:
440,188,35084,2,0,P|425:235|421:272,1,78,2|2,0:0|0:0,0:0:0:0:
336,349,35436,2,0,P|330:310|317:273,1,78,8|8,0:0|0:3,0:0:0:0:
258,199,35701,1,8,0:0:0:0:
270,212,35790,6,0,L|123:226,1,117,6|0,0:0|0:0,0:0:0:0:
155,239,36143,1,8,0:0:0:0:
164,138,36319,1,0,0:0:0:0:
69,8,36496,2,0,L|74:129,1,117,2|0,0:0|0:0,0:0:0:0:
73,151,36848,2,0,L|64:243,1,78,8|2,0:0|0:0,0:0:0:0:
48,352,37201,6,0,L|36:287,3,39,0|0|2|0,0:0|0:0|0:0|0:0,0:0:0:0:
145,325,37554,1,8,0:0:0:0:
167,331,37643,1,8,0:0:0:0:
190,334,37731,1,8,0:0:0:0:
213,331,37819,1,8,0:0:0:0:
234,322,37907,1,10,0:0:0:0:
252,307,37996,1,8,0:0:0:0:
263,286,38084,6,0,L|256:216,1,39,8|0,0:0|0:0,0:0:0:0:
363,354,38260,2,0,L|356:284,1,39,8|0,0:0|0:0,0:0:0:0:
455,285,38437,2,0,L|448:215,1,39,8|0,0:0|0:0,0:0:0:0:
352,170,38613,5,6,0:0:0:0:
436,101,38790,1,0,0:0:0:0:
352,170,38966,2,0,P|297:182|232:158,1,117,8|0,0:0|0:0,0:0:0:0:
228,150,39319,2,0,L|235:51,1,78,2|2,0:0|0:0,0:0:0:0:
115,34,39672,2,0,L|128:188,1,117,8|0,0:0|0:0,0:0:0:0:
126,178,40025,5,2,0:0:0:0:
17,163,40201,2,0,L|21:103,1,39,2|0,0:0|0:0,0:0:0:0:
125,222,40378,5,8,0:0:0:0:
16,207,40554,1,0,0:0:0:0:
107,309,40731,2,0,P|171:297|209:201,1,156,6|8,0:0|0:0,0:0:0:0:
238,47,41260,1,8,0:0:0:0:
242,70,41348,1,8,0:0:0:0:
243,98,41437,6,0,B|134:43|134:152|25:98,1,218.399993334961,6|10,0:0|0:0,0:0:0:0:
185,162,42496,1,8,0:0:0:0:
185,162,42848,6,0,L|174:291,1,109.199996667481,2|0,0:0|0:0,0:0:0:0:
168,351,43378,1,2,0:0:0:0:
245,307,43554,2,0,L|316:313,1,54.5999983337403,2|8,0:0|0:0,0:0:0:0:
101,299,43907,2,0,L|30:293,1,54.5999983337403,8|0,0:0|0:0,0:0:0:0:
28,154,44260,6,0,L|148:148,1,109.199996667481,2|0,0:0|0:0,0:0:0:0:
219,145,44790,1,2,0:0:0:0:
237,257,44966,1,2,0:0:0:0:
237,257,45319,2,0,P|268:266|312:262,1,54.5999983337403,8|0,0:0|0:0,0:0:0:0:
361,184,45671,6,0,P|368:158|371:130,1,54.5999983337403,2|0,0:0|0:0,0:0:0:0:
378,23,46025,1,8,0:0:0:0:
494,92,46201,1,0,0:0:0:0:
496,105,46290,1,2,0:0:0:0:
495,118,46378,1,2,0:0:0:0:
478,204,46554,1,8,0:0:0:0:
407,247,46731,1,8,0:0:0:0:
398,253,46819,1,8,0:0:0:0:
388,258,46907,1,8,0:0:0:0:
377,260,46996,1,8,0:0:0:0:
369,263,47084,6,0,P|333:261|299:242,1,62.4,6|0,0:0|0:0,0:0:0:0:
210,337,47437,1,8,0:0:0:0:
180,224,47613,1,0,0:0:0:0:
182,211,47701,1,0,0:0:0:0:
187,199,47790,1,2,0:0:0:0:
258,112,47966,1,2,0:0:0:0:
276,234,48143,1,8,0:0:0:0:
210,337,48319,1,0,0:0:0:0:
197,335,48407,1,0,0:0:0:0:
185,330,48496,5,2,0:0:0:0:
108,253,48672,1,0,0:0:0:0:
176,162,48848,1,8,0:0:0:0:
276,234,49025,1,0,0:0:0:0:
287,238,49113,1,0,0:0:0:0:
298,242,49201,1,2,0:0:0:0:
415,217,49378,1,0,0:0:0:0:
466,99,49554,1,8,0:0:0:0:
415,217,49731,2,0,L|418:277,1,31.2,8|8,0:0|0:0,0:0:0:0:
470,343,49907,6,0,P|412:333|374:337,1,93.6,6|0,0:0|0:0,0:0:0:0:
354,344,50260,1,8,0:0:0:0:
275,357,50437,1,0,0:0:0:0:
256,361,50525,1,0,0:0:0:0:
237,358,50613,1,2,0:0:0:0:
159,323,50790,1,2,0:0:0:0:
354,344,50966,1,8,0:0:0:0:
159,323,51143,1,0,0:0:0:0:
158,304,51231,1,0,0:0:0:0:
155,285,51319,5,2,0:0:0:0:
236,268,51496,1,8,0:0:0:0:
233,249,51584,1,8,0:0:0:0:
230,230,51672,2,0,L|224:174,3,31.2,8|8|8|8,0:0|0:0|0:0|0:0,0:0:0:0:
295,142,52025,2,0,L|298:92,3,31.2,10|8|8|8,0:0|0:0|0:0|0:0,0:0:0:0:
350,238,52378,2,0,L|360:193,1,31.2,10|8,0:0|0:0,0:0:0:0:
423,143,52554,2,0,L|449:98,1,31.2,8|8,0:0|0:0,0:0:0:0:
480,203,52731,6,0,P|468:260|468:294,1,70.1999978576661,2|0,0:0|0:0,0:0:0:0:
467,271,53084,2,0,P|418:272|387:292,1,70.1999978576661,2|0,0:0|0:0,0:0:0:0:
399,281,53437,2,0,P|366:294|332:291,1,70.1999978576661,2|0,0:0|0:0,0:0:0:0:
331,291,53790,2,0,L|249:266,1,70.1999978576661,2|0,0:0|0:0,0:0:0:0:
264,270,54143,6,0,L|199:289,1,62.4,2|0,0:0|0:0,0:0:0:0:
204,287,54496,2,0,P|172:289|142:277,1,62.4,2|0,0:0|0:0,0:0:0:0:
144,278,54849,2,0,P|115:266|77:269,1,62.4,2|0,0:0|0:0,0:0:0:0:
38,189,55201,6,0,P|31:157|28:121,1,62.4,2|0,0:0|0:0,0:0:0:0:
119,119,55554,6,0,P|120:74|127:19,1,78,2|0,0:0|0:0,0:0:0:0:
233,103,55907,6,0,P|244:57|265:12,1,93.5999971435548,2|0,0:0|0:0,0:0:0:0:
351,152,56260,6,0,P|386:110|430:73,1,109.199996667481,2|0,0:0|0:0,0:0:0:0:
455,301,56613,6,0,P|412:342|401:244,1,210.599993572998,2|0,0:0|0:0,0:0:0:0:
415,232,56966,5,8,0:0:0:0:
415,232,57054,1,8,0:0:0:0:
313,265,57231,1,8,0:0:0:0:
313,265,57319,1,8,0:0:0:0:
212,208,57496,1,8,0:0:0:0:
119,274,57672,1,2,0:0:0:0:
119,274,58378,6,0,P|51:262|21:189,1,140.399995715332,14|0,0:0|0:0,0:0:0:0:
33,182,58731,2,0,P|45:114|118:84,1,140.399995715332,8|0,0:0|0:0,0:0:0:0:
121,103,59084,2,0,P|189:115|219:188,1,140.399995715332,10|0,0:0|0:0,0:0:0:0:
220,205,59437,1,8,0:0:0:0:
197,302,59613,6,0,B|247:275|281:278|281:278|324:315|372:309,1,187.19999428711,0|0,0:0|0:0,0:0:0:0:
458,254,60143,1,8,0:0:0:0:
356,186,60319,1,0,0:0:0:0:
351,204,60407,1,0,0:0:0:0:
351,222,60496,1,2,0:0:0:0:
437,145,60672,1,0,0:0:0:0:
339,95,60848,2,0,P|291:118|270:161,1,93.5999971435548,8|0,0:0|0:0,0:0:0:0:
228,234,61201,6,0,P|163:247|97:210,1,140.399995715332,2|0,0:0|0:0,0:0:0:0:
91,191,61554,2,0,P|105:141|101:86,1,93.5999971435548,8|0,0:0|0:0,0:0:0:0:
10,161,61907,2,0,L|30:329,1,140.399995715332,2|0,0:0|0:0,0:0:0:0:
32,322,62260,1,8,0:0:0:0:
179,344,62437,6,0,L|188:137,1,187.19999428711,0|0,0:0|0:0,0:0:0:0:
192,68,62966,1,8,0:0:0:0:
286,143,63143,1,0,0:0:0:0:
434,79,63319,2,0,P|367:79|292:135,1,140.399995715332,2|0,0:0|0:0,0:0:0:0:
286,143,63672,2,0,L|294:264,1,109.199996667481,8|0,0:0|0:0,0:0:0:0:
394,292,64025,6,0,P|388:234|432:150,1,140.399995715332,14|0,0:0|0:0,0:0:0:0:
427,133,64378,2,0,P|368:155|302:119,1,140.399995715332,8|0,0:0|0:0,0:0:0:0:
286,143,64731,2,0,P|227:121|161:157,1,140.399995715332,10|0,0:0|0:0,0:0:0:0:
149,173,65084,1,8,0:0:0:0:
228,335,65260,6,0,B|282:348|298:286|298:286|270:221|212:247,1,187.19999428711,0|0,0:0|0:0,0:0:0:0:
118,275,65790,1,8,0:0:0:0:
230,241,65966,1,0,0:0:0:0:
338,196,66143,2,0,B|367:225|381:278|381:278|381:309|354:368,1,187.19999428711,2|8,0:0|0:0,0:0:0:0:
388,108,66672,1,0,0:0:0:0:
293,116,66848,6,0,B|213:136|213:136|149:60,1,140.399995715332,2|0,0:0|0:0,0:0:0:0:
165,65,67201,2,0,L|256:40,1,93.5999971435548,8|0,0:0|0:0,0:0:0:0:
311,191,67554,2,0,B|192:224|192:224|147:173,1,187.19999428711,2|8,0:0|0:0,0:0:0:0:
339,136,68084,6,0,L|322:323,1,187.19999428711
407,320,68613,1,8,0:0:0:0:
240,284,68790,1,0,0:0:0:0:
331,248,68966,1,8,0:0:0:0:
326,285,69054,1,8,0:3:0:0:
322,322,69143,1,0,0:0:0:0:
156,331,69319,1,2,0:0:0:0:
152,294,69406,1,8,0:0:0:0:
147,257,69496,1,8,0:0:0:0:
76,149,69672,6,0,P|141:121|215:151,1,140.399995715332,6|0,0:0|0:0,0:0:0:0:
232,138,70025,2,0,L|224:40,1,93.5999971435548,8|0,0:0|0:0,0:0:0:0:
334,96,70378,1,2,0:0:0:0:
300,227,70554,1,2,0:0:0:0:
334,96,70731,2,0,P|383:104|424:131,1,93.5999971435548,8|0,0:0|0:0,0:0:0:0:
468,218,71084,6,0,P|425:272|414:341,1,140.399995715332,6|0,0:0|0:0,0:0:0:0:
389,355,71437,2,0,P|332:338|284:349,1,93.5999971435548,8|0,0:0|0:0,0:0:0:0:
224,356,71701,1,0,0:0:0:0:
224,356,71790,2,0,L|237:244,1,93.5999971435548,2|2,0:0|0:0,0:0:0:0:
48,284,72143,2,0,L|40:186,1,93.5999971435548,8|2,0:0|0:0,0:0:0:0:
133,119,72496,6,0,P|165:49|101:38,1,140.399995715332,6|0,0:0|0:0,0:0:0:0:
86,32,72848,1,8,0:0:0:0:
124,141,73025,2,0,P|183:153|248:103,1,140.399995715332,6|0,0:0|0:0,0:0:0:0:
261,78,73378,2,0,L|252:200,1,93.5999971435548,2|8,0:0|0:0,0:0:0:0:
245,348,73731,6,0,P|306:317|389:360,1,140.399995715332,6|0,0:0|0:0,0:0:0:0:
390,349,74084,1,8,0:0:0:0:
245,348,74260,2,0,L|138:332,1,93.5999971435548,8|2,0:0|0:0,0:0:0:0:
46,254,74613,1,8,0:0:0:0:
73,249,74701,1,8,0:0:0:0:
102,246,74790,2,0,L|164:239,1,46.7999985717774,0|0,0:0|0:0,0:0:0:0:
221,194,74966,6,0,L|327:206,1,93.6,8|0,0:0|0:0,0:0:0:0:
346,214,75319,2,0,P|392:186|370:95,1,140.399995715332,6|0,0:0|0:0,0:0:0:0:
325,52,76025,2,0,B|263:28|263:28|189:48,1,124.8,4|0,0:0|0:0,0:0:0:0:
131,97,76554,1,0,0:0:0:0:
131,97,76731,6,0,L|141:236,2,117,6|0|0,0:0|0:0|0:0,0:0:0:0:
42,103,77437,6,0,L|52:258,1,156,8|2,0:0|0:0,0:0:0:0:
230,346,77790,2,0,L|219:188,1,156,8|2,0:0|0:0,0:0:0:0:
249,72,78143,6,0,P|287:37|343:239,1,436.8,6|0,0:0|0:0,0:0:0:0:
93,340,79554,6,0,L|27:332,1,39,8|8,0:0|0:0,0:0:0:0:
219,260,79818,2,0,L|258:265,1,39,8|8,0:0|0:0,0:0:0:0:
140,202,80084,1,8,0:0:0:0:
179,346,80260,5,8,0:0:0:0:
140,202,80437,1,8,0:3:0:0:
99,29,80613,1,2,0:0:0:0:
103,51,80701,1,8,0:3:0:0:
108,73,80790,1,0,0:0:0:0:
113,95,80878,1,0,0:0:0:0:
117,117,80966,6,0,L|108:240,1,117,6|0,0:0|0:0,0:0:0:0:
106,257,81319,2,0,P|144:246|187:251,1,78,2|0,0:0|0:0,0:0:0:0:
276,328,81672,2,0,P|340:333|387:308,1,117,2|0,0:0|0:0,0:0:0:0:
399,290,82025,2,0,L|406:199,1,78,2|0,0:0|0:0,0:0:0:0:
417,71,82378,5,2,0:0:0:0:
326,135,82554,1,0,0:0:0:0:
326,135,82643,1,0,0:0:0:0:
326,135,82731,1,2,0:0:0:0:
253,59,82907,1,0,0:0:0:0:
153,122,83084,1,2,0:0:0:0:
153,122,83260,2,0,L|148:59,1,39,0|0,0:0|0:0,0:0:0:0:
39,48,83437,6,0,L|30:198,1,117.000004463196,10|0,0:0|0:0,0:0:0:0:
83,334,83790,6,0,P|95:275|114:248,1,78,6|0,0:0|0:0,0:0:0:0:
155,200,84054,1,0,0:0:0:0:
155,200,84143,2,0,L|245:206,1,78,2|0,0:0|0:0,0:0:0:0:
379,320,84496,2,0,P|426:311|453:275,1,78,6|0,0:0|0:0,0:0:0:0:
466,213,84760,1,0,0:0:0:0:
466,213,84848,2,0,L|459:125,1,78,2|0,0:0|0:0,0:0:0:0:
447,44,85201,5,6,0:0:0:0:
335,174,85378,1,8,0:0:0:0:
335,174,85466,1,8,0:0:0:0:
335,174,85554,2,0,L|272:169,1,39,8|0,0:0|0:0,0:0:0:0:
197,168,85731,2,0,L|150:164,1,39,8|0,0:0|0:0,0:0:0:0:
144,329,85907,6,0,L|202:328,1,58.500002231598,8|0,0:0|0:0,0:0:0:0:
295,324,86084,2,0,L|365:323,1,58.500002231598,8|0,0:0|0:0,0:0:0:0:
469,179,86259,1,4,0:0:0:0:
