osu file format v14

[General]
AudioFilename: audio.mp3
AudioLeadIn: 0
PreviewTime: 57496
Countdown: 0
SampleSet: Soft
StackLeniency: 0.3
Mode: 0
LetterboxInBreaks: 0
WidescreenStoryboard: 0

[Editor]
Bookmarks: 7480
DistanceSpacing: 0.9
BeatDivisor: 2
GridSize: 4
TimelineZoom: 1

[Metadata]
Title:Umarun Taisou(TV size)
TitleUnicode:うまるん体操(TV size)
Artist:SisterS
ArtistUnicode:妹S
Creator:[C u r i]
Version:Normal
Source:干物妹!うまるちゃんR
Tags:himouto! umaruchan R Rumia- Ending ED TV size Umaru Doma Aimi Tanaka Nana Ebina Akari Kageyama Kirie Motoba Haruka Shiraishi Sylphinford Tachibana Yurina Furukawa 土間うまる 田中あいみ 海老名菜々 影山 灯 本場切絵 白石晴香 橘・シルフィンフォード 古川由利奈
BeatmapID:1438427
BeatmapSetID:680251

[Difficulty]
HPDrainRate:4
CircleSize:3.5
OverallDifficulty:4
ApproachRate:5
SliderMultiplier:1.1
SliderTickRate:1

[Events]
//Background and Video events
Video,-400,"ending.avi"
0,0,"cache-0877e7cd-0aef-4005-c01f-9b37af4d9d1b.jpg",0,0
//Break Periods
//Storyboard Layer 0 (Background)
//Storyboard Layer 1 (Fail)
//Storyboard Layer 2 (Pass)
//Storyboard Layer 3 (Foreground)
//Storyboard Sound Samples

[TimingPoints]
1907.79678954597,352.941176470588,4,2,1,70,1,0
9407,-100,4,2,1,5,0,0
9496,-100,4,2,1,70,0,0
9584,-100,4,2,1,5,0,0
9672,-100,4,2,1,70,0,0
12231,-100,4,2,1,5,0,0
12319,-100,4,2,1,70,0,0
12407,-100,4,2,1,5,0,0
12496,-100,4,2,1,70,0,0
12937,-100,4,2,1,5,0,0
13025,-100,4,2,1,70,0,0
13113,-100,4,2,1,25,0,0
13201,-100,4,2,1,70,0,0
15054,-100,4,2,1,5,0,0
15143,-100,4,2,1,70,0,0
15231,-100,4,2,1,5,0,0
15319,-100,4,2,1,70,0,0
15937,-100,4,2,1,5,0,0
16025,-100,4,2,1,70,0,0
18143,-100,4,2,1,70,0,0
18231,-100,4,2,1,5,0,0
18319,-100,4,2,1,70,0,0
18407,-100,4,2,1,5,0,0
18496,-100,4,2,3,80,0,0
18584,-100,4,2,1,70,0,0
18760,-100,4,2,1,5,0,0
18848,-100,4,2,1,70,0,0
23878,-100,4,2,1,5,0,0
23966,-100,4,2,1,70,0,0
24054,-100,4,2,1,5,0,0
24143,-100,4,2,1,70,0,0
24496,-100,4,2,1,70,0,0
31643,-100,4,2,1,5,0,0
31731,-100,4,2,1,70,0,0
32172,-100,4,2,1,5,0,0
32260,-100,4,2,1,70,0,0
37290,-100,4,2,1,5,0,0
37378,-100,4,2,1,70,0,0
38172,-100,4,2,1,5,0,0
38260,-100,4,2,1,70,0,0
38348,-100,4,2,1,5,0,0
38437,-100,4,2,1,70,0,0
38525,-100,4,2,1,5,0,0
38613,-100,4,2,1,70,0,0
41437,-100,4,2,1,70,0,0
42407,-100,4,2,1,5,0,0
42496,-100,4,2,1,70,0,0
42760,-100,4,2,1,5,0,0
42848,-100,4,2,1,70,0,0
45937,-100,4,2,1,5,0,0
46025,-100,4,2,1,70,0,0
47084,-100,4,2,1,70,0,0
52731,-100,4,2,3,70,0,0
52907,-100,4,2,1,70,0,0
57937,-100,4,2,1,5,0,0
58025,-100,4,2,1,70,0,0
58290,-100,4,2,1,5,0,0
58378,-100,4,2,1,90,0,1
58643,-100,4,2,1,5,0,1
58731,-100,4,2,1,90,0,1
58996,-100,4,2,1,5,0,1
59084,-100,4,2,1,90,0,1
59348,-100,4,2,1,5,0,1
59437,-100,4,2,1,90,0,1
63584,-100,4,2,1,5,0,1
63672,-100,4,2,1,90,0,1
63937,-100,4,2,1,5,0,1
64025,-100,4,2,1,90,0,1
64290,-100,4,2,1,5,0,1
64378,-100,4,2,1,90,0,1
64643,-100,4,2,1,5,0,1
64731,-100,4,2,1,90,0,1
64996,-100,4,2,1,5,0,1
65084,-100,4,2,1,90,0,1
69937,-100,4,2,1,5,0,1
70025,-100,4,2,1,90,0,1
71348,-100,4,2,1,5,0,1
71437,-100,4,2,1,90,0,1
72760,-100,4,2,1,5,0,1
72848,-100,4,2,1,90,0,1
73290,-100,4,2,1,5,0,1
73378,-100,4,2,1,90,0,1
73996,-100,4,2,1,5,0,1
74084,-100,4,2,1,90,0,1
75319,-100,4,2,1,90,0,1
76025,-100,4,2,1,90,0,1
76731,-100,4,2,1,90,0,1
77437,-100,4,2,1,90,0,1
78143,-100,4,2,1,70,0,0
79378,-100,4,2,1,5,0,0
79554,-100,4,2,1,70,0,0
80260,-100,4,2,1,70,0,0
80348,-100,4,2,1,5,0,0
80437,-100,4,2,1,70,0,0
80525,-100,4,2,1,5,0,0
80613,-100,4,2,1,70,0,0
82819,-100,4,2,1,5,0,0
82907,-100,4,2,1,70,0,0
82996,-100,4,2,1,5,0,0
83084,-100,4,2,1,70,0,0
83437,-100,4,2,1,70,0,0
83790,-100,4,2,1,70,0,0
85554,-100,4,2,1,70,0,0
85643,-100,4,2,1,5,0,0
85731,-100,4,2,1,70,0,0
85819,-100,4,2,1,5,0,0
85907,-100,4,2,1,70,0,0
85996,-100,4,2,1,5,0,0
86084,-100,4,2,1,70,0,0
86172,-100,4,2,1,5,0,0
86260,-100,4,2,1,70,0,0

[Colours]
Combo1 : 255,194,166
Combo2 : 255,128,64
Combo3 : 255,255,85
Combo4 : 255,119,255

[HitObjects]
125,147,7554,6,0,P|191:153|249:116,1,110,6|2,0:0|0:0,0:0:0:0:
300,66,8260,2,0,P|366:60|424:97,1,110,2|2,0:0|0:0,0:0:0:0:
457,161,8966,2,0,L|440:279,1,110,2|2,0:0|0:0,0:0:0:0:
435,319,9496,1,0,0:0:0:0:
435,319,9672,1,2,0:0:0:0:
339,344,10025,1,2,0:0:0:0:
255,290,10378,6,0,P|189:289|149:321,1,110,2|2,0:0|0:0,0:0:0:0:
69,363,11084,2,0,L|80:233,1,110,2|2,0:0|0:0,0:0:0:0:
147,182,11790,2,0,L|136:52,1,110,2|2,0:0|0:0,0:0:0:0:
134,22,12319,1,0,0:0:0:0:
134,22,12496,1,2,0:0:0:0:
220,66,12848,1,2,0:0:0:0:
313,32,13201,6,0,P|376:31|438:81,1,110,6|2,0:0|0:0,0:0:0:0:
464,139,13907,2,0,P|465:202|415:264,1,110,2|2,0:0|0:0,0:0:0:0:
365,303,14613,2,0,P|302:304|240:254,1,110,2|2,0:0|0:0,0:0:0:0:
241,236,15143,1,0,0:0:0:0:
241,236,15319,1,2,0:0:0:0:
266,140,15672,1,2,0:0:0:0:
205,61,16025,6,0,P|142:60|80:110,1,110,6|2,0:0|0:0,0:0:0:0:
53,168,16731,2,0,P|52:231|102:293,1,110,6|2,0:0|0:0,0:0:0:0:
162,316,17437,2,0,L|281:295,1,110,8|8,0:0|0:0,0:0:0:0:
319,291,17966,1,8,0:0:0:0:
319,291,18143,2,0,L|312:352,2,55,4|0|8,0:0|0:0|0:0,0:0:0:0:
391,223,18848,6,0,L|377:94,1,110,6|8,0:0|0:0,0:0:0:0:
373,64,19378,2,0,P|313:46|254:71,1,110,0|2,0:0|0:0,0:0:0:0:
236,96,19907,1,8,0:0:0:0:
236,96,20084,2,0,P|172:123|106:103,1,110,2|2,0:0|0:0,0:0:0:0:
92,90,20613,1,8,0:0:0:0:
7,142,20966,2,0,L|14:202,2,55,2|2|8,0:0|0:0|0:0,0:0:0:0:
94,189,21672,6,0,L|106:301,1,110,6|8,0:0|0:0,0:0:0:0:
115,347,22201,2,0,P|190:351|231:314,1,110,0|2,0:0|0:0,0:0:0:0:
243,291,22731,1,8,0:0:0:0:
243,291,22907,2,0,P|318:287|359:324,1,110,2|2,0:0|0:0,0:0:0:0:
372,346,23437,1,8,0:0:0:0:
434,269,23790,2,0,L|422:153,1,110,2|8,0:0|0:0,0:0:0:0:
401,62,24496,6,0,P|329:59|290:90,1,110,6|8,0:0|0:0,0:0:0:0:
271,119,25025,2,0,P|199:122|160:91,1,110,0|2,0:0|0:0,0:0:0:0:
138,63,25554,1,8,0:0:0:0:
138,63,25731,2,0,L|149:181,1,110,2|2,0:0|0:0,0:0:0:0:
153,221,26260,1,8,0:0:0:0:
68,169,26613,2,0,L|61:98,2,55,0|2|8,0:0|0:0|0:0,0:0:0:0:
153,221,27319,6,0,P|211:241|292:220,1,110,6|8,0:0|0:0,0:0:0:0:
293,200,27848,2,0,P|351:180|432:201,1,110,0|2,0:0|0:0,0:0:0:0:
433,221,28378,1,8,0:0:0:0:
433,221,28554,2,0,L|421:349,1,110,2|0,0:0|0:0,0:0:0:0:
425,380,29084,1,8,0:0:0:0:
340,327,29437,2,0,P|307:330|274:335,1,55,0|2,0:0|0:0,0:0:0:0:
247,365,29790,2,0,P|214:362|181:357,1,55,8|8,0:0|0:0,0:0:0:0:
149,334,30143,5,6,0:0:0:0:
227,273,30496,1,8,0:0:0:0:
193,179,30848,2,0,L|181:67,1,110,2|8,0:0|0:0,0:0:0:0:
174,20,31378,1,2,0:0:0:0:
174,20,31554,1,0,0:0:0:0:
90,72,31907,1,8,0:0:0:0:
11,132,32260,2,0,L|22:241,1,110,2|8,0:0|0:0,0:0:0:0:
94,309,32966,5,6,0:0:0:0:
192,295,33319,1,8,0:0:0:0:
290,281,33672,2,0,L|286:336,2,55,2|2|8,0:0|0:0|0:0,0:0:0:0:
331,253,34201,2,0,L|319:105,1,110,0|2,0:0|0:0,0:0:0:0:
316,93,34731,1,8,0:0:0:0:
412,113,35084,2,0,L|420:222,1,110,2|8,0:0|0:0,0:0:0:0:
331,253,35790,5,6,0:0:0:0:
236,223,36143,1,8,0:0:0:0:
141,191,36496,2,0,L|129:69,1,110,2|8,0:0|0:0,0:0:0:0:
142,34,37025,2,0,P|208:22|253:48,1,110,2|2,0:0|0:0,0:0:0:0:
279,75,37554,1,8,0:0:0:0:
341,151,37907,2,0,P|407:163|452:137,1,110,2|8,0:0|0:0,0:0:0:0:
507,68,38613,5,6,0:0:0:0:
409,52,38966,1,8,0:0:0:0:
443,144,39319,1,2,0:0:0:0:
484,233,39672,1,8,0:0:0:0:
484,233,39848,2,0,L|366:246,1,110,0|2,0:0|0:0,0:0:0:0:
332,271,40378,2,0,L|248:264,1,55,8|0,0:0|0:0,0:0:0:0:
227,262,40731,1,6,0:0:0:0:
128,258,41084,1,8,0:0:0:0:
88,166,41437,6,0,L|279:187,1,165,6|2,0:0|0:0,0:0:0:0:
301,190,42143,2,0,L|290:76,1,110,2|8,0:0|0:0,0:0:0:0:
388,64,42848,2,0,L|404:247,1,165,2|2,0:0|0:0,0:0:0:0:
407,277,43554,1,2,0:0:0:0:
344,353,43907,1,8,0:0:0:0:
245,362,44260,6,0,B|209:373|171:356|171:356|122:337|81:352,1,165,2|2,0:0|0:0,0:0:0:0:
38,371,44966,1,2,0:0:0:0:
52,272,45319,1,8,0:0:0:0:
70,174,45672,2,0,L|55:60,1,110,2|8,0:0|0:0,0:0:0:0:
147,26,46378,2,0,L|162:140,1,110,2|8,0:0|0:0,0:0:0:0:
211,220,47084,6,0,P|284:228|331:186,1,110,6|8,0:0|0:0,0:0:0:0:
345,172,47613,1,0,0:0:0:0:
345,172,47790,1,2,0:0:0:0:
405,250,48143,1,8,0:0:0:0:
473,178,48496,2,0,L|464:54,2,110,2|8|2,0:0|0:0|0:0,0:0:0:0:
502,272,49554,1,8,0:0:0:0:
436,346,49907,6,0,P|359:360|300:351,1,110,2|8,0:0|0:0,0:0:0:0:
278,348,50437,1,0,0:0:0:0:
278,348,50613,1,2,0:0:0:0:
203,282,50966,1,8,0:0:0:0:
137,356,51319,2,0,P|82:357|28:344,2,110,2|8|10,0:0|0:0|0:0,0:0:0:0:
203,282,52378,1,10,0:0:0:0:
256,192,52731,12,8,56966,0:0:0:0:
89,163,58378,6,0,L|99:38,2,110,14|8|10,0:0|0:0|0:0,0:0:0:0:
97,261,59437,1,8,0:0:0:0:
97,261,59613,2,0,P|162:288|211:271,1,110
276,217,60319,2,0,P|341:190|390:207,1,110
410,235,60848,1,8,0:0:0:0:
402,333,61201,6,0,P|337:360|288:343,1,110,2|8,0:0|0:0,0:0:0:0:
256,328,61731,1,0,0:0:0:0:
256,328,61907,2,0,L|264:200,1,110,2|8,0:0|0:0,0:0:0:0:
293,178,62437,2,0,L|273:47,1,110
234,42,62966,2,0,P|208:35|135:40,1,55,8|0,0:0|0:0,0:0:0:0:
141,64,63319,1,2,0:0:0:0:
182,153,63672,1,8,0:0:0:0:
131,239,64025,6,0,P|52:236|14:199,2,110,14|8|10,0:0|0:0|0:0,0:0:0:0:
182,153,65084,1,8,0:0:0:0:
182,153,65260,2,0,P|229:127|283:133,1,110,0|0,0:0|0:0,0:0:0:0:
361,194,65966,1,0,0:0:0:0:
361,194,66143,2,0,L|351:310,1,110,2|8,0:0|0:0,0:0:0:0:
355,357,66672,1,0,0:0:0:0:
355,357,66848,6,0,P|281:355|241:315,1,110,2|8,0:0|0:0,0:0:0:0:
179,269,67554,2,0,P|105:271|65:311,1,110,2|8,0:0|0:0,0:0:0:0:
48,331,68084,2,0,L|56:204,1,110
84,181,68613,2,0,L|76:113,1,55,8|0,0:0|0:0,0:0:0:0:
71,77,68966,1,8,0:0:0:0:
154,23,69319,1,2,0:0:0:0:
225,91,69672,6,0,P|277:109|355:62,1,110,6|8,0:0|0:0,0:0:0:0:
416,49,70378,2,0,L|396:229,1,165,2|0,0:0|0:0,0:0:0:0:
355,239,71084,2,0,L|365:356,1,110,6|8,0:0|0:0,0:0:0:0:
277,300,71790,1,2,0:0:0:0:
191,350,72143,2,0,P|148:358|117:351,1,55,8|2,0:0|0:0,0:0:0:0:
88,346,72496,6,0,L|70:204,1,110,6|8,0:0|0:0,0:0:0:0:
69,187,73025,1,6,0:0:0:0:
166,202,73378,1,2,0:0:0:0:
241,137,73731,2,0,P|300:128|359:158,1,110,6|8,0:0|0:0,0:0:0:0:
380,181,74260,1,8,0:0:0:0:
462,235,74613,2,0,L|455:108,1,110,8|8,0:0|0:0,0:0:0:0:
383,57,75319,5,6,0:0:0:0:
184,60,76025,1,4,0:0:0:0:
186,258,76731,1,6,0:0:0:0:
385,255,77437,1,8,0:0:0:0:
449,330,77790,1,8,0:0:0:0:
352,351,78143,5,6,0:0:0:0:
256,192,78319,12,8,79554,0:0:0:0:
399,147,80966,6,0,P|345:155|294:135,1,110,6|2,0:0|0:0,0:0:0:0:
224,66,81672,2,0,P|170:57|119:77,1,110,2|2,0:0|0:0,0:0:0:0:
66,161,82378,2,0,L|81:269,1,110,2|2,0:0|0:0,0:0:0:0:
88,319,82908,1,0,0:0:0:0:
88,319,83084,1,2,0:0:0:0:
184,344,83437,1,10,0:0:0:0:
268,290,83790,6,0,P|321:285|368:313,1,110,6|2,0:0|0:0,0:0:0:0:
454,363,84496,2,0,L|444:253,1,110,6|2,0:0|0:0,0:0:0:0:
376,182,85202,2,0,L|385:72,1,110,6|8,0:0|0:0,0:0:0:0:
389,22,85731,1,8,0:0:0:0:
389,22,85907,2,0,P|350:26|325:38,2,55,10|8|4,0:0|0:0|0:0,0:0:0:0:
