osu file format v14

[General]
AudioFilename: audio.mp3
AudioLeadIn: 0
PreviewTime: 57496
Countdown: 0
SampleSet: Soft
StackLeniency: 0.3
Mode: 0
LetterboxInBreaks: 0
WidescreenStoryboard: 1

[Editor]
Bookmarks: 7480
DistanceSpacing: 1.2
BeatDivisor: 4
GridSize: 4
TimelineZoom: 2.1

[Metadata]
Title:Umarun Taisou(TV size)
TitleUnicode:うまるん体操(TV size)
Artist:SisterS
ArtistUnicode:妹S
Creator:[C u r i]
Version:Hard
Source:干物妹!うまるちゃんR
Tags:himouto! umaruchan R Rumia- Ending ED TV size Umaru Doma Aimi Tanaka Nana Ebina Akari Kageyama Kirie Motoba Haruka Shiraishi Sylphinford Tachibana Yurina Furukawa 土間うまる 田中あいみ 海老名菜々 影山 灯 本場切絵 白石晴香 橘・シルフィンフォード 古川由利奈
BeatmapID:1438987
BeatmapSetID:680251

[Difficulty]
HPDrainRate:5
CircleSize:4
OverallDifficulty:6
ApproachRate:7
SliderMultiplier:1.4
SliderTickRate:1

[Events]
//Background and Video events
Video,-400,"ending.avi"
0,0,"cache-0877e7cd-0aef-4005-c01f-9b37af4d9d1b.jpg",0,0
//Break Periods
//Storyboard Layer 0 (Background)
//Storyboard Layer 1 (Fail)
//Storyboard Layer 2 (Pass)
//Storyboard Layer 3 (Foreground)
//Storyboard Sound Samples

[TimingPoints]
1907.79678954597,352.941176470588,4,2,1,70,1,0
9407,-100,4,2,1,5,0,0
9496,-100,4,2,1,70,0,0
9584,-100,4,2,1,5,0,0
9672,-100,4,2,1,70,0,0
12231,-100,4,2,1,5,0,0
12319,-100,4,2,1,70,0,0
12407,-100,4,2,1,5,0,0
12496,-100,4,2,1,70,0,0
12937,-100,4,2,1,5,0,0
13025,-100,4,2,1,70,0,0
13113,-100,4,2,1,25,0,0
13201,-100,4,2,1,70,0,0
15054,-100,4,2,1,5,0,0
15143,-100,4,2,1,70,0,0
15231,-100,4,2,1,5,0,0
15319,-100,4,2,1,70,0,0
15937,-100,4,2,1,5,0,0
16025,-100,4,2,1,70,0,0
18143,-100,4,2,1,70,0,0
18231,-100,4,2,1,5,0,0
18319,-100,4,2,1,70,0,0
18407,-100,4,2,1,5,0,0
18496,-100,4,2,3,80,0,0
18584,-100,4,2,1,70,0,0
18760,-100,4,2,1,5,0,0
18848,-100,4,2,1,70,0,0
23878,-100,4,2,1,5,0,0
23966,-100,4,2,1,70,0,0
24054,-100,4,2,1,5,0,0
24143,-100,4,2,1,70,0,0
24496,-100,4,2,1,70,0,0
31643,-100,4,2,1,5,0,0
31731,-100,4,2,1,70,0,0
32172,-100,4,2,1,5,0,0
32260,-100,4,2,1,70,0,0
37290,-100,4,2,1,5,0,0
37378,-100,4,2,1,70,0,0
38172,-100,4,2,1,5,0,0
38260,-100,4,2,1,70,0,0
38348,-100,4,2,1,5,0,0
38437,-100,4,2,1,70,0,0
38525,-100,4,2,1,5,0,0
38613,-100,4,2,1,70,0,0
41437,-111.111111111111,4,2,1,70,0,0
42407,-111.111111111111,4,2,1,5,0,0
42496,-111.111111111111,4,2,1,70,0,0
42760,-111.111111111111,4,2,1,5,0,0
42848,-111.111111111111,4,2,1,70,0,0
45937,-111.111111111111,4,2,1,5,0,0
46025,-111.111111111111,4,2,1,70,0,0
47084,-100,4,2,1,70,0,0
52731,-100,4,2,3,70,0,0
52907,-100,4,2,1,70,0,0
57937,-100,4,2,1,5,0,0
58025,-100,4,2,1,70,0,0
58290,-100,4,2,1,5,0,0
58378,-100,4,2,1,90,0,1
58643,-100,4,2,1,5,0,1
58731,-100,4,2,1,90,0,1
58996,-100,4,2,1,5,0,1
59084,-100,4,2,1,90,0,1
59348,-100,4,2,1,5,0,1
59437,-100,4,2,1,90,0,1
63584,-100,4,2,1,5,0,1
63672,-100,4,2,1,90,0,1
63937,-100,4,2,1,5,0,1
64025,-100,4,2,1,90,0,1
64290,-100,4,2,1,5,0,1
64378,-100,4,2,1,90,0,1
64643,-100,4,2,1,5,0,1
64731,-100,4,2,1,90,0,1
64996,-100,4,2,1,5,0,1
65084,-100,4,2,1,90,0,1
69937,-100,4,2,1,5,0,1
70025,-100,4,2,1,90,0,1
71348,-100,4,2,1,5,0,1
71437,-100,4,2,1,90,0,1
72760,-100,4,2,1,5,0,1
72848,-100,4,2,1,90,0,1
73290,-100,4,2,1,5,0,1
73378,-100,4,2,1,90,0,1
73996,-100,4,2,1,5,0,1
74084,-100,4,2,1,90,0,1
75319,-100,4,2,1,90,0,1
76025,-100,4,2,1,90,0,1
76731,-100,4,2,1,90,0,1
77437,-100,4,2,1,90,0,1
78143,-100,4,2,1,70,0,0
79378,-100,4,2,1,5,0,0
79554,-100,4,2,1,70,0,0
80260,-100,4,2,1,70,0,0
80348,-100,4,2,1,5,0,0
80437,-100,4,2,1,70,0,0
80525,-100,4,2,1,5,0,0
80613,-100,4,2,1,70,0,0
82819,-100,4,2,1,5,0,0
82907,-100,4,2,1,70,0,0
82996,-100,4,2,1,5,0,0
83084,-100,4,2,1,70,0,0
83437,-100,4,2,1,70,0,0
83790,-100,4,2,1,70,0,0
85554,-100,4,2,1,70,0,0
85643,-100,4,2,1,5,0,0
85731,-100,4,2,1,70,0,0
85819,-100,4,2,1,5,0,0
85907,-100,4,2,1,70,0,0
85996,-100,4,2,1,5,0,0
86084,-100,4,2,1,70,0,0
86172,-100,4,2,1,5,0,0
86260,-100,4,2,1,70,0,0

[Colours]
Combo1 : 255,194,166
Combo2 : 255,128,64
Combo3 : 255,255,85
Combo4 : 255,119,255

[HitObjects]
156,129,7554,6,0,L|148:211,1,70,6|0,0:0|0:0,0:0:0:0:
145,240,7819,1,0,0:0:0:0:
145,240,7907,2,0,L|137:322,1,70,2|0,0:0|0:0,0:0:0:0:
209,353,8260,2,0,P|262:347|303:337,1,70,2|0,0:0|0:0,0:0:0:0:
317,327,8525,1,0,0:0:0:0:
317,327,8613,2,0,P|370:333|411:343,1,70,2|0,0:0|0:0,0:0:0:0:
465,364,8966,6,0,P|460:311|459:279,1,70,2|0,0:0|0:0,0:0:0:0:
465,252,9231,1,0,0:0:0:0:
465,252,9319,1,2,0:0:0:0:
493,172,9496,1,0,0:0:0:0:
462,93,9672,2,0,L|373:102,1,70,2|0,0:0|0:0,0:0:0:0:
356,122,9937,1,0,0:0:0:0:
356,122,10025,2,0,L|267:113,1,70,2|0,0:0|0:0,0:0:0:0:
214,70,10378,6,0,P|204:134|209:150,1,70,2|0,0:0|0:0,0:0:0:0:
226,173,10643,1,0,0:0:0:0:
226,173,10731,2,0,P|236:237|231:253,1,70,2|0,0:0|0:0,0:0:0:0:
187,310,11084,2,0,P|154:321|119:319,1,70,2|0,0:0|0:0,0:0:0:0:
82,299,11348,1,0,0:0:0:0:
82,299,11437,2,0,P|70:266|72:231,1,70,2|0,0:0|0:0,0:0:0:0:
112,157,11790,6,0,P|123:124|121:89,1,70,2|0,0:0|0:0,0:0:0:0:
95,56,12054,1,0,0:0:0:0:
95,56,12143,2,0,L|179:45,1,70,2|0,0:0|0:0,0:0:0:0:
243,76,12496,1,2,0:0:0:0:
316,35,12672,1,8,0:0:0:0:
316,35,12760,1,0,0:0:0:0:
316,35,12848,1,2,0:0:0:0:
394,65,13025,1,8,0:0:0:0:
503,38,13201,6,0,L|494:123,1,70,6|0,0:0|0:0,0:0:0:0:
470,141,13466,1,0,0:0:0:0:
470,141,13554,2,0,L|479:226,1,70,2|0,0:0|0:0,0:0:0:0:
465,294,13907,2,0,P|434:306|387:298,1,70,2|0,0:0|0:0,0:0:0:0:
363,278,14172,1,0,0:0:0:0:
363,278,14260,2,0,P|331:266|284:274,1,70,2|0,0:0|0:0,0:0:0:0:
239,331,14613,6,0,L|149:338,1,70,2|0,0:0|0:0,0:0:0:0:
127,340,14878,1,0,0:0:0:0:
127,340,14966,1,2,0:0:0:0:
140,256,15143,1,0,0:0:0:0:
157,174,15319,2,0,L|142:90,1,70,2|0,0:0|0:0,0:0:0:0:
136,63,15584,1,0,0:0:0:0:
136,63,15672,2,0,P|185:75|225:69,1,70,2|0,0:0|0:0,0:0:0:0:
281,39,16025,6,0,P|314:28|349:28,1,70,6|0,0:0|0:0,0:0:0:0:
389,41,16290,1,0,0:0:0:0:
389,41,16378,2,0,P|399:74|399:109,1,70,2|0,0:0|0:0,0:0:0:0:
343,171,16731,2,0,P|332:204|332:239,1,70,6|0,0:0|0:0,0:0:0:0:
341,280,16996,1,0,0:0:0:0:
341,280,17084,2,0,P|374:290|409:290,1,70,2|0,0:0|0:0,0:0:0:0:
481,247,17437,6,0,L|473:198,3,35,8|8|2|8,0:0|0:0|0:0|0:0,0:0:0:0:
469,171,17790,2,0,L|477:122,3,35,8|0|8|8,0:0|0:0|0:0|0:0,0:0:0:0:
483,94,18143,1,4,0:0:0:0:
399,109,18319,1,0,0:0:0:0:
345,43,18496,2,0,P|299:20|230:32,1,105,8|0,0:0|0:0,0:0:0:0:
215,51,18848,6,0,P|168:67|138:60,1,70,6|0,0:0|0:0,0:0:0:0:
72,27,19201,1,8,0:0:0:0:
79,110,19378,2,0,L|73:262,1,140,0|2,0:0|0:0,0:0:0:0:
48,330,19907,1,8,0:0:0:0:
130,312,20084,6,0,B|161:301|203:321|203:321|240:340|277:323,1,140,2|2,0:0|0:0,0:0:0:0:
327,269,20613,2,0,P|332:215|322:183,1,70,8|0,0:0|0:0,0:0:0:0:
261,148,20966,1,2,0:0:0:0:
251,231,21143,1,2,0:0:0:0:
328,200,21319,2,0,P|389:194|423:192,1,70,8|2,0:0|0:0,0:0:0:0:
251,231,21672,6,0,P|216:228|181:224,1,70,6|0,0:0|0:0,0:0:0:0:
112,175,22025,1,8,0:0:0:0:
72,100,22201,2,0,P|140:94|189:142,1,140,0|2,0:0|0:0,0:0:0:0:
181,224,22731,1,8,0:0:0:0:
153,302,22907,6,0,B|186:313|221:299|221:299|260:284|296:298,1,140,2|2,0:0|0:0,0:0:0:0:
352,352,23437,2,0,P|420:360|448:351,1,70,8|0,0:0|0:0,0:0:0:0:
479,299,23790,1,2,0:0:0:0:
397,281,23966,1,2,0:0:0:0:
452,217,24143,2,0,L|442:120,1,70,8|0,0:0|0:0,0:0:0:0:
437,106,24407,1,8,0:0:0:0:
437,106,24496,6,0,P|373:91|347:87,1,70,6|0,0:0|0:0,0:0:0:0:
292,125,24848,1,8,0:0:0:0:
219,168,25025,2,0,P|143:171|98:114,1,140,0|2,0:0|0:0,0:0:0:0:
98,43,25554,1,8,0:0:0:0:
180,25,25731,6,0,B|209:13|248:28|248:28|283:42|316:31,1,140,2|2,0:0|0:0,0:0:0:0:
397,8,26260,2,0,P|400:49|382:85,1,70,8|2,0:0|0:0,0:0:0:0:
315,116,26613,1,0,0:0:0:0:
316,30,26790,1,2,0:0:0:0:
389,75,26966,2,0,P|451:69|479:66,1,70,8|2,0:0|0:0,0:0:0:0:
315,116,27319,6,0,P|280:112|245:109,1,70,6|0,0:0|0:0,0:0:0:0:
161,120,27672,1,8,0:0:0:0:
92,167,27848,2,0,P|55:233|78:303,1,140,0|2,0:0|0:0,0:0:0:0:
131,349,28378,1,8,0:0:0:0:
211,324,28554,6,0,B|240:312|279:327|279:327|314:341|347:330,1,140,2|0,0:0|0:0,0:0:0:0:
410,273,29084,2,0,P|422:220|408:183,1,70,8|2,0:0|0:0,0:0:0:0:
357,148,29437,1,0,0:0:0:0:
342,230,29613,1,2,0:0:0:0:
410,273,29790,2,0,P|470:268|477:267,3,35,8|8|8|8,0:0|0:0|0:0|0:0,0:0:0:0:
485,259,30143,6,0,P|509:192|459:114,1,140,6|8,0:0|0:0,0:0:0:0:
414,82,30672,1,0,0:0:0:0:
330,82,30848,2,0,L|174:94,1,140,2|8,0:0|0:0,0:0:0:0:
105,90,31378,1,2,0:0:0:0:
105,90,31554,6,0,L|119:174,1,70,0|2,0:0|0:0,0:0:0:0:
182,211,31907,2,0,L|168:295,1,70,8|0,0:0|0:0,0:0:0:0:
123,349,32260,2,0,P|178:367|208:357,1,70,2|2,0:0|0:0,0:0:0:0:
249,307,32613,2,0,P|304:289|334:299,1,70,8|0,0:0|0:0,0:0:0:0:
378,344,32966,5,6,0:0:0:0:
460,327,33143,1,0,0:0:0:0:
460,327,33672,5,2,0:0:0:0:
477,245,33848,1,2,0:0:0:0:
477,245,34201,5,0,0:0:0:0:
408,195,34378,1,2,0:0:0:0:
477,245,34554,1,2,0:0:0:0:
460,327,34731,1,8,0:0:0:0:
378,344,34907,1,0,0:0:0:0:
314,290,35084,2,0,P|279:290|249:307,1,70,2|2,0:0|0:0,0:0:0:0:
188,365,35437,2,0,P|153:365|123:349,1,70,8|0,0:0|0:0,0:0:0:0:
71,282,35790,6,0,P|74:221|85:128,1,140,6|8,0:0|0:0,0:0:0:0:
127,71,36319,1,0,0:0:0:0:
206,44,36496,2,0,P|246:46|297:61,2,70,2|2|8,0:0|0:0|0:0,0:0:0:0:
232,124,37025,6,0,P|305:130|352:77,1,140,2|2,0:0|0:0,0:0:0:0:
427,54,37554,2,0,P|432:81|431:120,3,35,8|0|0|0,0:0|0:0|0:0|0:0,0:0:0:0:
417,128,37907,1,2,0:0:0:0:
450,205,38084,1,8,0:0:0:0:
433,287,38260,2,0,P|386:305|350:301,1,70,8|8,0:0|0:0,0:0:0:0:
289,271,38613,5,6,0:0:0:0:
357,222,38790,1,0,0:0:0:0:
366,304,38966,1,8,0:0:0:0:
366,304,39319,5,2,0:0:0:0:
289,271,39496,1,2,0:0:0:0:
300,354,39672,1,8,0:0:0:0:
300,354,40025,5,2,0:0:0:0:
223,320,40201,1,2,0:0:0:0:
289,271,40378,1,8,0:0:0:0:
366,304,40554,1,0,0:0:0:0:
436,350,40731,2,0,P|447:293|438:262,1,70,6|2,0:0|0:0,0:0:0:0:
388,220,41084,2,0,P|377:163|386:132,1,70,8|8,0:0|0:0,0:0:0:0:
399,115,41348,1,8,0:0:0:0:
399,115,41437,6,0,B|362:133|308:106|308:106|255:84|208:106,1,188.999994232178,6|2,0:0|0:0,0:0:0:0:
165,159,42143,2,0,P|139:111|176:37,1,125.999996154785,2|8,0:0|0:0,0:0:0:0:
233,199,42848,6,0,P|253:294|161:332,1,188.999994232178,2|2,0:0|0:0,0:0:0:0:
129,280,43554,2,0,P|156:263|187:259,1,62.9999980773926,2|8,0:0|0:0,0:0:0:0:
254,292,43907,2,0,P|280:308|311:313,1,62.9999980773926,8|0,0:0|0:0,0:0:0:0:
378,278,44260,6,0,B|396:239|374:186|374:186|347:132|365:95,1,188.999994232178,2|2,0:0|0:0,0:0:0:0:
419,42,44966,2,0,P|350:66|287:42,1,125.999996154785,2|8,0:0|0:0,0:0:0:0:
233,16,45496,1,0,0:0:0:0:
233,16,45584,1,0,0:0:0:0:
233,16,45672,6,0,L|225:104,1,62.9999980773926,2|0,0:0|0:0,0:0:0:0:
181,138,46025,2,0,L|189:226,1,62.9999980773926,8|0,0:0|0:0,0:0:0:0:
173,275,46378,1,2,0:0:0:0:
245,252,46554,1,8,0:0:0:0:
303,300,46731,2,0,L|297:343,3,31.4999990386963,8|8|0|0,0:0|0:0|0:0|0:0,0:0:0:0:
293,373,47084,6,0,L|389:363,1,70,6|0,0:0|0:0,0:0:0:0:
445,348,47437,1,8,0:0:0:0:
494,280,47613,1,0,0:0:0:0:
494,280,47701,1,0,0:0:0:0:
494,280,47790,1,2,0:0:0:0:
411,265,47966,1,2,0:0:0:0:
424,181,48143,2,0,L|434:94,1,70,8|0,0:0|0:0,0:0:0:0:
437,69,48407,1,0,0:0:0:0:
437,69,48496,6,0,P|388:53|360:59,1,70,2|0,0:0|0:0,0:0:0:0:
302,104,48848,2,0,P|253:120|225:114,1,70,8|0,0:0|0:0,0:0:0:0:
167,67,49201,2,0,P|152:128|157:148,1,70,2|0,0:0|0:0,0:0:0:0:
210,194,49554,1,8,0:0:0:0:
172,269,49731,1,8,0:0:0:0:
172,269,49819,1,8,0:0:0:0:
172,269,49907,6,0,P|230:276|290:219,1,140,6|8,0:0|0:0,0:0:0:0:
276,140,50437,1,0,0:0:0:0:
334,79,50613,2,0,P|368:80|401:93,1,70,2|2,0:0|0:0,0:0:0:0:
440,168,50966,2,0,P|438:202|425:235,1,70,8|0,0:0|0:0,0:0:0:0:
371,299,51319,6,0,L|310:290,3,35,2|0|8|8,0:0|0:0|0:0|0:0,0:0:0:0:
298,274,51672,2,0,L|237:283,3,35,8|8|8|8,0:0|0:0|0:0|0:0,0:0:0:0:
233,309,52025,2,0,L|172:300,3,35,10|8|8|8,0:0|0:0|0:0|0:0,0:0:0:0:
160,284,52378,2,0,L|99:293,3,35,10|8|8|8,0:0|0:0|0:0|0:0,0:0:0:0:
83,296,52731,5,2,0:0:0:0:
256,192,52819,12,8,56966,0:0:0:0:
116,64,57672,6,0,L|105:215,1,140,2|0,0:0|0:0,0:0:0:0:
253,122,58378,6,0,L|340:109,1,70,14|0,0:0|0:0,0:0:0:0:
406,115,58731,2,0,L|373:196,1,70,8|0,0:0|0:0,0:0:0:0:
335,251,59084,2,0,L|280:182,1,70,10|0,0:0|0:0,0:0:0:0:
253,122,59437,1,8,0:0:0:0:
268,39,59613,6,0,P|203:55|170:123,1,140,0|0,0:0|0:0,0:0:0:0:
188,198,60143,1,8,0:0:0:0:
211,278,60319,2,0,L|200:357,1,70,0|2,0:0|0:0,0:0:0:0:
282,371,60672,2,0,L|293:292,1,70,0|8,0:0|0:0,0:0:0:0:
273,219,61025,1,0,0:0:0:0:
371,273,61201,6,0,P|427:274|474:236,2,105,2|0|0,0:0|0:0|0:0,0:0:0:0:
401,194,61907,2,0,L|411:83,1,105,2|0,0:0|0:0,0:0:0:0:
297,33,62437,6,0,P|222:32|163:88,1,140,0|0,0:0|0:0,0:0:0:0:
131,143,62966,2,0,P|75:138|58:125,1,70,8|0,0:0|0:0,0:0:0:0:
10,66,63319,2,0,L|27:222,1,140,2|8,0:0|0:0,0:0:0:0:
135,332,64025,6,0,P|197:313|209:296,1,70,14|0,0:0|0:0,0:0:0:0:
274,274,64378,2,0,P|226:229|205:227,1,70,8|0,0:0|0:0,0:0:0:0:
153,183,64731,2,0,P|138:246|147:265,1,70,10|0,0:0|0:0,0:0:0:0:
198,311,65084,1,8,0:0:0:0:
274,274,65260,6,0,L|426:256,1,140,0|0,0:0|0:0,0:0:0:0:
477,312,65790,1,8,0:0:0:0:
492,229,65966,1,0,0:0:0:0:
425,177,66143,2,0,P|420:105|414:24,1,140,2|8,0:0|0:0,0:0:0:0:
334,15,66672,1,0,0:0:0:0:
264,62,66848,6,0,P|263:139|264:173,2,105,2|0|0,0:0|0:0|0:0,0:0:0:0:
183,37,67554,2,0,P|178:137|181:205,1,140,2|8,0:0|0:0,0:0:0:0:
226,246,68084,6,0,P|282:254|347:195,1,140,0|0,0:0|0:0,0:0:0:0:
367,123,68613,2,0,P|412:153|425:178,1,70,8|0,0:0|0:0,0:0:0:0:
413,249,68966,2,0,L|408:295,3,35,8|8|0|0,0:0|0:3|0:0|0:0,0:0:0:0:
382,316,69319,2,0,L|387:362,3,35,2|8|8|8,0:0|0:0|0:0|0:0,0:0:0:0:
418,377,69672,6,0,P|480:376|508:302,2,140,6|8|2,0:0|0:0|0:0,0:0:0:0:
385,299,70554,1,2,0:0:0:0:
304,325,70731,1,8,0:0:0:0:
237,274,70907,6,0,P|162:267|98:265,1,140,0|0,0:0|0:0,0:0:0:0:
21,301,71437,1,8,0:0:0:0:
45,134,71790,1,2,0:0:0:0:
95,67,71966,1,2,0:0:0:0:
122,146,72143,2,0,L|211:136,1,70,8|2,0:0|0:0,0:0:0:0:
279,66,72496,6,0,L|426:80,1,140,6|8,0:0|0:0,0:0:0:0:
485,130,73025,2,0,P|501:192|449:268,1,140,6|2,0:0|0:0,0:0:0:0:
386,282,73554,1,8,0:0:0:0:
302,293,73731,6,0,L|162:279,1,140,6|8,0:0|0:0,0:0:0:0:
85,245,74260,1,8,0:0:0:0:
155,92,74613,2,0,L|145:35,3,35,8|8|0|8,0:0|0:0|0:0|0:0,0:0:0:0:
112,36,74966,2,0,L|131:155,1,105,8|0,0:0|0:0,0:0:0:0:
154,173,75319,6,0,P|211:184|268:142,2,105,6|0|0,0:0|0:0|0:0,0:0:0:0:
133,254,76025,2,0,P|228:262|283:241,1,140,4|0,0:0|0:0,0:0:0:0:
329,189,76554,1,0,0:0:0:0:
402,148,76731,6,0,P|409:213|381:255,2,105,6|0|0,0:0|0:0|0:0,0:0:0:0:
328,107,77437,2,0,L|252:98,1,70,8|2,0:0|0:0,0:0:0:0:
182,63,77790,2,0,L|112:71,1,70,8|2,0:0|0:0,0:0:0:0:
57,135,78143,5,6,0:0:0:0:
256,192,78231,12,8,79554,0:0:0:0:
356,129,80966,6,0,L|364:211,1,70,6|0,0:0|0:0,0:0:0:0:
367,240,81231,1,0,0:0:0:0:
367,240,81319,2,0,L|375:322,1,70,2|0,0:0|0:0,0:0:0:0:
303,353,81672,2,0,P|250:347|209:337,1,70,2|0,0:0|0:0,0:0:0:0:
195,327,81937,1,0,0:0:0:0:
195,327,82025,2,0,P|142:333|101:343,1,70,2|0,0:0|0:0,0:0:0:0:
47,364,82378,6,0,P|52:311|53:279,1,70,2|0,0:0|0:0,0:0:0:0:
47,252,82643,1,0,0:0:0:0:
47,252,82731,1,2,0:0:0:0:
19,172,82908,1,0,0:0:0:0:
50,93,83084,2,0,L|139:102,1,70,2|0,0:0|0:0,0:0:0:0:
156,122,83349,1,0,0:0:0:0:
156,122,83437,2,0,L|245:113,1,70,10|0,0:0|0:0,0:0:0:0:
298,70,83790,6,0,P|308:134|303:150,1,70,6|0,0:0|0:0,0:0:0:0:
286,173,84055,1,0,0:0:0:0:
286,173,84143,2,0,P|276:237|281:253,1,70,2|0,0:0|0:0,0:0:0:0:
325,310,84496,2,0,P|358:321|393:319,1,70,6|0,0:0|0:0,0:0:0:0:
430,299,84760,1,0,0:0:0:0:
430,299,84849,2,0,P|442:266|440:231,1,70,2|0,0:0|0:0,0:0:0:0:
400,157,85202,6,0,P|389:124|391:89,1,70,6|8,0:0|0:0,0:0:0:0:
417,56,85466,1,8,0:0:0:0:
417,56,85555,2,0,L|333:45,1,70,8|8,0:0|0:0,0:0:0:0:
269,76,85908,1,8,0:0:0:0:
196,35,86084,1,8,0:0:0:0:
134,92,86260,1,4,0:0:0:0:
