osu file format v14

[General]
AudioFilename: audio.mp3
AudioLeadIn: 0
PreviewTime: 57496
Countdown: 0
SampleSet: Soft
StackLeniency: 0.3
Mode: 0
LetterboxInBreaks: 0
WidescreenStoryboard: 0

[Editor]
Bookmarks: 7480
DistanceSpacing: 1
BeatDivisor: 2
GridSize: 4
TimelineZoom: 1

[Metadata]
Title:Umarun Taisou(TV size)
TitleUnicode:うまるん体操(TV size)
Artist:SisterS
ArtistUnicode:妹S
Creator:[C u r i]
Version:Easy
Source:干物妹!うまるちゃんR
Tags:himouto! umaruchan R Rumia- Ending ED TV size Umaru Doma Aimi Tanaka Nana Ebina Akari Kageyama Kirie Motoba Haruka Shiraishi Sylphinford Tachibana Yurina Furukawa 土間うまる 田中あいみ 海老名菜々 影山 灯 本場切絵 白石晴香 橘・シルフィンフォード 古川由利奈
BeatmapID:1438407
BeatmapSetID:680251

[Difficulty]
HPDrainRate:2
CircleSize:3
OverallDifficulty:2
ApproachRate:3
SliderMultiplier:0.9
SliderTickRate:1

[Events]
//Background and Video events
Video,-400,"ending.avi"
0,0,"cache-0877e7cd-0aef-4005-c01f-9b37af4d9d1b.jpg",0,0
//Break Periods
//Storyboard Layer 0 (Background)
//Storyboard Layer 1 (Fail)
//Storyboard Layer 2 (Pass)
//Storyboard Layer 3 (Foreground)
//Storyboard Sound Samples

[TimingPoints]
1907.79678954597,352.941176470588,4,2,1,70,1,0
9407,-100,4,2,1,5,0,0
9496,-100,4,2,1,70,0,0
9584,-100,4,2,1,5,0,0
9672,-100,4,2,1,70,0,0
12231,-100,4,2,1,5,0,0
12319,-100,4,2,1,70,0,0
12407,-100,4,2,1,5,0,0
12496,-100,4,2,1,70,0,0
12937,-100,4,2,1,5,0,0
13025,-100,4,2,1,70,0,0
13113,-100,4,2,1,25,0,0
13201,-100,4,2,1,70,0,0
15054,-100,4,2,1,5,0,0
15143,-100,4,2,1,70,0,0
15231,-100,4,2,1,5,0,0
15319,-100,4,2,1,70,0,0
15937,-100,4,2,1,5,0,0
16025,-100,4,2,1,70,0,0
18143,-100,4,2,1,70,0,0
18231,-100,4,2,1,5,0,0
18319,-100,4,2,1,70,0,0
18407,-100,4,2,1,5,0,0
18496,-100,4,2,3,80,0,0
18584,-100,4,2,1,70,0,0
18760,-100,4,2,1,5,0,0
18848,-100,4,2,1,70,0,0
23878,-100,4,2,1,5,0,0
23966,-100,4,2,1,70,0,0
24054,-100,4,2,1,5,0,0
24143,-100,4,2,1,70,0,0
24496,-100,4,2,1,70,0,0
31643,-100,4,2,1,5,0,0
31731,-100,4,2,1,70,0,0
32172,-100,4,2,1,5,0,0
32260,-100,4,2,1,70,0,0
37290,-100,4,2,1,5,0,0
37378,-100,4,2,1,70,0,0
38172,-100,4,2,1,5,0,0
38260,-100,4,2,1,70,0,0
38348,-100,4,2,1,5,0,0
38437,-100,4,2,1,70,0,0
38525,-100,4,2,1,5,0,0
38613,-100,4,2,1,70,0,0
41437,-100,4,2,1,70,0,0
42407,-100,4,2,1,5,0,0
42496,-100,4,2,1,70,0,0
42760,-100,4,2,1,5,0,0
42848,-100,4,2,1,70,0,0
45937,-100,4,2,1,5,0,0
46025,-100,4,2,1,70,0,0
47084,-100,4,2,1,70,0,0
52731,-100,4,2,3,70,0,0
52907,-100,4,2,1,70,0,0
57937,-100,4,2,1,5,0,0
58025,-100,4,2,1,70,0,0
58290,-100,4,2,1,5,0,0
58378,-100,4,2,1,90,0,1
58643,-100,4,2,1,5,0,1
58731,-100,4,2,1,90,0,1
58996,-100,4,2,1,5,0,1
59084,-100,4,2,1,90,0,1
59348,-100,4,2,1,5,0,1
59437,-100,4,2,1,90,0,1
63584,-100,4,2,1,5,0,1
63672,-100,4,2,1,90,0,1
63937,-100,4,2,1,5,0,1
64025,-100,4,2,1,90,0,1
64290,-100,4,2,1,5,0,1
64378,-100,4,2,1,90,0,1
64643,-100,4,2,1,5,0,1
64731,-100,4,2,1,90,0,1
64996,-100,4,2,1,5,0,1
65084,-100,4,2,1,90,0,1
69937,-100,4,2,1,5,0,1
70025,-100,4,2,1,90,0,1
71348,-100,4,2,1,5,0,1
71437,-100,4,2,1,90,0,1
72760,-100,4,2,1,5,0,1
72848,-100,4,2,1,90,0,1
73290,-100,4,2,1,5,0,1
73378,-100,4,2,1,90,0,1
73996,-100,4,2,1,5,0,1
74084,-100,4,2,1,90,0,1
75319,-100,4,2,1,90,0,1
76025,-100,4,2,1,90,0,1
76731,-100,4,2,1,90,0,1
77437,-100,4,2,1,90,0,1
78143,-100,4,2,1,70,0,0
79378,-100,4,2,1,5,0,0
79554,-100,4,2,1,70,0,0
80260,-100,4,2,1,70,0,0
80348,-100,4,2,1,5,0,0
80437,-100,4,2,1,70,0,0
80525,-100,4,2,1,5,0,0
80613,-100,4,2,1,70,0,0
82819,-100,4,2,1,5,0,0
82907,-100,4,2,1,70,0,0
82996,-100,4,2,1,5,0,0
83084,-100,4,2,1,70,0,0
83437,-100,4,2,1,70,0,0
83790,-100,4,2,1,70,0,0
85554,-100,4,2,1,70,0,0
85643,-100,4,2,1,5,0,0
85731,-100,4,2,1,70,0,0
85819,-100,4,2,1,5,0,0
85907,-100,4,2,1,70,0,0
85996,-100,4,2,1,5,0,0
86084,-100,4,2,1,70,0,0
86172,-100,4,2,1,5,0,0
86260,-100,4,2,1,70,0,0

[Colours]
Combo1 : 255,194,166
Combo2 : 255,128,64
Combo3 : 255,255,85
Combo4 : 255,119,255

[HitObjects]
122,119,7554,6,0,P|211:106|291:198,1,180,6|2,0:0|0:0,0:0:0:0:
296,247,8613,1,2,0:0:0:0:
224,302,8966,2,0,P|207:260|212:215,2,90,2|2|2,0:0|0:0|0:0,0:0:0:0:
309,332,10025,1,2,0:0:0:0:
386,285,10378,6,0,L|406:88,1,180,2|2,0:0|0:0,0:0:0:0:
337,45,11437,1,2,0:0:0:0:
268,103,11790,2,0,L|257:207,2,90,2|2|2,0:0|0:0|0:0,0:0:0:0:
207,36,12848,1,2,0:0:0:0:
129,82,13201,6,0,L|110:261,1,180,6|2,0:0|0:0,0:0:0:0:
95,350,14260,1,2,0:0:0:0:
184,355,14613,2,0,P|247:347|283:335,1,90,2|2,0:0|0:0,0:0:0:0:
342,283,15319,2,0,P|405:291|441:303,1,90,2|2,0:0|0:0,0:0:0:0:
488,367,16025,6,0,L|474:164,1,180,6|6,0:0|0:0,0:0:0:0:
428,110,17084,1,2,0:0:0:0:
357,54,17437,2,0,P|290:59|246:85,1,90,8|8,0:0|0:0,0:0:0:0:
214,139,18143,1,4,0:0:0:0:
135,99,18496,1,8,0:0:0:0:
87,175,18848,6,0,L|100:291,1,90,6|8,0:0|0:0,0:0:0:0:
138,344,19554,2,0,P|205:343|258:290,2,135,2|2|8,0:0|0:0|0:0,0:0:0:0:
97,264,20966,2,0,L|87:175,1,90,2|8,0:0|0:0,0:0:0:0:
135,99,21672,6,0,P|188:93|245:115,1,90,6|8,0:0|0:0,0:0:0:0:
292,159,22378,2,0,P|376:158|416:98,1,135,2|2,0:0|0:0,0:0:0:0:
466,2,23437,1,8,0:0:0:0:
495,87,23790,2,0,L|485:201,1,90,2|8,0:0|0:0,0:0:0:0:
471,265,24496,6,0,P|428:269|373:253,1,90,6|8,0:0|0:0,0:0:0:0:
308,207,25201,2,0,P|220:212|157:252,2,135,2|2|8,0:0|0:0|0:0,0:0:0:0:
382,257,26613,2,0,P|388:335|383:363,1,90,2|8,0:0|0:0,0:0:0:0:
302,379,27319,6,0,L|194:370,1,90,6|8,0:0|0:0,0:0:0:0:
131,330,28025,2,0,P|110:250|105:180,1,135,2|2,0:0|0:0,0:0:0:0:
145,69,29084,1,8,0:0:0:0:
229,101,29437,2,0,P|297:99|333:74,1,90,2|8,0:0|0:0,0:0:0:0:
376,22,30143,6,0,P|473:22|513:94,1,180,6|2,0:0|0:0,0:0:0:0:
423,96,31201,1,8,0:0:0:0:
390,180,31554,2,0,L|398:286,1,90,0|8,0:0|0:0,0:0:0:0:
446,344,32260,2,0,P|394:360|338:336,1,90,2|8,0:0|0:0,0:0:0:0:
310,278,32966,5,6,0:0:0:0:
162,175,33672,1,2,0:0:0:0:
130,354,34378,2,0,P|81:357|29:323,1,90,2|8,0:0|0:0,0:0:0:0:
60,251,35084,2,0,P|108:247|161:282,1,90,2|8,0:0|0:0,0:0:0:0:
213,323,35790,6,0,P|311:336|362:266,1,180,2|2,0:0|0:0,0:0:0:0:
272,254,36848,1,8,0:0:0:0:
203,195,37201,2,0,L|210:93,1,90,0|8,0:0|0:0,0:0:0:0:
154,33,37907,1,2,0:0:0:0:
243,28,38260,1,8,0:0:0:0:
301,96,38613,6,0,L|287:211,1,90,2|8,0:0|0:0,0:0:0:0:
372,221,39319,2,0,L|386:106,1,90,2|8,0:0|0:0,0:0:0:0:
379,41,40025,2,0,P|437:55|459:83,2,90,2|8|6,0:0|0:0|0:0,0:0:0:0:
382,131,41084,1,8,0:0:0:0:
304,176,41437,6,0,P|194:212|166:65,1,270,6|8,0:0|0:0,0:0:0:0:
228,129,42848,2,0,B|186:176|218:250|218:250|260:335|195:388,1,270,2|8,0:0|0:0,0:0:0:0:
144,311,44260,6,0,B|194:272|270:310|270:310|351:349|434:290,1,270,2|8,0:0|0:0,0:0:0:0:
460,241,45672,2,0,P|484:177|336:57,1,270,2|8,0:0|0:0,0:0:0:0:
281,101,47084,6,0,L|296:207,2,90,6|8|2,0:0|0:0|0:0,0:0:0:0:
196,70,48143,1,8,0:0:0:0:
124,124,48496,2,0,L|139:230,2,90,2|8|2,0:0|0:0|0:0,0:0:0:0:
196,70,49554,1,8,0:0:0:0:
281,101,49907,6,0,P|333:115|381:95,1,90,2|8,0:0|0:0,0:0:0:0:
416,29,50613,2,0,P|468:15|516:35,1,90,2|8,0:0|0:0,0:0:0:0:
511,114,51319,2,0,L|499:226,1,90,2|8,0:0|0:0,0:0:0:0:
485,292,52025,2,0,P|441:301|399:287,1,90,10|10,0:0|0:0,0:0:0:0:
256,192,52731,12,8,56966,0:0:0:0:
111,244,58378,6,0,L|130:352,2,90,14|8|10,0:0|0:0|0:0,0:0:0:0:
92,155,59437,1,8,0:0:0:0:
115,68,59790,2,0,P|176:72|211:99,1,90,2|8,0:0|0:0,0:0:0:0:
271,140,60496,2,0,P|332:136|367:109,1,90,2|8,0:0|0:0,0:0:0:0:
440,91,61201,6,0,L|429:208,1,90,2|8,0:0|0:0,0:0:0:0:
358,233,61907,2,0,L|371:377,2,135,2|0|8,0:0|0:0|0:0,0:0:0:0:
320,150,63319,2,0,P|253:154|218:188,1,90,2|8,0:0|0:0,0:0:0:0:
178,235,64025,6,0,P|111:231|76:197,2,90,10|8|10,0:0|0:0|0:0,0:0:0:0:
235,165,65084,1,8,0:0:0:0:
295,98,65437,2,0,P|334:78|379:82,1,90,2|8,0:0|0:0,0:0:0:0:
453,133,66143,2,0,P|472:172|468:217,1,90,2|8,0:0|0:0,0:0:0:0:
415,289,66848,6,0,L|303:306,1,90,2|8,0:0|0:0,0:0:0:0:
250,351,67554,2,0,L|86:336,2,135,2|0|8,0:0|0:0|0:0,0:0:0:0:
326,302,68966,2,0,P|340:254|330:193,1,90,8|2,0:0|0:0,0:0:0:0:
264,160,69672,6,0,P|250:112|260:51,1,90,6|8,0:0|0:0,0:0:0:0:
333,31,70378,2,0,L|477:45,2,135,2|0|8,0:0|0:0|0:0,0:0:0:0:
252,72,71790,2,0,L|131:61,1,90,2|8,0:0|0:0,0:0:0:0:
72,76,72496,6,0,P|26:151|40:211,1,135,6|6,0:0|0:0,0:0:0:0:
139,338,73731,2,0,L|277:313,1,135,6|8,0:0|0:0,0:0:0:0:
334,249,74613,2,0,L|443:259,1,90,8|8,0:0|0:0,0:0:0:0:
477,329,75319,6,0,L|460:139,1,180,6|4,0:0|0:0,0:0:0:0:
335,20,76731,2,0,L|318:199,1,180,6|8,0:0|0:0,0:0:0:0:
277,279,77790,1,8,0:0:0:0:
187,267,78143,2,0,B|139:262|114:302|114:302|117:250|86:195|24:187|43:101|104:78|148:116,1,360,6|8,0:0|0:0,0:0:0:0:
428,330,80966,6,0,P|441:241|349:161,1,180,6|2,0:0|0:0,0:0:0:0:
300,156,82025,1,2,0:0:0:0:
245,228,82378,2,0,P|287:244|331:240,2,90,2|2|2,0:0|0:0|0:0,0:0:0:0:
215,143,83437,1,10,0:0:0:0:
262,66,83790,6,0,L|459:46,1,180,6|6,0:0|0:0,0:0:0:0:
502,115,84849,1,2,0:0:0:0:
444,184,85202,2,0,L|340:195,2,90,6|8|8,0:0|0:0|0:0,0:0:0:0:
511,245,86260,1,4,0:0:0:0:
